<?xml version="1.0" standalone="no"?><!DOCTYPE svg PUBLIC "-//W3C//DTD SVG 1.1//EN" "http://www.w3.org/Graphics/SVG/1.1/DTD/svg11.dtd" ><svg xmlns="http://www.w3.org/2000/svg"><metadata></metadata><defs><font id="fonteditor" horiz-adv-x="256"><font-face font-family="v~^¦~üz{OS" font-weight="400" font-stretch="normal" units-per-em="256" panose-1="2 1 6 1 3 1 1 1 1 1" ascent="229" descent="-62" x-height="1" bbox="5 -51 248 210" underline-thickness="0" underline-position="0" unicode-range="U+0023-ff1a" /><missing-glyph horiz-adv-x="256"  /><glyph glyph-name="numbersign" unicode="#" d="M154 119 L151 97 L129 97 L123 51 L142 51 L139 29 L119 29 L114 -9 L92 -9 L98 29 L65 29 L59 -9 L37 -9 L43 29 L22 29 L25 51 L46 51 L53 97 L34 97 L37 119 L56 119 L62 158 L83 158 L78 119 L111 119 L117 158 L138 158 L132 119 L154 119 ZM108 97 L75 97 L68 51 L101 51 L108 97 Z" /><glyph glyph-name="percent" unicode="%" d="M188 30 Q188 11 178 -1 Q168 -15 150 -15 Q133 -15 122 -1 Q113 11 113 30 Q113 47 122 60 Q133 74 150 74 Q168 74 178 60 Q188 47 188 30 ZM152 153 L63 -15 L44 -5 L133 163 L152 153 ZM83 119 Q83 101 73 88 Q63 74 45 74 Q28 74 18 88 Q8 101 8 119 Q8 137 18 149 Q28 163 45 163 Q63 163 73 149 Q83 137 83 119 ZM169 30 Q169 40 164 47 Q159 55 150 55 Q141 55 137 47 Q132 40 132 30 Q132 19 136 12 Q141 4 150 4 Q159 4 164 12 Q169 19 169 30 ZM64 119 Q64 129 59 136 Q54 144 45 144 Q36 144 31 136 Q27 129 27 119 Q27 109 32 101 Q36 93 45 93 Q54 93 59 101 Q64 109 64 119 Z" /><glyph glyph-name="parenleft" unicode="(" d="M62 -31 L40 -31 Q25 -10 17 19 Q9 46 9 75 Q9 103 17 131 Q25 159 40 180 L62 180 Q47 159 39 131 Q30 103 30 75 Q30 46 38 19 Q47 -10 62 -31 Z" /><glyph glyph-name="parenright" unicode=")" d="M62 75 Q62 46 54 19 Q45 -10 30 -31 L9 -31 Q24 -10 32 19 Q40 46 40 75 Q40 103 32 131 Q24 159 9 180 L30 180 Q45 159 53 131 Q62 103 62 75 Z" /><glyph glyph-name="hyphen" unicode="-" d="M75 39 L11 39 L11 60 L75 60 L75 39 Z" /><glyph glyph-name="period" unicode="." d="M59 -15 L29 -15 L29 15 L59 15 L59 -15 Z" /><glyph glyph-name="zero" unicode="0" d="M168 74 Q168 37 145 11 Q121 -15 88 -15 Q54 -15 31 11 Q7 37 7 74 Q7 111 31 137 Q54 163 88 163 Q121 163 145 137 Q168 111 168 74 ZM145 74 Q145 101 128 120 Q111 140 88 140 Q65 140 48 120 Q31 101 31 74 Q31 47 48 28 Q65 9 88 9 Q111 9 128 28 Q145 47 145 74 Z" /><glyph glyph-name="one" unicode="1" d="M100 -10 L76 -10 L76 158 L100 158 L100 -10 Z" /><glyph glyph-name="two" unicode="2" d="M159 114 Q159 89 142 77 Q128 66 104 66 L69 66 Q53 66 47 61 Q41 55 41 38 L41 14 L157 14 L157 -10 L17 -10 L17 38 Q17 90 69 90 L104 90 Q135 90 135 114 Q135 122 127 128 Q119 134 107 134 L19 134 L19 158 L107 158 Q126 158 141 148 Q159 135 159 114 Z" /><glyph glyph-name="three" unicode="3" d="M157 39 Q157 15 140 2 Q125 -10 103 -10 L22 -10 L22 14 L102 14 Q132 14 132 39 Q132 65 99 65 L23 65 L23 89 L102 89 Q131 89 131 113 Q131 134 103 134 L19 134 L19 158 L103 158 Q122 158 135 150 Q155 139 155 113 Q155 88 139 76 Q157 65 157 39 Z" /><glyph glyph-name="four" unicode="4" d="M170 24 L142 24 L142 -10 L118 -10 L118 24 L5 24 L5 44 L106 158 L142 158 L142 48 L170 48 L170 24 ZM118 48 L118 136 L41 48 L118 48 Z" /><glyph glyph-name="five" unicode="5" d="M159 43 Q159 18 140 3 Q122 -10 93 -10 L18 -10 L18 14 L93 14 Q114 14 126 23 Q136 31 136 43 Q136 62 121 69 Q110 75 89 75 L16 75 L16 158 L152 158 L152 134 L40 134 L40 98 L89 98 Q159 98 159 43 Z" /><glyph glyph-name="six" unicode="6" d="M164 43 Q164 18 143 1 Q122 -15 90 -15 Q56 -15 36 5 Q12 30 12 80 Q12 111 32 134 Q53 158 84 158 L153 158 L153 134 L84 134 Q67 134 54 122 Q41 110 38 92 L105 92 Q134 92 147 82 Q164 71 164 43 ZM140 43 Q140 57 133 63 Q126 68 105 68 L37 68 Q41 9 90 9 Q114 9 128 20 Q140 30 140 43 Z" /><glyph glyph-name="seven" unicode="7" d="M162 137 L66 -10 L38 -10 L132 134 L14 134 L14 158 L162 158 L162 137 Z" /><glyph glyph-name="eight" unicode="8" d="M168 38 Q168 10 142 -4 Q121 -15 88 -15 Q55 -15 34 -4 Q8 10 8 38 Q8 64 29 77 Q8 89 8 116 Q8 143 35 155 Q55 163 85 163 Q115 163 135 155 Q162 143 162 116 Q162 91 144 79 Q168 66 168 38 ZM138 116 Q138 130 118 137 Q104 140 85 140 Q65 140 52 137 Q31 130 31 116 Q31 101 52 94 Q66 90 85 90 Q104 90 118 94 Q138 101 138 116 ZM143 39 Q143 68 88 68 Q33 68 33 39 Q33 22 54 14 Q69 8 88 8 Q107 8 121 14 Q143 22 143 39 Z" /><glyph glyph-name="nine" unicode="9" d="M164 83 Q164 32 142 10 Q123 -10 83 -10 L24 -10 L24 14 L83 14 Q110 14 124 25 Q135 35 139 56 L71 56 Q41 56 26 70 Q12 82 12 105 Q12 125 29 143 Q49 163 79 163 Q117 163 137 149 Q164 129 164 83 ZM140 83 Q140 117 123 130 Q110 140 79 140 Q58 140 46 127 Q35 116 35 105 Q35 93 42 87 Q50 80 71 80 L140 80 L140 83 Z" /><glyph glyph-name="colon" unicode=":" d="M59 50 L29 50 L29 80 L59 80 L59 50 ZM59 -15 L29 -15 L29 15 L59 15 L59 -15 Z" /><glyph glyph-name="at" unicode="@" d="M176 32 Q172 25 166 17 Q139 -15 96 -15 Q58 -15 33 11 Q8 37 8 75 Q8 111 33 137 Q59 163 95 163 Q128 163 152 143 Q176 121 176 88 Q176 75 171 62 Q164 45 151 33 Q136 19 120 19 Q107 19 102 28 Q90 19 74 19 Q59 19 50 31 Q42 41 42 57 Q42 83 57 105 Q74 129 99 129 Q113 129 123 117 L125 124 L144 124 Q127 145 96 145 Q67 145 47 124 Q28 102 28 73 Q28 44 47 24 Q67 3 96 3 Q124 3 147 24 Q152 28 154 32 L176 32 ZM156 89 Q156 108 145 122 L121 51 Q119 45 119 42 Q119 38 123 38 Q133 38 142 50 Q150 60 153 71 Q156 80 156 89 ZM112 95 Q112 100 108 106 Q104 111 99 111 Q85 111 74 91 Q64 74 64 58 Q64 37 78 37 Q90 37 102 60 Q112 80 112 95 Z" /><glyph glyph-name="A" unicode="a" d="M190 -10 L164 -10 L146 30 L50 30 L34 -10 L8 -10 L78 158 L96 158 Q109 158 116 152 Q122 147 128 133 L190 -10 ZM136 54 L104 128 Q101 135 96 135 L94 135 L60 54 L136 54 Z" /><glyph glyph-name="C" unicode="c" d="M150 -10 L87 -10 Q8 -10 8 74 Q8 158 87 158 L150 158 L150 134 L87 134 Q62 134 50 125 Q31 111 31 74 Q31 37 50 24 Q62 14 87 14 L150 14 L150 -10 Z" /><glyph glyph-name="E" unicode="e" d="M138 -10 L75 -10 Q38 -10 23 6 Q8 23 8 62 L8 158 L138 158 L138 134 L31 134 L31 88 L132 88 L132 65 L31 65 L31 62 Q31 34 41 24 Q50 14 75 14 L138 14 L138 -10 Z" /><glyph glyph-name="G" unicode="g" d="M155 -10 L87 -10 Q53 -10 35 3 Q8 22 8 74 Q8 126 35 146 Q53 158 87 158 L154 158 L154 134 L87 134 Q61 134 50 127 Q32 113 32 74 Q32 35 50 22 Q61 14 87 14 L131 14 L131 39 Q131 53 126 59 Q121 64 108 64 L78 64 L78 87 L108 87 Q155 87 155 39 L155 -10 Z" /><glyph glyph-name="L" unicode="l" d="M137 -10 L72 -10 Q38 -10 22 7 Q8 22 8 53 L8 158 L31 158 L31 56 Q31 34 40 25 Q49 14 72 14 L137 14 L137 -10 Z" /><glyph glyph-name="M" unicode="m" d="M190 -10 L166 -10 L166 125 L108 -10 L89 -10 L32 125 L32 -10 L8 -10 L8 158 L43 158 L99 28 L154 158 L190 158 L190 -10 Z" /><glyph glyph-name="P" unicode="p" d="M143 105 Q143 77 121 62 Q105 52 86 52 L31 52 L31 -10 L8 -10 L8 158 L86 158 Q105 158 121 148 Q143 133 143 105 ZM120 105 Q120 120 108 128 Q99 134 86 134 L31 134 L31 76 L86 76 Q99 76 108 82 Q120 90 120 105 Z" /><glyph glyph-name="T" unicode="t" d="M161 134 L96 134 L96 -10 L73 -10 L73 134 L8 134 L8 158 L161 158 L161 134 Z" /><glyph glyph-name="a" unicode="a" d="M122 -10 L47 -10 Q34 -10 23 -3 Q7 7 7 28 Q7 48 23 59 Q34 66 47 66 L98 66 Q95 86 67 86 L9 86 L9 110 L67 110 Q94 110 108 96 Q122 82 122 58 L122 -10 ZM99 13 L99 42 L47 42 Q40 42 35 39 Q30 35 30 28 Q30 21 35 17 Q40 13 47 13 L99 13 Z" /><glyph glyph-name="c" unicode="c" d="M118 -10 L62 -10 Q41 -10 24 5 Q7 21 7 49 Q7 78 24 95 Q40 109 62 109 L118 109 L118 86 L63 86 Q50 86 41 77 Q30 67 30 49 Q30 32 41 22 Q50 14 63 14 L118 14 L118 -10 Z" /><glyph glyph-name="i" unicode="i" d="M47 134 L23 134 L23 158 L47 158 L47 134 ZM47 -10 L23 -10 L23 109 L47 109 L47 -10 Z" /><glyph glyph-name="l" unicode="l" d="M30 -10 L7 -10 L7 158 L30 158 L30 -10 Z" /><glyph glyph-name="m" unicode="m" d="M174 -10 L150 -10 L150 53 Q150 72 141 79 Q133 86 115 86 L102 86 L102 -10 L78 -10 L78 86 L30 86 L30 -10 L7 -10 L7 109 L115 109 Q174 109 174 53 L174 -10 Z" /><glyph glyph-name="o" unicode="o" d="M136 50 Q136 23 117 4 Q98 -15 71 -15 Q44 -15 25 4 Q7 23 7 50 Q7 77 25 96 Q44 115 71 115 Q98 115 117 96 Q136 77 136 50 ZM113 50 Q113 67 100 79 Q88 91 71 91 Q54 91 42 79 Q30 67 30 50 Q30 33 42 21 Q54 9 71 9 Q88 9 100 21 Q113 33 113 50 Z" /><glyph glyph-name="q" unicode="q" d="M121 -51 L97 -51 L97 -10 L63 -10 Q39 -10 23 7 Q7 24 7 50 Q7 76 23 92 Q39 109 63 109 L121 109 L121 -51 ZM97 13 L97 86 L63 86 Q49 86 40 76 Q30 66 30 50 Q30 33 40 23 Q49 13 63 13 L97 13 Z" /><glyph glyph-name="uni3002" unicode="&#x3002;" d="M64 44 Q36 41 34 14 Q36 -13 64 -16 Q92 -13 95 14 Q92 41 64 44 ZM64 55 Q102 51 106 14 Q102 -22 64 -26 Q26 -22 23 14 Q26 51 64 55 Z" /><glyph glyph-name="uni4E0B" unicode="&#x4e0b;" d="M17 174 L17 205 L245 205 L245 174 L131 174 L131 -22 L94 -22 L94 174 L17 174 ZM152 133 L187 133 L200 78 Q201 64 212 66 L233 66 L233 31 L191 31 Q172 28 169 53 L152 133 Z" /><glyph glyph-name="uni4E0E" unicode="&#x4e0e;" d="M16 115 L24 115 L31 205 L65 205 L63 192 L244 192 L244 162 L61 162 L57 115 L242 115 L242 0 Q243 -21 220 -20 L164 -20 L164 9 L204 9 Q207 8 207 13 L207 85 L16 85 L16 115 ZM19 51 L195 51 L195 22 L19 22 L19 51 Z" /><glyph glyph-name="uni4E13" unicode="&#x4e13;" d="M18 193 L60 193 L64 205 L100 205 L96 193 L241 193 L241 163 L87 163 L77 134 L242 134 L242 106 L68 106 L55 72 L241 72 L241 45 L207 3 L240 3 L240 -23 L102 -23 Q91 -23 84 -18 L19 25 L73 25 L103 6 Q107 2 113 3 L165 3 L196 42 L17 42 L17 66 L32 106 L18 106 L18 135 L42 135 L51 163 L18 163 L18 193 Z" /><glyph glyph-name="uni4E2D" unicode="&#x4e2d;" d="M24 185 L115 185 L115 203 L155 203 L155 185 L246 185 L246 24 Q247 -6 220 -4 L154 -4 L154 -22 L117 -22 L117 -5 L24 -5 L24 185 ZM116 152 L61 152 L61 26 L116 26 L116 152 ZM154 27 L205 27 Q209 26 209 33 L209 152 L154 152 L154 27 Z" /><glyph glyph-name="uni4E8C" unicode="&#x4e8c;" d="M23 167 L23 198 L243 198 L243 167 L23 167 ZM16 19 L246 19 L246 -13 L16 -13 L16 19 Z" /><glyph glyph-name="uni4EAE" unicode="&#x4eae;" d="M15 196 L111 196 L111 207 L149 207 L149 196 L243 196 L243 168 L15 168 L15 196 ZM22 93 L22 160 L239 160 L239 114 Q240 90 217 93 L22 93 ZM202 127 L202 131 L57 131 L57 120 L196 120 Q202 119 202 127 ZM51 27 L15 27 L15 82 L244 82 L244 27 L207 27 L207 54 L51 54 L51 27 ZM63 16 L63 46 L196 46 L196 15 Q195 8 203 9 L243 9 L243 -20 L181 -20 Q154 -22 157 3 L157 17 L99 17 L99 0 Q100 -21 83 -19 L15 -19 L15 9 L57 9 Q63 8 63 16 Z" /><glyph glyph-name="uni4EE5" unicode="&#x4ee5;" d="M115 13 L202 207 L240 207 L195 97 L224 16 Q226 9 231 10 L242 10 L242 -21 L218 -21 Q201 -22 197 -8 L173 52 L145 -9 Q139 -23 125 -22 L91 -22 L91 10 L107 10 Q114 9 115 13 ZM13 204 L51 204 L51 10 L80 10 L80 -21 L13 -21 L13 204 ZM81 100 L67 188 L105 188 L117 120 Q118 113 123 114 L136 114 L136 82 L100 82 Q83 81 81 100 Z" /><glyph glyph-name="uni4F5C" unicode="&#x4f5c;" d="M34 167 L52 208 L89 208 L67 150 L67 -21 L31 -21 L31 131 L14 131 L14 160 L23 160 Q30 159 34 167 ZM76 131 L76 161 L82 161 Q88 160 91 169 L105 207 L144 207 L139 189 L244 189 L244 158 L130 158 L130 112 L244 112 L244 81 L130 81 L130 36 L244 36 L244 5 L130 5 L130 -20 L92 -20 L92 131 L76 131 Z" /><glyph glyph-name="uni5154" unicode="&#x5154;" d="M63 178 L20 178 L20 208 L244 208 L244 155 Q244 132 213 132 L129 132 L129 161 L205 161 Q209 160 209 165 L209 178 L103 178 L95 147 Q92 130 72 132 L20 132 L20 161 L54 161 Q60 160 60 164 L63 178 ZM17 124 L243 124 L243 58 Q242 33 218 33 L178 33 L178 8 Q178 3 185 3 L190 3 L197 21 L233 21 L229 3 L243 3 L243 -25 L165 -25 Q139 -25 141 -4 L141 33 L117 33 L94 -13 Q89 -25 72 -25 L17 -25 L17 3 L56 3 Q60 2 63 8 L75 33 L17 33 L17 124 ZM114 95 L55 95 L55 63 L114 63 L114 95 ZM209 95 L149 95 L149 62 L205 62 Q209 61 209 66 L209 95 Z" /><glyph glyph-name="uni5173" unicode="&#x5173;" d="M85 193 L186 193 L192 204 L232 204 L232 193 L245 193 L245 159 L151 159 L151 116 L244 116 L244 82 L145 82 L136 68 L170 68 L212 12 Q218 1 228 3 L244 3 L244 -25 L207 -25 Q189 -26 173 -2 L129 57 L81 -15 Q74 -26 51 -26 L20 -26 L20 4 L40 4 Q48 3 56 15 L99 82 L20 82 L20 116 L111 116 L111 159 L20 159 L20 193 L38 193 L38 205 L80 205 L85 193 Z" /><glyph glyph-name="uni521B" unicode="&#x521b;" d="M19 143 L19 173 L29 173 Q34 172 36 177 L47 204 L116 204 L125 177 Q126 172 130 173 L143 173 L143 143 L114 143 Q99 142 97 152 L89 173 L71 173 L62 153 Q58 142 44 143 L19 143 ZM207 204 L246 204 L246 0 Q246 -24 223 -24 L168 -24 L168 7 L202 7 Q207 6 207 12 L207 204 ZM155 29 L155 190 L191 190 L191 29 L155 29 ZM19 132 L140 132 L140 54 Q140 30 125 32 L74 32 L74 61 L103 61 Q106 60 106 65 L106 100 L53 100 L53 12 Q52 5 59 6 L141 6 L141 -24 L45 -24 Q16 -26 19 0 L19 132 Z" /><glyph glyph-name="uni529B" unicode="&#x529b;" d="M17 188 L69 188 L71 206 L110 206 L108 188 L245 188 L245 12 Q247 -21 223 -18 L157 -18 L157 10 L204 10 Q210 9 210 17 L210 159 L105 159 L92 5 Q92 -20 67 -18 L18 -18 L18 10 L46 10 Q56 8 56 22 L66 159 L17 159 L17 188 Z" /><glyph glyph-name="uni529F" unicode="&#x529f;" d="M125 188 L147 188 L147 206 L186 206 L185 189 L245 189 L245 3 Q242 -19 221 -21 L187 -21 L187 7 L202 7 Q206 7 207 14 L207 156 L184 156 L176 0 Q173 -22 144 -23 L123 -23 L123 7 L133 7 Q139 7 140 12 L147 155 L125 155 L125 188 ZM120 170 L88 170 L88 17 L121 17 L121 -13 L15 -13 L15 17 L50 17 L50 170 L17 170 L17 201 L120 201 L120 170 Z" /><glyph glyph-name="uni535A" unicode="&#x535a;" d="M30 164 L30 203 L63 203 L63 164 L77 164 L77 137 L63 137 L63 -21 L31 -21 L31 137 L12 137 L12 164 L30 164 ZM83 194 L141 194 L141 203 L176 203 L176 194 L199 194 Q204 194 207 198 Q207 200 209 201 L237 201 Q238 168 215 168 L177 168 L177 157 L237 157 L237 49 L228 49 L228 39 L237 39 L237 16 L228 16 L228 0 Q225 -19 209 -21 L173 -21 L173 2 L195 2 L195 17 L78 17 L78 40 L195 40 L195 51 L205 51 L205 61 L177 61 L177 48 L142 48 L142 61 L115 61 L115 49 L83 49 L83 157 L142 157 L142 168 L83 168 L83 194 ZM115 121 L142 121 L142 133 L115 133 L115 121 ZM205 133 L177 133 L177 121 L205 121 L205 133 ZM205 84 L205 96 L177 96 L177 84 L205 84 ZM115 84 L142 84 L142 96 L115 96 L115 84 ZM75 0 L113 0 Q115 0 120 5 Q121 8 122 8 L159 8 Q151 -19 132 -21 L75 -21 L75 0 Z" /><glyph glyph-name="uni53C2" unicode="&#x53c2;" d="M17 162 L17 179 L38 205 L88 205 L78 191 L199 191 Q202 190 202 195 L202 201 L245 201 L245 178 Q245 161 227 162 L148 162 L148 148 L245 148 L245 119 L166 119 L187 108 Q195 102 204 103 L243 103 L243 79 L184 79 Q173 79 163 85 L134 101 L100 84 Q91 79 80 80 L16 80 L16 103 L52 103 Q62 102 73 107 L98 119 L16 119 L16 148 L107 148 L107 162 L17 162 ZM16 44 L16 69 L194 69 Q197 68 197 71 L197 75 L241 75 L241 67 Q241 49 227 46 L242 46 L242 36 Q241 18 228 12 L243 12 L243 0 Q244 -23 218 -23 L16 -23 L16 1 L194 1 Q203 0 203 10 L16 10 L16 35 L191 35 Q198 34 198 44 L16 44 Z" /><glyph glyph-name="uni53D1" unicode="&#x53d1;" d="M137 94 L165 56 L200 94 L137 94 ZM89 94 L70 -1 Q66 -21 54 -20 L18 -20 L18 9 L31 9 Q37 8 38 15 L64 148 L19 148 L19 169 L28 207 L61 207 L54 180 L69 180 L75 207 L112 207 L106 180 L207 180 Q213 178 212 186 L212 206 L246 206 L246 168 Q246 146 227 148 L100 148 L95 125 L246 125 L246 93 L190 29 L205 13 Q210 6 219 7 L245 7 L245 -20 L199 -20 Q186 -19 182 -14 L165 2 L147 -14 Q139 -20 125 -20 L84 -20 L84 8 L107 8 Q115 8 122 13 L140 29 L89 94 Z" /><glyph glyph-name="uni53D6" unicode="&#x53d6;" d="M16 176 L16 207 L242 207 L242 176 L125 176 L125 -21 L89 -21 L89 -8 L18 -15 L12 16 L26 17 L26 176 L16 176 ZM89 146 L89 176 L62 176 L62 146 L89 146 ZM89 82 L89 115 L62 115 L62 82 L89 82 ZM89 21 L89 53 L62 53 L62 19 L89 21 ZM172 131 L185 105 L194 131 L172 131 ZM136 131 L131 131 L131 162 L239 162 L239 135 L207 59 L228 20 Q232 12 237 13 L244 13 L244 -16 L216 -16 Q205 -15 199 -6 L185 19 L171 -9 Q168 -16 155 -16 L129 -16 L129 11 L134 11 Q141 10 144 17 L165 62 L136 131 Z" /><glyph glyph-name="uni53EF" unicode="&#x53ef;" d="M15 175 L15 205 L243 205 L243 175 L232 175 L232 12 Q233 -22 200 -21 L176 -21 L176 8 L187 8 Q196 7 196 18 L196 175 L15 175 ZM141 127 L60 127 L60 18 L132 18 Q141 17 141 28 L141 127 ZM146 -11 L23 -11 L23 159 L175 159 L175 17 Q174 -10 146 -11 Z" /><glyph glyph-name="uni540E" unicode="&#x540e;" d="M209 199 L209 205 L241 205 L241 188 Q242 163 212 164 L57 164 L57 142 L241 142 L241 111 L57 111 L57 13 Q57 -21 26 -21 L12 -21 L12 5 L17 5 Q23 5 23 14 L23 193 L202 193 Q209 192 209 199 ZM65 -20 L65 93 L240 93 L240 9 Q239 -19 209 -20 L65 -20 ZM209 64 L99 64 L99 8 L197 8 Q210 6 209 18 L209 64 Z" /><glyph glyph-name="uni54C1" unicode="&#x54c1;" d="M20 -18 L20 88 L124 88 L124 6 Q123 -17 106 -18 L20 -18 ZM204 54 L167 54 L167 12 L200 12 Q204 11 204 16 L204 54 ZM90 55 L54 55 L54 12 L86 12 Q90 11 90 17 L90 55 ZM133 -19 L133 87 L239 87 L239 2 Q238 -18 220 -19 L133 -19 ZM25 95 L25 202 L235 202 L235 120 Q232 97 209 95 L25 95 ZM198 170 L64 170 L64 126 L189 126 Q198 125 198 133 L198 170 Z" /><glyph glyph-name="uni54D2" unicode="&#x54d2;" d="M149 151 L149 182 L178 182 L178 204 L207 204 L207 181 L245 181 L245 151 L206 151 L203 135 L215 135 L231 57 Q231 48 238 50 L244 50 L244 23 L225 23 Q207 22 204 39 L196 84 L187 37 Q185 22 169 23 L148 23 L148 50 L153 50 Q159 49 161 57 L177 151 L149 151 ZM139 166 L102 166 L102 202 L139 202 L139 166 ZM109 94 L98 94 L98 124 L139 124 L139 13 Q144 7 155 5 L243 5 L243 -23 L153 -23 Q140 -21 132 -15 Q125 -23 114 -23 L96 -23 L96 6 L103 6 Q108 6 109 14 L109 94 ZM19 203 L90 203 L90 -1 Q91 -20 71 -19 L19 -19 L19 203 ZM61 171 L47 171 L47 10 L54 10 Q61 9 61 17 L61 171 Z" /><glyph glyph-name="uni56FD" unicode="&#x56fd;" d="M22 206 L243 206 L243 -1 Q243 -21 222 -21 L22 -21 L22 206 ZM58 176 L58 7 L200 7 Q208 5 207 15 L207 176 L58 176 ZM67 132 L67 161 L198 161 L198 132 L145 132 L145 109 L197 109 L197 81 L145 81 L145 47 L163 47 Q167 46 167 52 L167 68 L197 68 L197 38 Q198 16 178 18 L67 18 L67 47 L111 47 L111 81 L67 81 L67 109 L111 109 L111 132 L67 132 Z" /><glyph glyph-name="uni57FA" unicode="&#x57fa;" d="M13 196 L22 196 L22 208 L60 208 L60 196 L193 196 L193 208 L230 208 L230 196 L242 196 L242 171 L230 171 L230 94 L240 94 L240 72 L201 72 L207 65 Q210 61 218 61 L239 61 L239 37 L200 37 Q182 37 164 54 L145 72 L110 72 L92 58 Q64 35 46 36 L16 36 L16 62 L38 62 Q44 62 50 66 L57 72 L15 72 L15 94 L22 94 L22 171 L13 171 L13 196 ZM193 161 L193 171 L60 171 L60 161 L193 161 ZM193 137 L60 137 L60 127 L193 127 L193 137 ZM193 94 L193 104 L60 104 L60 94 L193 94 ZM21 32 L107 32 L107 51 L146 51 L146 32 L234 32 L234 8 L146 8 L146 -1 L239 -1 L239 -24 L16 -24 L16 -1 L107 -1 L107 8 L21 8 L21 32 Z" /><glyph glyph-name="uni5927" unicode="&#x5927;" d="M14 168 L106 168 L106 206 L149 206 L149 168 L242 168 L242 137 L154 137 L217 19 Q221 9 233 10 L242 10 L242 -22 L224 -22 Q197 -23 188 -4 L128 106 L70 -3 Q64 -15 56 -17 Q50 -21 28 -21 L14 -21 L14 9 L24 9 Q35 7 41 18 L102 137 L14 137 L14 168 Z" /><glyph glyph-name="uni5956" unicode="&#x5956;" d="M122 182 L134 182 Q140 181 143 188 L149 203 L181 203 L177 193 L247 193 L247 164 L209 99 Q199 80 179 82 L123 82 L123 111 L147 111 L145 118 Q144 122 137 122 L124 122 L124 146 L159 146 Q169 146 171 138 L178 121 L204 162 L168 162 Q164 153 154 154 L122 154 L122 182 ZM80 82 L80 203 L114 203 L114 82 L80 82 ZM30 169 L25 201 L56 201 L59 184 Q60 178 67 179 L72 179 L72 153 L45 153 Q31 151 30 169 ZM23 109 L30 109 Q38 108 40 115 L47 134 L78 134 L65 95 Q62 80 47 82 L23 82 L23 109 ZM23 63 L110 63 L110 76 L147 76 L147 63 L244 63 L244 33 L161 33 L186 8 Q190 1 203 2 L244 2 L244 -26 L189 -26 Q170 -27 163 -18 L129 15 L96 -16 Q87 -24 71 -24 L22 -24 L22 3 L56 3 Q63 2 70 8 L99 33 L23 33 L23 63 Z" /><glyph glyph-name="uni5A25" unicode="&#x5a25;" d="M20 185 L29 185 L29 201 L58 201 L58 186 L74 186 L74 201 L103 201 L103 186 L113 186 L113 156 L103 156 L103 54 Q102 51 96 39 L85 18 L92 7 Q96 1 103 1 L112 1 L112 -25 L91 -25 Q77 -24 72 -18 L64 -4 L51 -20 Q47 -24 38 -25 L20 -25 L20 0 L24 0 Q31 0 34 3 L46 20 L36 39 Q35 40 32 45 Q29 50 29 52 L29 155 L20 155 L20 185 ZM66 50 L70 59 Q73 68 74 70 L74 156 L58 156 L58 66 Q58 64 61 59 L66 50 ZM109 50 L113 50 Q116 49 119 54 L139 93 L139 108 L114 108 L114 136 L138 136 L138 166 L115 166 L115 194 L133 194 Q143 193 143 199 L143 203 L174 203 L174 178 Q173 170 170 168 L170 136 L182 136 L182 203 L212 203 L212 179 L217 179 Q220 178 221 183 L221 194 L246 194 L246 166 Q245 149 231 149 L212 149 L212 136 L245 136 L245 108 L213 108 L213 55 L217 55 Q220 55 220 58 L220 93 L246 93 L246 42 Q245 24 223 24 L213 24 L213 11 Q211 4 222 5 L245 5 L245 -23 L211 -23 Q180 -24 182 3 L182 108 L170 108 L170 100 L175 100 L175 65 L170 65 L170 4 Q171 -23 146 -23 L118 -23 L118 2 L131 2 Q137 1 138 7 L138 37 L133 28 Q131 23 123 24 L109 24 L109 50 Z" /><glyph glyph-name="uni5AE6" unicode="&#x5ae6;" d="M159 184 L165 184 L165 205 L199 205 L199 184 L205 184 L212 198 L244 198 L237 183 L245 183 L245 145 L213 145 L213 156 L149 156 L149 145 L116 145 L116 184 L126 184 L119 199 L151 199 L159 184 ZM164 72 L119 72 L119 139 L241 139 L241 91 Q241 71 218 72 L200 72 L200 62 L245 62 L245 6 Q244 -11 228 -12 L207 -12 L207 14 L211 14 Q214 14 214 18 L214 35 L200 35 L200 -23 L165 -23 L165 35 L149 35 L149 -12 L117 -12 L117 62 L164 62 L164 72 ZM150 99 L205 99 Q208 98 208 103 L208 111 L150 111 L150 99 ZM18 184 L26 184 L26 203 L58 203 L58 185 L71 185 L71 203 L103 203 L103 185 L110 185 L110 154 L102 154 L102 56 Q102 48 99 40 L86 20 L94 9 Q98 3 102 3 L105 3 L105 -22 L93 -22 Q79 -22 73 -15 L64 -2 L51 -17 Q45 -21 36 -22 L17 -22 L17 3 L22 3 Q29 2 32 6 L45 22 L32 41 Q25 49 26 54 L26 154 L18 154 L18 184 ZM66 51 L70 59 Q70 61 70 66 L70 154 L58 154 L58 67 Q58 62 61 58 L66 51 Z" /><glyph glyph-name="uni5B66" unicode="&#x5b66;" d="M11 145 L11 188 L29 188 L23 207 L67 207 L74 188 L100 188 L92 207 L139 207 L148 188 L175 188 L183 207 L229 207 L221 188 L241 188 L232 147 L193 147 L193 157 L46 157 L46 145 L11 145 ZM17 138 L231 138 L231 115 L181 80 L181 76 L242 76 L242 46 L181 46 L181 -3 Q178 -20 163 -22 L32 -22 L32 6 L136 6 Q142 5 142 12 L142 46 L13 46 L13 76 L142 76 L142 92 L166 108 L17 108 L17 138 Z" /><glyph glyph-name="uni5C5E" unicode="&#x5c5e;" d="M24 205 L244 205 L244 163 Q245 140 225 142 L56 142 L56 -24 L24 -24 L24 205 ZM210 170 L210 181 L56 181 L56 166 L207 166 Q210 165 210 170 ZM65 105 L65 129 L206 129 Q213 128 212 135 L244 135 L244 123 Q244 104 226 105 L171 105 L171 96 L243 96 L243 75 Q244 50 226 52 L171 52 L171 42 L243 42 L243 -3 Q243 -4 243 -6 Q245 -26 231 -24 L204 -24 L204 -9 Q200 -14 190 -14 L104 -14 L104 7 L137 7 L137 20 L97 20 L97 -26 L65 -26 L65 42 L137 42 L137 52 L65 52 L65 96 L137 96 L137 105 L65 105 ZM97 80 L97 68 L137 68 L137 80 L97 80 ZM171 68 L208 68 Q211 67 211 72 L211 80 L171 80 L171 68 ZM211 20 L171 20 L171 7 L178 7 Q184 6 184 11 L184 15 L205 15 L205 -4 L209 -4 Q211 -4 211 -1 L211 20 Z" /><glyph glyph-name="uni5E26" unicode="&#x5e26;" d="M39 193 L39 205 L76 205 L76 193 L112 193 L112 205 L149 205 L149 193 L185 193 L185 207 L222 207 L222 193 L242 193 L242 162 L222 162 L222 144 L240 144 L240 93 L202 93 L202 112 L52 112 L52 93 L14 93 L14 143 L39 143 L39 162 L14 162 L14 193 L39 193 ZM112 143 L112 162 L76 162 L76 143 L112 143 ZM185 143 L185 162 L149 162 L149 143 L185 143 ZM110 82 L110 105 L149 105 L149 82 L240 82 L240 7 Q241 -19 216 -18 L190 -18 L190 12 L199 12 Q202 11 202 15 L202 49 L149 49 L149 -24 L110 -24 L110 49 L53 49 L53 -18 L15 -18 L15 82 L110 82 Z" /><glyph glyph-name="uni5E76" unicode="&#x5e76;" d="M35 173 L19 207 L63 207 L69 195 Q70 191 81 191 L112 191 L112 164 L63 164 Q41 163 35 173 ZM153 191 L189 191 Q199 191 201 195 L206 207 L244 207 L237 181 Q231 164 213 164 L153 164 L153 191 ZM52 125 L20 125 L20 154 L246 154 L246 124 L221 124 L221 80 L248 80 L248 50 L221 50 L221 -21 L182 -21 L182 50 L91 50 L91 7 Q89 -23 59 -24 L19 -24 L19 4 L42 4 Q53 3 53 12 L53 50 L21 50 L21 79 L52 79 L52 125 ZM91 125 L91 79 L182 79 L182 125 L91 125 Z" /><glyph glyph-name="uni5EA7" unicode="&#x5ea7;" d="M112 193 L112 203 L146 203 L146 193 L237 193 L237 164 L56 164 L56 -23 L24 -23 L24 193 L112 193 ZM132 69 L132 157 L164 157 L164 69 L236 69 L236 43 L164 43 L164 3 L237 3 L237 -23 L62 -23 L62 3 L132 3 L132 43 L65 43 L65 69 L132 69 ZM85 80 L64 80 L64 106 L66 106 Q71 105 72 111 L78 151 L105 151 L104 139 L110 139 L121 113 Q122 108 124 109 L126 109 L126 81 L115 81 Q104 80 103 86 L98 97 L96 87 Q94 79 85 80 ZM173 107 L175 107 Q180 106 181 112 L186 150 L214 150 L213 140 L224 140 L231 110 Q232 104 235 105 L237 105 L237 81 L222 81 Q212 80 211 87 L207 99 L204 87 Q204 80 193 81 L173 81 L173 107 Z" /><glyph glyph-name="uni5FAE" unicode="&#x5fae;" d="M74 145 L60 104 L60 -23 L29 -23 L29 88 L15 88 L15 118 L21 118 Q27 117 30 123 L39 145 L74 145 ZM168 80 L76 80 L76 107 L168 107 L168 80 ZM155 69 L155 6 Q155 3 158 3 L168 3 Q174 2 176 10 L190 55 L171 132 L202 132 L205 125 L209 142 L241 142 L221 60 L234 8 Q234 2 242 3 L242 -23 L228 -23 Q212 -22 211 -15 L206 0 L201 -14 Q198 -22 182 -22 L144 -22 Q125 -22 126 -3 L126 44 L116 44 L116 -3 Q115 -21 94 -22 L71 -22 L71 4 L84 4 Q86 4 87 8 L87 69 L155 69 ZM37 146 L16 146 L16 175 L23 175 Q29 174 33 184 L41 203 L76 203 L59 162 Q51 145 37 146 ZM76 198 L101 198 L101 146 L109 146 L109 204 L137 204 L137 146 L145 146 L145 200 L170 200 L170 136 Q167 121 151 119 L76 119 L76 198 ZM173 178 L176 178 Q181 177 183 187 L186 203 L219 203 L215 184 L240 184 L240 156 L205 156 L201 151 Q195 146 181 146 L173 146 L173 178 Z" /><glyph glyph-name="uni626B" unicode="&#x626b;" d="M210 172 L119 172 L119 203 L246 203 L246 -1 Q244 -21 223 -23 L119 -23 L119 7 L206 7 Q209 6 210 11 L210 82 L118 82 L118 113 L210 113 L210 172 ZM20 182 L60 182 L60 205 L94 205 L94 182 L109 182 L109 150 L94 150 L94 136 L108 136 L108 104 L94 104 L94 -2 Q94 -24 72 -24 L34 -24 L34 3 L55 3 Q55 3 56 2 Q60 1 60 7 L60 47 L48 19 Q44 8 33 9 L17 9 L17 37 L20 37 Q24 37 25 40 L60 126 L60 150 L20 150 L20 182 Z" /><glyph glyph-name="uni62BD" unicode="&#x62bd;" d="M17 157 L17 185 L64 185 L64 204 L98 204 L98 185 L111 185 L111 157 L98 157 L98 143 L107 143 L107 113 L97 113 L97 -2 Q95 -20 76 -23 L26 -23 L26 5 L54 5 Q62 5 63 13 L63 49 L52 29 Q47 18 33 19 L15 19 L15 48 L19 48 Q25 47 28 55 L64 131 L64 157 L17 157 ZM116 -23 L116 176 L163 176 L163 204 L197 204 L197 176 L243 176 L243 0 Q242 -22 219 -23 L116 -23 ZM163 90 L163 147 L149 147 L149 90 L163 90 ZM211 90 L211 147 L197 147 L197 90 L211 90 ZM163 4 L163 62 L149 62 L149 4 L163 4 ZM211 12 L211 62 L197 62 L197 3 L203 3 Q211 2 211 12 Z" /><glyph glyph-name="uni6559" unicode="&#x6559;" d="M130 137 L130 166 L134 166 Q140 165 142 172 L151 207 L185 207 L181 192 L244 192 L244 164 L175 164 L171 147 Q166 137 153 137 L130 137 ZM132 128 L172 128 L185 98 L199 144 L240 144 L207 51 L224 12 Q228 1 235 2 L245 2 L245 -25 L214 -25 Q203 -25 196 -12 L187 3 L179 -13 Q174 -24 162 -25 L129 -25 L129 1 L141 1 Q148 1 152 10 L166 50 L132 128 ZM11 167 L11 196 L54 196 L54 210 L88 210 L88 195 L127 195 L127 167 L88 167 L88 143 L127 143 L127 114 L65 114 L62 103 L121 103 L121 72 L113 57 L127 57 L127 28 L112 28 L112 12 Q112 -19 85 -19 L22 -19 L22 8 L72 8 Q78 8 78 14 L78 28 L11 28 L11 57 L75 57 L84 74 L54 74 Q47 68 35 68 L11 68 L11 99 L16 99 Q20 99 24 104 L27 114 L11 114 L11 143 L54 143 L54 167 L11 167 Z" /><glyph glyph-name="uni65B0" unicode="&#x65b0;" d="M15 196 L56 196 L56 205 L93 205 L93 196 L136 196 L136 166 L15 166 L15 196 ZM144 195 L205 195 Q213 194 212 205 L243 205 L243 187 Q245 163 222 166 L177 166 L177 146 L244 146 L244 118 L236 118 L236 -24 L200 -24 L200 118 L177 118 L177 0 Q176 -25 149 -26 L121 -26 Q99 -25 98 -5 L97 54 L125 54 L126 16 Q127 4 134 4 L138 4 Q144 3 144 11 L144 195 ZM15 108 L15 137 L22 137 L16 160 L56 160 L63 137 L84 137 L96 160 L134 160 L125 136 L135 136 L135 108 L15 108 ZM54 53 L52 -11 Q51 -25 30 -26 L18 -26 L18 0 Q24 -1 24 7 L25 53 L54 53 ZM92 -26 L59 -26 L59 60 L15 60 L15 89 L59 89 L59 102 L92 102 L92 89 L134 89 L134 60 L92 60 L92 -26 Z" /><glyph glyph-name="uni65FA" unicode="&#x65fa;" d="M17 -24 L17 205 L115 205 L115 7 Q114 -23 85 -24 L17 -24 ZM50 108 L79 108 L79 173 L50 173 L50 108 ZM79 75 L50 75 L50 9 L75 9 Q78 8 79 13 L79 75 ZM120 173 L120 206 L240 206 L240 173 L194 173 L194 109 L240 109 L240 74 L194 74 L194 9 L240 9 L240 -23 L118 -23 L118 8 L157 8 L157 74 L121 74 L121 109 L157 109 L157 173 L120 173 Z" /><glyph glyph-name="uni6708" unicode="&#x6708;" d="M22 203 L236 203 L236 5 Q239 -22 212 -19 L118 -19 L118 11 L191 11 Q200 9 199 19 L199 44 L61 44 L61 3 Q64 -23 36 -20 L7 -20 L7 11 L15 11 Q23 9 22 19 L22 203 ZM199 171 L61 171 L61 138 L199 138 L199 171 ZM199 108 L61 108 L61 75 L199 75 L199 108 Z" /><glyph glyph-name="uni671F" unicode="&#x671f;" d="M24 167 L15 167 L15 196 L23 196 L23 205 L59 205 L59 196 L90 196 L90 205 L125 205 L125 195 L135 195 L135 167 L124 167 L124 52 L133 52 L133 26 L15 26 L15 52 L24 52 L24 167 ZM140 201 L244 201 L244 -5 Q243 -21 221 -22 L186 -22 L186 5 L200 5 Q208 4 208 9 L208 41 L174 41 L174 0 Q174 -22 145 -22 L120 -22 Q94 -22 93 -12 L85 19 L120 19 L122 8 Q122 4 131 5 Q140 4 140 9 L140 201 ZM174 132 L209 132 L209 172 L174 172 L174 132 ZM59 146 L90 146 L90 167 L59 167 L59 146 ZM90 120 L59 120 L59 100 L90 100 L90 120 ZM174 67 L209 67 L209 105 L174 105 L174 67 ZM90 74 L59 74 L59 52 L90 52 L90 74 ZM14 -21 L14 3 L18 3 Q22 2 23 5 L26 20 L59 20 L55 -8 Q52 -20 38 -21 L14 -21 Z" /><glyph glyph-name="uni672C" unicode="&#x672c;" d="M114 173 L114 206 L151 206 L151 173 L244 173 L244 143 L151 143 L151 44 L174 44 L174 15 L151 15 L151 -22 L114 -22 L114 15 L89 15 L89 44 L114 44 L114 143 L20 143 L20 173 L114 173 ZM43 23 L57 128 L95 128 L79 17 Q77 -14 52 -13 L19 -13 L19 16 L34 16 Q42 15 43 23 ZM186 14 L166 128 L204 128 L225 24 Q225 14 233 16 L244 16 L244 -13 L214 -13 Q193 -10 186 14 Z" /><glyph glyph-name="uni672F" unicode="&#x672f;" d="M114 208 L150 208 L150 180 L203 180 Q207 179 207 186 L207 199 L246 199 L246 177 Q247 146 223 148 L150 148 L150 -16 L114 -16 L114 148 L19 148 L19 180 L114 180 L114 208 ZM98 138 L79 8 Q75 -16 50 -15 L17 -15 L17 12 L33 12 Q39 11 41 20 L60 138 L98 138 ZM165 138 L203 138 L203 18 Q202 12 208 12 L244 12 L244 -16 L189 -16 Q163 -17 165 15 L165 138 Z" /><glyph glyph-name="uni676F" unicode="&#x676f;" d="M59 185 L59 204 L90 204 L90 185 L126 185 L126 157 L90 157 L90 -23 L59 -23 L59 157 L20 157 L20 185 L59 185 ZM214 12 L208 158 L236 158 L241 15 Q241 12 243 10 Q245 9 246 9 L246 -23 L239 -23 Q214 -23 214 12 ZM128 201 L248 201 L248 172 L173 172 L172 158 L205 158 L205 -23 L172 -23 L172 123 L168 123 L160 -5 Q158 -23 139 -23 L124 -23 L124 -18 L117 -18 Q94 -18 95 3 L95 147 L121 147 L121 15 Q120 6 127 7 Q132 7 132 10 L142 172 L128 172 L128 201 ZM34 -18 L13 -18 L13 9 L17 9 Q24 7 25 22 Q27 30 27 105 L27 147 L54 147 L54 4 Q52 -16 34 -18 Z" /><glyph glyph-name="uni6811" unicode="&#x6811;" d="M177 190 L206 190 L206 206 L235 206 L235 190 L244 190 L244 160 L235 160 L235 -7 Q236 -26 219 -25 L185 -25 L185 -1 L203 -1 Q206 -1 206 1 L206 160 L177 160 L177 190 ZM13 186 L44 186 L44 205 L71 205 L71 186 L103 186 L103 156 L71 156 L71 -26 L44 -26 L44 156 L13 156 L13 186 ZM109 175 L109 203 L171 203 L171 176 L151 59 L160 1 Q161 -3 165 -3 L176 -3 L176 -26 L153 -26 Q143 -26 142 -16 L139 1 L135 -17 Q132 -25 124 -26 L101 -26 L101 -19 L92 -19 Q77 -19 77 1 L72 144 L95 144 L101 10 Q101 5 107 5 L110 5 L110 -3 Q114 -3 115 0 Q115 0 116 0 L127 65 L111 158 L134 158 L139 123 L146 175 L109 175 ZM16 11 L20 144 L42 144 L36 0 Q36 -20 21 -19 L11 -19 L11 5 Q16 4 16 11 ZM164 38 L164 62 Q172 60 171 70 L176 126 L203 126 L197 55 Q196 37 179 38 L164 38 Z" /><glyph glyph-name="uni6842" unicode="&#x6842;" d="M17 186 L60 186 L60 204 L94 204 L94 186 L126 186 L126 157 L93 157 L93 148 L123 148 L127 15 Q126 12 131 12 L169 12 L169 43 L132 43 L132 71 L169 71 L169 94 L206 94 L206 71 L244 71 L244 43 L206 43 L206 12 L244 12 L244 -18 L125 -18 Q99 -17 99 4 L95 119 L93 119 L93 -19 L59 -19 L59 108 L56 108 L52 7 Q48 -14 30 -16 L15 -16 L15 12 L19 12 Q20 12 21 16 L27 149 L59 149 L59 157 L17 157 L17 186 ZM131 184 L170 184 L170 204 L207 204 L207 184 L245 184 L245 156 L206 156 L206 129 L245 129 L245 100 L131 100 L131 129 L169 129 L169 156 L131 156 L131 184 Z" /><glyph glyph-name="uni6C0F" unicode="&#x6c0f;" d="M208 205 L208 209 L242 209 L242 187 Q242 170 221 171 L50 171 L50 108 L143 108 L135 161 L174 161 L181 108 L243 108 L243 80 L186 80 L198 15 Q197 9 209 9 L242 9 L242 -19 L189 -19 Q164 -18 160 7 L148 80 L50 80 L50 9 L128 9 L128 -19 L15 -19 L15 199 L201 199 Q209 198 208 205 Z" /><glyph glyph-name="uni6CE8" unicode="&#x6ce8;" d="M93 193 L149 193 L149 202 L185 202 L185 193 L242 193 L242 164 L186 164 L186 101 L241 101 L241 70 L186 70 L186 8 L245 8 L245 -22 L89 -22 L89 8 L149 8 L149 70 L94 70 L94 101 L149 101 L149 164 L93 164 L93 193 ZM26 157 L17 202 L54 202 L60 173 Q60 164 72 165 L87 165 L87 135 L53 135 Q28 132 26 157 ZM25 83 L14 125 L52 125 L59 100 Q59 92 67 93 L88 93 L88 63 L48 63 Q28 60 25 83 ZM38 14 L49 54 L89 54 L76 1 Q70 -27 49 -24 L16 -24 L16 5 L27 5 Q36 3 38 14 Z" /><glyph glyph-name="uni7389" unicode="&#x7389;" d="M22 178 L22 205 L240 205 L240 178 L149 178 L149 113 L240 113 L240 84 L149 84 L149 8 L243 8 L243 -19 L15 -19 L15 8 L113 8 L113 84 L21 84 L21 113 L113 113 L113 178 L22 178 ZM178 37 L168 69 L205 69 L210 54 Q210 49 220 50 L238 50 L238 21 L216 21 Q178 18 178 37 Z" /><glyph glyph-name="uni738B" unicode="&#x738b;" d="M18 169 L18 200 L245 200 L245 169 L150 169 L150 105 L239 105 L239 75 L150 75 L150 11 L244 11 L244 -18 L17 -18 L17 11 L109 11 L109 74 L22 74 L22 104 L109 104 L109 169 L18 169 Z" /><glyph glyph-name="uni73B0" unicode="&#x73b0;" d="M122 204 L242 204 L242 33 L210 33 L210 173 L155 173 L155 32 L122 32 L122 204 ZM50 169 L20 169 L20 202 L108 202 L108 169 L83 169 L83 114 L109 114 L109 83 L83 83 L83 7 L110 7 L110 -24 L20 -24 L20 7 L50 7 L50 83 L20 83 L20 114 L50 114 L50 169 ZM168 157 L197 157 L197 33 L171 -13 Q165 -24 152 -24 L122 -24 L122 3 L138 3 Q146 2 149 8 L168 41 L168 157 ZM195 -7 L195 22 L225 22 L225 9 Q225 3 232 3 L248 3 L248 -24 L211 -24 Q193 -25 195 -7 Z" /><glyph glyph-name="uni753B" unicode="&#x753b;" d="M16 173 L16 204 L241 204 L241 173 L16 173 ZM16 -22 L16 159 L53 159 L53 6 L200 6 Q206 5 206 13 L206 159 L242 159 L242 0 Q243 -23 222 -22 L16 -22 ZM69 21 L69 159 L193 159 L193 43 Q194 19 172 21 L69 21 ZM104 101 L118 101 L118 126 L104 126 L104 101 ZM146 101 L160 101 L160 126 L146 126 L146 101 ZM104 74 L104 50 L118 50 L118 74 L104 74 ZM146 50 L154 50 Q160 49 160 56 L160 74 L146 74 L146 50 Z" /><glyph glyph-name="uni7684" unicode="&#x7684;" d="M133 185 L140 185 Q144 183 153 193 L166 207 L208 207 L197 192 L242 192 L242 14 Q244 -22 204 -20 L148 -20 L148 10 L199 10 Q206 9 206 16 L206 164 L179 164 Q169 153 148 154 L133 154 L133 185 ZM14 194 L23 194 Q30 192 34 197 L41 206 L78 206 L72 192 L128 192 L128 8 Q127 -18 100 -19 L25 -19 L25 161 L14 161 L14 194 ZM91 105 L91 160 L62 160 L62 105 L91 105 ZM136 60 L146 60 Q153 59 153 66 L164 140 L198 140 L186 49 Q184 24 153 27 L136 27 L136 60 ZM91 74 L62 74 L62 9 L85 9 Q91 8 91 15 L91 74 Z" /><glyph glyph-name="uni7801" unicode="&#x7801;" d="M204 175 L117 175 L117 206 L237 206 L237 108 L243 108 L243 -2 Q244 -24 226 -22 L150 -22 L150 6 L203 6 Q207 5 207 10 L207 77 L139 77 Q116 74 119 100 L119 166 L151 166 L151 112 Q151 106 156 107 L204 107 L204 175 ZM17 175 L17 206 L109 206 L109 175 L74 175 L69 147 L109 147 L109 0 Q111 -25 89 -23 L30 -23 L30 78 L19 78 L19 112 L23 112 Q27 111 28 118 L38 175 L17 175 ZM62 7 L75 7 Q79 6 79 12 L79 117 L64 117 L62 115 L62 7 ZM199 25 L117 25 L117 56 L199 56 L199 25 Z" /><glyph glyph-name="uni793C" unicode="&#x793c;" d="M151 205 L188 205 L188 14 Q187 6 196 7 L238 7 L238 -22 L167 -22 Q150 -22 151 -4 L151 205 ZM15 173 L15 203 L133 203 L133 173 L15 173 ZM12 118 L12 150 L134 150 L134 118 L90 118 L90 -25 L58 -25 L58 118 L12 118 ZM102 3 L102 105 L126 105 L126 11 Q125 4 131 5 L136 5 L136 -19 L120 -19 Q101 -20 102 3 ZM22 9 L22 104 L46 104 L46 -3 Q45 -18 31 -19 L12 -19 L12 4 L16 4 Q22 4 22 9 Z" /><glyph glyph-name="uni7ED8" unicode="&#x7ed8;" d="M14 139 L46 205 L81 205 L45 137 L56 137 L70 161 L106 161 L52 63 L98 63 L98 33 L14 33 L14 61 L42 107 L14 107 L14 139 ZM110 162 L124 162 Q130 161 131 168 L142 205 L211 205 L225 170 Q227 162 233 163 L245 163 L245 133 L212 133 Q201 132 198 144 L187 173 L166 173 L157 144 Q154 132 140 134 L110 134 L110 162 ZM244 121 L244 93 L108 93 L108 121 L244 121 ZM107 47 L107 76 L244 76 L244 46 L165 46 L149 8 L202 8 Q207 7 207 14 L207 33 L244 33 L244 0 Q245 -22 223 -21 L108 -21 L108 1 L126 47 L107 47 ZM99 9 L99 -21 L13 -21 L13 9 L99 9 Z" /><glyph glyph-name="uni7EF4" unicode="&#x7ef4;" d="M153 195 L176 195 L173 207 L207 207 L211 195 L241 195 L241 162 L213 162 L213 134 L243 134 L243 103 L213 103 L213 72 L243 72 L243 38 L213 38 L213 7 L242 7 L242 -23 L110 -23 L110 150 L63 57 L98 57 L98 26 L20 26 L20 45 L49 101 L18 101 L18 134 L55 206 L88 206 L48 131 L65 131 L76 153 L99 153 L99 179 L108 179 Q114 178 116 186 L122 207 L157 207 L153 195 ZM142 133 L178 133 L178 162 L142 162 L142 133 ZM143 72 L178 72 L178 102 L143 102 L143 72 ZM143 7 L178 7 L178 40 L143 40 L143 7 ZM19 -22 L19 7 L98 7 L98 -22 L19 -22 Z" /><glyph glyph-name="uni7F8E" unicode="&#x7f8e;" d="M17 194 L36 194 L34 208 L79 208 L85 194 L176 194 L182 207 L229 207 L226 193 L243 193 L243 164 L149 164 L149 150 L243 150 L243 120 L148 120 L148 105 L243 105 L243 77 L149 77 L149 60 L243 60 L243 32 L164 32 L182 10 Q187 3 201 4 L243 4 L243 -24 L182 -24 Q167 -25 154 -9 L128 24 L105 -7 Q91 -23 70 -22 L15 -22 L15 6 L60 6 Q70 5 75 11 L90 31 L17 31 L17 59 L109 59 L109 77 L16 77 L16 104 L108 104 L108 120 L16 120 L16 150 L108 150 L108 165 L17 165 L17 194 Z" /><glyph glyph-name="uni80B2" unicode="&#x80b2;" d="M16 168 L16 198 L112 198 L112 208 L149 208 L149 198 L245 198 L245 168 L85 168 L71 155 L198 155 Q204 154 204 159 L204 164 L241 164 L241 149 Q246 123 213 128 L25 128 L25 153 L39 168 L16 168 ZM15 -24 L15 2 L21 2 Q26 1 26 10 L26 116 L241 116 L241 12 Q243 -25 213 -22 L116 -22 L116 4 L195 4 Q201 2 201 9 L201 15 L63 15 L63 4 Q65 -26 34 -24 L15 -24 ZM201 79 L201 90 L63 90 L63 79 L201 79 ZM201 41 L201 53 L63 53 L63 41 L201 41 Z" /><glyph glyph-name="uni80FD" unicode="&#x80fd;" d="M18 141 L18 172 L54 210 L100 210 L67 170 L88 170 Q94 169 94 177 L94 190 L130 190 L130 163 Q133 138 97 141 L18 141 ZM140 87 L176 87 L176 68 L204 68 Q212 67 211 75 L211 87 L246 87 L246 56 Q249 36 223 39 L176 39 L176 13 Q174 2 187 4 L245 4 L245 -23 L166 -23 Q137 -24 140 -2 L140 87 ZM17 4 L23 4 Q28 2 27 10 L27 131 L132 131 L132 0 Q134 -25 109 -23 L76 -23 L76 5 L90 5 Q95 3 95 10 L95 15 L63 15 L63 2 Q64 -25 40 -23 L17 -23 L17 4 ZM63 87 L95 87 L95 102 L63 102 L63 87 ZM95 43 L95 59 L63 59 L63 43 L95 43 ZM140 209 L176 209 L176 190 L204 190 Q212 189 211 197 L211 210 L245 210 L245 178 Q249 157 224 161 L176 161 L176 135 Q174 125 187 126 L246 126 L246 97 L166 97 Q137 94 140 117 L140 209 Z" /><glyph glyph-name="uni8868" unicode="&#x8868;" d="M23 171 L23 198 L114 198 L114 208 L150 208 L150 199 L241 199 L241 172 L150 172 L150 152 L240 152 L240 123 L150 123 L150 102 L245 102 L245 73 L97 73 L74 45 L74 9 Q74 6 77 6 L137 6 L137 -21 L59 -21 Q39 -18 37 1 L37 25 L19 25 L19 54 L27 54 Q35 53 43 62 Q44 63 45 64 L53 73 L19 73 L19 102 L114 102 L114 123 L22 123 L22 152 L114 152 L114 171 L23 171 ZM143 58 L170 35 L170 53 L197 53 Q205 52 208 63 L241 63 L235 44 Q228 26 214 26 L181 26 L193 16 Q194 14 197 12 Q205 5 213 6 L243 6 L243 -20 L197 -20 Q184 -19 173 -12 L89 58 L143 58 Z" /><glyph glyph-name="uni8BA1" unicode="&#x8ba1;" d="M153 135 L153 205 L193 205 L193 135 L246 135 L246 103 L193 103 L193 -23 L153 -23 L153 103 L98 103 L98 135 L153 135 ZM94 204 L94 170 L16 170 L16 204 L94 204 ZM15 102 L15 135 L73 135 L73 13 Q73 5 79 6 L97 6 L97 -23 L56 -23 Q35 -25 37 0 L37 102 L15 102 Z" /><glyph glyph-name="uni8BBE" unicode="&#x8bbe;" d="M91 174 L22 174 L22 205 L91 205 L91 174 ZM109 134 L109 206 L234 206 L234 133 Q234 128 237 129 L242 129 L242 102 L217 102 Q201 102 201 123 L201 176 L142 176 L142 124 Q144 98 124 101 L99 101 L99 129 L105 129 Q109 128 109 134 ZM18 104 L18 135 L65 135 L65 7 Q64 2 69 3 L88 3 L88 -24 L50 -24 Q31 -24 32 0 L32 104 L18 104 ZM197 60 L100 60 L100 90 L242 90 L242 60 L197 15 L208 6 Q211 2 217 2 L241 2 L241 -23 L207 -23 Q194 -23 187 -16 L174 -5 L160 -17 Q153 -24 139 -24 L98 -24 L98 2 L130 2 Q132 2 139 5 L148 13 L103 49 L154 49 L172 34 L197 60 Z" /><glyph glyph-name="uni8BCD" unicode="&#x8bcd;" d="M9 171 L9 206 L71 206 L71 171 L9 171 ZM88 174 L88 206 L241 206 L241 1 Q242 -25 220 -24 L193 -24 L193 7 L201 7 Q205 6 205 12 L205 174 L88 174 ZM192 123 L87 123 L87 155 L192 155 L192 123 ZM22 0 L22 110 L8 110 L8 143 L60 143 L60 11 Q59 5 64 6 L76 6 L76 -23 L40 -23 Q20 -25 22 0 ZM165 -17 L88 -17 L88 106 L191 106 L191 9 Q190 -16 165 -17 ZM156 19 L156 73 L123 73 L123 14 L152 14 Q156 14 156 19 Z" /><glyph glyph-name="uni8BDD" unicode="&#x8bdd;" d="M81 171 L16 171 L16 205 L81 205 L81 171 ZM99 164 L99 196 L201 196 Q206 195 206 200 L206 204 L240 204 L240 182 Q241 162 219 164 L188 164 L188 138 L239 138 L239 107 L187 107 L187 79 L239 79 L239 4 Q241 -24 215 -22 L98 -22 L98 79 L147 79 L147 107 L98 107 L98 138 L148 138 L148 164 L99 164 ZM31 110 L15 110 L15 141 L67 141 L67 13 Q66 7 72 8 L84 8 L84 -23 L48 -23 Q29 -24 31 -1 L31 110 ZM201 48 L137 48 L137 9 L193 9 Q202 7 201 17 L201 48 Z" /><glyph glyph-name="uni8BF7" unicode="&#x8bf7;" d="M88 173 L88 200 L145 200 L145 207 L180 207 L180 200 L241 200 L241 173 L180 173 L180 162 L241 162 L241 135 L180 135 L180 123 L240 123 L240 96 L87 96 L87 123 L145 123 L145 135 L88 135 L88 162 L145 162 L145 173 L88 173 ZM16 171 L16 202 L76 202 L76 171 L16 171 ZM27 112 L13 112 L13 142 L60 142 L60 9 Q60 6 63 6 L78 6 L78 -23 L42 -23 Q25 -25 27 -2 L27 112 ZM87 -23 L87 89 L240 89 L240 -4 Q242 -24 224 -22 L180 -22 L180 -2 L203 -2 Q205 -2 205 0 L205 5 L122 5 L122 -23 L87 -23 ZM122 56 L205 56 L205 67 L122 67 L122 56 ZM205 27 L205 38 L122 38 L122 27 L205 27 Z" /><glyph glyph-name="uni8D5B" unicode="&#x8d5b;" d="M20 167 L20 200 L107 200 L107 207 L154 207 L154 200 L242 200 L242 169 L213 169 L213 160 L242 160 L242 142 L213 142 L213 133 L241 133 L241 114 L213 114 L213 105 L241 105 L241 86 L215 86 L221 73 L242 73 L242 51 L233 51 L233 13 L199 13 L199 51 L58 51 L58 12 L24 12 L24 51 L16 51 L16 73 L38 73 L48 86 L17 86 L17 105 L52 105 L52 114 L18 114 L18 133 L52 133 L52 142 L18 142 L18 160 L52 160 L52 167 L20 167 ZM207 178 L55 178 L55 168 L85 168 L85 160 L179 160 L179 169 L207 169 L207 178 ZM179 133 L179 142 L85 142 L85 133 L179 133 ZM179 114 L85 114 L85 105 L179 105 L179 114 ZM84 86 L75 73 L186 73 L180 86 L84 86 ZM110 18 L110 43 L148 43 L148 22 L176 6 Q184 1 190 2 L242 2 L242 -22 L175 -22 Q163 -22 160 -19 L131 -4 L109 -18 Q100 -23 88 -23 L17 -23 L17 1 L74 1 Q80 0 88 5 L110 18 Z" /><glyph glyph-name="uni8F7D" unicode="&#x8f7d;" d="M67 172 L16 172 L16 198 L67 198 L67 208 L100 208 L100 198 L152 198 L152 172 L100 172 L100 159 L164 159 L160 207 L192 207 L195 159 L239 159 L239 133 L197 133 L202 59 L209 59 Q212 59 212 62 L212 121 L239 121 L239 51 Q240 30 223 32 L205 32 L207 7 Q206 2 212 3 L238 3 L238 -22 L192 -22 Q175 -23 175 -1 L166 133 L15 133 L15 159 L67 159 L67 172 ZM203 185 L203 206 L227 206 L227 195 Q226 191 230 192 L241 192 L241 172 L218 172 Q202 171 203 185 ZM16 90 L16 115 L34 115 L39 128 L72 128 L67 115 L155 115 L155 89 L60 89 L51 65 L73 65 L73 80 L107 80 L107 65 L156 65 L156 39 L107 39 L107 23 L155 23 L155 -1 L107 -1 L107 -20 L73 -20 L73 -1 L16 -1 L16 23 L73 23 L73 40 L16 40 L16 61 L27 90 L16 90 Z" /><glyph glyph-name="uni8FD8" unicode="&#x8fd8;" d="M73 169 L32 169 L32 205 L73 205 L73 169 ZM123 172 L90 172 L90 204 L243 204 L243 172 L154 172 L151 156 L214 156 L232 62 Q232 55 237 56 L242 56 L242 31 L218 31 Q204 28 202 48 L182 147 L182 14 L150 14 L150 146 L131 46 Q128 27 111 30 L89 30 L89 57 L95 57 Q100 56 101 63 L123 172 ZM35 12 L35 106 L16 106 L16 139 L73 139 L73 31 Q77 10 105 5 L241 5 L241 -22 L99 -22 Q81 -22 69 -8 Q61 -21 48 -22 L16 -22 L16 6 L30 6 Q34 6 35 12 Z" /><glyph glyph-name="uni952E" unicode="&#x952e;" d="M14 176 L19 176 Q23 175 24 181 L31 204 L63 204 L59 191 L84 191 L84 163 L51 163 L49 157 Q46 148 37 150 L14 150 L14 176 ZM154 173 L154 198 L177 198 L177 205 L205 205 L205 198 L238 198 L238 158 L245 158 L245 133 L237 133 L237 111 Q238 91 223 94 L205 94 L205 75 L241 75 L241 51 L205 51 L205 40 L239 40 L239 16 L205 16 L205 2 L241 2 L241 -24 L151 -24 Q141 -24 138 -18 L124 0 L118 -17 Q116 -24 106 -24 L89 -24 L89 1 L91 1 Q93 0 95 5 L104 27 L86 52 L86 65 L114 65 L119 85 L93 85 L93 113 L114 176 L94 176 L94 203 L148 203 L148 177 L126 115 L147 115 L147 74 L137 31 L155 6 Q156 1 164 2 L177 2 L177 16 L149 16 L149 40 L177 40 L177 51 L150 51 L150 75 L177 75 L177 94 L152 94 L152 118 L177 118 L177 133 L150 133 L150 158 L177 158 L177 173 L154 173 ZM205 158 L218 158 L218 173 L205 173 L205 158 ZM15 110 L15 138 L84 138 L84 110 L66 110 L66 88 L83 88 L83 59 L66 59 L66 9 Q65 1 73 2 L85 2 L85 -23 L49 -23 Q32 -24 34 -3 L34 59 L14 59 L14 88 L34 88 L34 110 L15 110 ZM205 119 L214 119 Q218 118 218 123 L218 133 L205 133 L205 119 Z" /><glyph glyph-name="uni9738" unicode="&#x9738;" d="M114 189 L15 189 L15 206 L242 206 L242 189 L147 189 L147 182 L242 182 L242 112 L208 112 L208 162 L147 162 L147 115 L114 115 L114 162 L51 162 L51 112 L53 112 L53 104 L95 104 L95 110 L123 110 L123 104 L132 104 L132 86 L123 86 L123 74 Q123 60 110 61 L91 61 L91 55 L127 55 L127 26 Q127 10 109 11 L91 11 L91 4 L133 4 L133 1 Q138 0 138 8 L138 107 L244 107 L244 2 Q244 -19 221 -19 L191 -19 L191 0 L205 0 Q213 0 214 8 L214 15 L171 15 L171 1 Q172 -18 145 -18 L133 -18 L133 -12 L91 -12 L91 -20 L57 -20 L57 -12 L15 -12 L15 4 L57 4 L57 11 L19 11 L19 55 L57 55 L57 61 L24 61 L24 86 L15 86 L15 103 L24 103 L24 112 L16 112 L16 182 L114 182 L114 189 ZM58 146 L57 158 L90 158 L92 152 Q93 146 99 147 L106 147 L106 137 L78 137 Q56 135 58 146 ZM176 138 L154 138 L154 148 L158 148 Q164 147 167 153 L169 158 L202 158 L200 151 Q195 137 176 138 ZM159 122 L156 132 L188 132 L191 127 Q192 124 197 125 L202 125 L202 112 L173 112 Q160 110 159 122 ZM214 70 L214 89 L171 89 L171 70 L214 70 ZM95 82 L95 86 L54 86 L54 77 L88 77 Q95 76 95 82 ZM214 51 L171 51 L171 35 L214 35 L214 51 ZM91 40 L91 29 L97 29 Q100 28 100 33 L100 40 L91 40 ZM49 40 L49 29 L57 29 L57 40 L49 40 ZM89 112 L57 112 L57 122 L65 122 Q67 121 69 127 L72 133 L109 133 L104 119 Q102 111 89 112 Z" /><glyph glyph-name="uni9762" unicode="&#x9762;" d="M14 175 L14 204 L241 204 L241 175 L154 175 L145 155 L234 155 L234 8 Q234 -19 204 -19 L18 -19 L18 155 L100 155 L107 175 L14 175 ZM77 7 L77 127 L56 127 L56 7 L77 7 ZM142 127 L113 127 L113 106 L142 106 L142 127 ZM199 17 L199 127 L178 127 L178 8 L191 8 Q199 7 199 17 ZM142 78 L113 78 L113 56 L142 56 L142 78 ZM141 7 L141 28 L113 28 L113 7 L141 7 Z" /><glyph glyph-name="uni9886" unicode="&#x9886;" d="M16 157 L21 157 Q26 157 28 163 L37 203 L98 203 L105 163 Q106 156 110 157 L114 157 L114 129 L91 129 Q79 127 78 142 L73 175 L61 175 L54 143 Q51 127 37 129 L16 129 L16 157 ZM167 172 L125 172 L125 203 L242 203 L242 172 L201 172 L201 152 L242 152 L242 30 L210 30 L210 124 L154 124 L154 30 L122 30 L122 152 L167 152 L167 172 ZM16 84 L16 114 L114 114 L114 84 L16 84 ZM167 109 L197 109 L197 37 L219 3 Q221 0 228 0 L242 0 L242 -26 L216 -26 Q204 -26 200 -19 L182 5 L164 -19 Q160 -26 150 -26 L120 -26 L120 0 L132 0 Q140 0 144 5 L167 36 L167 109 ZM63 10 L79 39 L15 39 L15 67 L112 67 L112 36 L92 1 L112 1 L112 -26 L56 -26 Q45 -26 38 -12 L15 26 L52 26 L63 10 Z" /><glyph glyph-name="uni9898" unicode="&#x9898;" d="M132 205 L245 205 L245 176 L201 176 L201 159 L244 159 L244 59 L216 59 L216 130 L161 130 L161 58 L133 58 L133 158 L172 158 L172 176 L132 176 L132 205 ZM99 115 L22 115 L22 204 L120 204 L120 136 Q121 113 99 115 ZM89 168 L89 181 L54 181 L54 168 L89 168 ZM89 141 L89 151 L54 151 L54 138 L86 138 Q88 138 89 141 ZM174 66 L174 120 L203 120 L203 69 L217 43 Q220 37 225 37 L245 37 L245 14 L215 14 Q203 13 198 23 L190 40 L180 24 Q173 14 162 14 L133 14 L133 36 L151 36 Q157 35 160 42 L174 66 ZM70 11 L70 76 L19 76 L19 106 L122 106 L122 76 L99 76 L99 56 L122 56 L122 31 L99 31 L99 3 Q105 1 111 2 L245 2 L245 -23 L86 -23 Q69 -22 55 -10 Q49 -23 36 -23 L19 -23 L19 0 Q28 0 27 7 L27 66 L56 66 L56 26 Q56 21 70 11 Z" /><glyph glyph-name="uni98CE" unicode="&#x98ce;" d="M25 13 L25 206 L240 206 L240 11 Q239 5 247 3 L247 -22 L217 -22 Q208 -22 204 -14 L165 -14 Q153 -14 150 -5 L132 27 L116 -1 Q110 -14 97 -14 L61 -14 Q58 -23 48 -22 L17 -22 L17 6 Q26 5 25 13 ZM201 14 L201 175 L63 175 L63 14 L78 14 Q85 13 86 18 L112 64 L64 157 L104 157 L133 101 L162 157 L199 157 L152 65 L176 21 Q179 13 185 14 L201 14 Z" /><glyph glyph-name="uniFF0C" unicode="&#xff0c;" d="M23 0 L23 26 L48 26 L48 0 Q48 -14 43 -22.5 Q38 -31 28 -36 L21 -27 Q28 -23 31.5 -17 Q35 -11 36 0 L23 0 Z" /><glyph glyph-name="uniFF1A" unicode="&#xff1a;" d="M23 107 L23 133 L49 133 L49 107 L23 107 ZM23 0 L23 26 L49 26 L49 0 L23 0 Z" /></font>
</defs>
</svg>
