<?xml version="1.0" standalone="no"?><!DOCTYPE svg PUBLIC "-//W3C//DTD SVG 1.1//EN" "http://www.w3.org/Graphics/SVG/1.1/DTD/svg11.dtd" ><svg xmlns="http://www.w3.org/2000/svg"><metadata></metadata><defs><font id="fonteditor" horiz-adv-x="1099"><font-face font-family="g,X¨~êW-^8Ä" font-weight="400" font-stretch="normal" units-per-em="1000" panose-1="2 0 0 0 0 0 0 0 0 0" ascent="843" descent="-272" x-height="0" bbox="43 -81 1041 846" underline-thickness="0" underline-position="0" unicode-range="U+0029-ff09" /><missing-glyph horiz-adv-x="497"  /><glyph glyph-name="parenright" unicode=")" d="M207 379 Q207 616 72 753 Q60 765 60 781 Q60 798 72 809 Q101 838 129 809 Q202 736 244 623 Q287 508 287 379 Q287 249 244 134 Q202 21 129 -52 Q117 -64 100 -64 Q84 -64 72 -52 Q60 -41 60 -24 Q60 -7 72 4 Q207 141 207 379 Z" /><glyph glyph-name="A" unicode="a" d="M766 16 Q771 0 764 -15 Q757 -30 741 -35 Q733 -37 728 -37 Q699 -37 691 -10 L445 700 Q443 706 437 706 L390 706 Q383 706 381 700 L138 -10 Q133 -26 118 -33 Q103 -40 87 -35 Q72 -30 65 -15 Q57 0 63 16 L306 726 Q326 786 390 786 L437 786 Q499 786 521 726 L766 16 ZM528 300 Q545 300 556 288 Q568 277 568 260 Q568 244 556 232 Q545 220 528 220 L301 220 Q285 220 273 232 Q261 244 261 260 Q261 277 273 288 Q285 300 301 300 L528 300 Z" /><glyph glyph-name="C" unicode="c" d="M643 466 Q627 466 615 478 Q603 490 603 506 L603 593 Q603 637 572 667 Q542 698 498 698 L260 698 Q210 698 175 663 Q140 628 140 578 L140 181 Q140 132 175 96 Q211 61 260 61 L498 61 Q542 61 572 92 Q603 123 603 166 L603 278 Q603 295 615 306 Q627 318 643 318 Q660 318 671 306 Q683 295 683 278 L683 166 Q683 90 629 35 Q575 -19 498 -19 L260 -19 Q178 -19 119 40 Q60 99 60 181 L60 578 Q60 661 119 720 Q177 778 260 778 L498 778 Q575 778 629 724 Q683 670 683 593 L683 506 Q683 490 671 478 Q660 466 643 466 Z" /><glyph glyph-name="M" unicode="m" d="M780 765 Q802 741 802 710 L802 5 Q802 -11 790 -23 Q779 -35 762 -35 Q746 -35 734 -23 Q722 -11 722 5 L722 707 L699 707 Q692 707 689 699 L495 30 Q487 1 457 1 L405 1 Q375 1 367 30 L174 699 Q171 706 163 707 L140 707 L140 5 Q140 -11 128 -23 Q117 -35 100 -35 Q84 -35 72 -23 Q60 -11 60 5 L60 710 Q60 742 83 765 Q105 787 137 787 L163 787 Q193 787 217 769 Q241 751 250 723 L431 95 L612 723 Q621 751 645 769 Q669 787 699 787 L725 787 Q756 787 780 765 Z" /><glyph glyph-name="O" unicode="o" d="M701 713 Q767 647 767 555 L767 205 Q767 113 701 47 Q635 -19 543 -19 L284 -19 Q192 -19 126 47 Q60 111 60 205 L60 555 Q60 649 126 713 Q191 778 284 778 L543 778 Q636 778 701 713 ZM687 555 Q687 615 644 656 Q602 698 543 698 L284 698 Q224 698 182 656 Q140 614 140 555 L140 205 Q140 147 182 103 Q224 61 284 61 L543 61 Q602 61 644 103 Q687 146 687 205 L687 555 Z" /><glyph glyph-name="W" unicode="w" d="M1007 795 Q1023 791 1032 777 Q1041 763 1037 747 L881 38 Q874 9 850 -10 Q826 -29 795 -29 L767 -29 Q735 -29 712 -10 Q687 10 681 40 L552 694 L547 694 L418 40 Q412 10 386 -10 Q363 -29 331 -29 L304 -29 Q273 -29 249 -11 Q224 9 218 38 L62 747 Q53 786 92 795 Q131 804 140 764 L296 55 Q298 51 304 51 L331 51 Q335 51 339 55 L470 721 Q481 774 536 774 L563 774 Q617 774 628 721 L760 55 Q760 51 767 51 L795 51 Q801 51 803 55 L959 764 Q968 804 1007 795 Z" /><glyph glyph-name="uni677F" unicode="&#x677f;" d="M891 328 Q853 171 715 60 Q601 -30 561 -54 Q529 -77 505 -45 Q495 -31 498 -15 Q501 1 514 11 L576 57 Q643 105 665 123 Q781 215 813 346 L835 462 Q837 473 826 473 L625 473 Q652 338 701 232 Q708 217 702 201 Q696 186 681 179 Q644 164 628 199 Q570 327 544 473 L507 473 L507 374 Q507 230 484 109 L454 -33 Q450 -48 436 -58 Q421 -68 406 -63 Q368 -54 375 -15 Q380 -10 405 124 Q427 240 427 374 L427 687 Q427 733 459 765 Q491 797 537 797 L898 797 Q915 797 926 785 Q938 774 938 757 Q938 741 926 729 Q915 717 898 717 L537 717 Q507 717 507 687 L507 553 L826 553 Q868 553 895 520 Q922 488 914 446 L891 328 ZM922 18 Q953 -7 929 -38 Q906 -67 872 -45 L785 23 Q754 48 778 79 Q789 92 805 94 Q821 96 834 86 L922 18 ZM101 593 Q85 593 73 605 Q61 617 61 633 Q61 650 73 661 Q85 673 101 673 L185 673 L185 785 Q185 802 197 813 Q209 825 225 825 Q242 825 253 813 Q265 802 265 785 L265 673 L356 673 Q373 673 384 661 Q396 650 396 633 Q396 617 384 605 Q373 593 356 593 L101 593 ZM394 196 Q406 161 369 145 Q355 139 339 147 Q324 155 318 170 L265 325 L265 -20 Q265 -36 253 -48 Q242 -60 225 -60 Q209 -60 197 -48 Q185 -36 185 -20 L185 328 L130 170 Q125 154 110 147 Q95 140 79 145 Q63 150 56 165 Q49 180 54 196 L169 527 Q182 566 225 566 Q266 566 281 527 L394 196 Z" /><glyph glyph-name="uni676F" unicode="&#x676f;" d="M403 715 Q387 715 375 727 Q363 739 363 755 Q363 772 375 783 Q387 795 403 795 L566 795 Q583 795 594 783 Q606 772 606 755 Q606 739 594 727 Q583 715 566 715 L403 715 ZM642 476 Q659 476 670 464 Q682 453 682 436 L682 -26 Q682 -66 642 -66 Q602 -66 602 -26 L602 436 Q602 453 614 464 Q626 476 642 476 ZM702 715 Q699 715 697 711 L448 149 Q438 125 412 125 Q391 125 379 142 Q368 159 375 181 L624 744 Q645 795 702 795 L895 795 Q912 795 923 783 Q935 772 935 755 Q935 739 923 727 Q912 715 895 715 L702 715 ZM940 188 Q949 169 938 150 Q926 130 904 130 Q879 130 868 153 L702 492 Q686 528 721 545 Q736 553 752 547 Q767 542 774 527 L940 188 ZM329 673 Q346 673 357 661 Q369 650 369 633 Q369 617 357 605 Q346 593 329 593 L95 593 Q79 593 67 605 Q55 617 55 633 Q55 650 67 661 Q79 673 95 673 L169 673 L169 785 Q169 802 181 813 Q193 825 209 825 Q226 825 237 813 Q249 802 249 785 L249 673 L329 673 ZM360 229 Q365 210 354 194 Q342 176 322 176 Q292 176 284 204 L249 325 L249 -25 Q249 -41 237 -53 Q226 -65 209 -65 Q193 -65 181 -53 Q169 -41 169 -25 L169 322 L125 171 Q117 143 87 143 Q67 143 56 159 Q44 175 49 195 L157 535 Q169 573 209 573 Q248 573 261 535 L360 229 Z" /><glyph glyph-name="uni5927" unicode="&#x5927;" d="M901 639 Q918 639 930 627 Q942 614 942 597 Q942 556 901 556 L541 556 L541 481 Q541 464 529 451 Q517 439 500 439 Q483 439 470 451 Q458 464 458 481 L458 556 L100 556 Q83 556 70 568 Q58 580 58 597 Q58 614 70 627 Q83 639 100 639 L458 639 L458 782 Q458 799 470 811 Q483 823 500 823 Q541 823 541 782 L541 639 L901 639 ZM916 7 Q928 -6 927 -23 Q927 -40 914 -52 Q883 -79 856 -50 L499 326 L143 -50 Q131 -63 114 -63 Q97 -64 84 -52 Q55 -23 83 7 L442 385 Q465 410 499 410 Q534 410 557 385 L916 7 Z" /><glyph glyph-name="uni7B49" unicode="&#x7b49;" d="M889 360 Q906 360 917 348 Q929 337 929 320 Q929 304 917 292 Q906 280 889 280 L587 280 Q571 280 559 292 Q547 304 547 320 Q547 337 559 348 Q571 360 587 360 L889 360 ZM680 175 Q680 135 640 135 L129 135 Q89 135 89 175 Q89 192 101 203 Q113 215 129 215 L640 215 Q657 215 668 203 Q680 192 680 175 ZM410 51 Q447 35 431 -2 Q425 -17 410 -23 Q394 -30 379 -23 L243 35 Q228 41 222 57 Q216 72 222 87 Q238 124 275 108 L410 51 ZM112 280 Q96 280 84 292 Q72 304 72 320 Q72 337 84 348 Q96 360 112 360 L452 360 L452 420 L180 420 Q164 420 152 432 Q140 444 140 460 Q140 500 180 500 L452 500 L452 525 Q452 542 464 553 Q476 565 492 565 Q509 565 520 553 Q532 542 532 525 L532 500 L818 500 Q858 500 858 460 Q858 444 846 432 Q835 420 818 420 L532 420 L532 320 Q532 304 520 292 Q509 280 492 280 L112 280 ZM864 215 Q881 215 892 203 Q904 192 904 175 Q904 135 864 135 L785 135 L785 65 Q785 17 752 -18 Q717 -55 665 -55 L536 -55 Q520 -55 508 -43 Q496 -31 496 -15 Q496 2 508 13 Q520 25 536 25 L665 25 Q705 25 705 65 L705 228 Q705 245 717 256 Q729 268 745 268 Q762 268 773 256 Q785 245 785 228 L785 215 L864 215 ZM135 571 Q115 536 80 554 Q46 574 64 608 L169 804 Q188 839 223 821 Q258 802 240 766 L135 571 ZM250 657 Q224 685 239 720 Q254 754 292 754 L475 754 Q492 754 503 742 Q515 731 515 714 Q515 698 503 686 Q492 674 475 674 L343 674 L413 600 Q440 570 411 543 Q384 519 354 545 L250 657 ZM547 566 Q526 566 515 584 Q503 602 510 622 L584 801 Q600 838 637 822 Q652 816 658 801 Q665 785 658 770 L584 591 Q574 566 547 566 ZM671 657 Q646 685 661 720 Q676 754 713 754 L896 754 Q913 754 924 742 Q936 731 936 714 Q936 698 924 686 Q913 674 896 674 L765 674 L835 600 Q862 570 833 543 Q806 519 776 545 L671 657 Z" /><glyph glyph-name="uni4E8C" unicode="&#x4e8c;" d="M193 646 Q177 646 165 658 Q153 670 153 686 Q153 703 165 714 Q177 726 193 726 L807 726 Q824 726 835 714 Q847 703 847 686 Q847 670 835 658 Q824 646 807 646 L193 646 ZM903 76 Q920 76 931 64 Q943 53 943 36 Q943 20 931 8 Q920 -4 903 -4 L97 -4 Q81 -4 69 8 Q57 20 57 36 Q57 53 69 64 Q81 76 97 76 L903 76 Z" /><glyph glyph-name="uni83B7" unicode="&#x83b7;" d="M890 372 Q907 372 918 360 Q930 349 930 332 Q930 292 890 292 L441 292 Q401 292 401 332 Q401 349 413 360 Q425 372 441 372 L618 372 L618 499 Q618 516 630 527 Q642 539 658 539 Q675 539 686 527 Q698 516 698 499 L698 372 L890 372 ZM852 397 Q833 397 821 411 L769 474 Q744 504 774 531 Q787 541 804 540 Q820 538 831 525 L883 462 Q898 442 888 421 Q877 398 852 397 ZM919 19 Q946 -11 917 -38 Q888 -63 860 -35 L662 180 Q661 182 658 182 Q655 182 653 180 L455 -35 Q444 -48 427 -48 Q411 -49 399 -38 Q369 -12 396 19 L595 234 Q620 262 658 262 Q696 262 721 234 L919 19 ZM326 409 Q334 397 340 386 Q361 342 361 290 L361 85 Q361 33 324 -3 Q288 -40 236 -40 L125 -40 Q109 -40 97 -28 Q85 -16 85 0 Q85 17 97 28 Q109 40 125 40 L236 40 Q255 40 268 53 Q281 66 281 85 L281 290 Q281 333 262 361 L117 294 Q77 280 64 314 Q57 329 62 345 Q68 360 83 367 L197 420 Q103 480 101 480 Q87 489 83 505 Q80 521 88 535 Q97 549 113 553 Q130 557 143 548 L241 487 L270 467 L359 548 Q371 559 388 558 Q405 557 415 545 Q426 533 426 516 Q425 499 413 488 L326 409 ZM117 115 Q77 101 64 135 Q57 150 62 166 Q68 181 83 188 L188 237 Q203 244 219 238 Q234 233 241 218 Q257 182 222 164 L117 115 ZM95 660 Q79 660 67 672 Q55 684 55 700 Q55 717 67 728 Q79 740 95 740 L264 740 L264 785 Q264 802 276 813 Q288 825 304 825 Q321 825 332 813 Q344 802 344 785 L344 740 L444 740 Q461 740 472 728 Q484 717 484 700 Q484 684 472 672 Q461 660 444 660 L344 660 L344 609 Q344 593 332 581 Q321 569 304 569 Q288 569 276 581 Q264 593 264 609 L264 660 L95 660 ZM905 740 Q922 740 933 728 Q945 717 945 700 Q945 684 933 672 Q922 660 905 660 L736 660 L736 609 Q736 593 724 581 Q713 569 696 569 Q680 569 668 581 Q656 593 656 609 L656 660 L551 660 Q535 660 523 672 Q511 684 511 700 Q511 717 523 728 Q535 740 551 740 L656 740 L656 785 Q656 802 668 813 Q680 825 696 825 Q713 825 724 813 Q736 802 736 785 L736 740 L905 740 Z" /><glyph glyph-name="uni5956" unicode="&#x5956;" d="M890 250 Q907 250 918 238 Q930 227 930 210 Q930 194 918 182 Q907 170 890 170 L110 170 Q94 170 82 182 Q70 194 70 210 Q70 227 82 238 Q94 250 110 250 L460 250 L460 284 Q460 324 500 324 Q517 324 528 312 Q540 301 540 284 L540 250 L890 250 ZM105 713 Q75 739 101 770 Q128 799 158 773 L255 688 Q268 677 269 661 Q270 644 259 632 Q248 620 232 618 Q216 617 203 628 L105 713 ZM130 382 Q118 372 101 375 Q84 378 74 392 Q64 405 67 422 Q70 438 84 448 L206 532 Q219 542 236 539 Q252 536 262 522 Q284 489 252 466 L130 382 ZM340 341 Q324 341 312 353 Q300 365 300 381 L300 784 Q300 824 340 824 Q380 824 380 784 L380 381 Q380 365 368 353 Q357 341 340 341 ZM436 559 Q423 569 421 586 Q418 602 429 615 L582 808 Q593 821 609 823 Q625 824 638 814 Q651 804 653 788 Q655 771 645 758 L492 565 Q482 553 466 551 Q449 549 436 559 ZM669 516 Q639 495 612 522 L570 575 Q560 588 561 604 Q563 620 576 631 Q589 641 606 640 Q622 638 632 625 L675 572 Q685 559 684 543 Q682 527 669 516 ZM687 676 Q671 676 659 688 Q647 700 647 716 Q647 733 659 744 Q671 756 687 756 L864 756 Q901 756 921 723 Q940 690 921 657 Q883 591 873 575 Q794 446 650 393 Q535 352 505 344 Q466 336 454 369 Q449 385 456 400 Q464 415 479 420 Q486 420 622 468 Q740 511 805 617 L821 644 Q832 664 840 676 L687 676 ZM879 14 Q915 -2 901 -39 Q895 -54 880 -60 Q864 -68 849 -61 L531 68 Q500 81 468 68 L150 -61 Q114 -75 98 -39 Q84 -2 120 14 L438 142 Q500 168 561 142 L879 14 Z" /><glyph glyph-name="uni4E24" unicode="&#x4e24;" d="M902 793 Q919 793 930 781 Q942 770 942 753 Q942 737 930 725 Q919 713 902 713 L93 713 Q77 713 65 725 Q53 737 53 753 Q53 770 65 781 Q77 793 93 793 L902 793 ZM798 601 Q846 601 880 567 Q914 533 914 485 L914 58 Q914 10 880 -24 Q846 -58 798 -58 L659 -58 Q643 -58 631 -46 Q619 -34 619 -18 Q619 22 659 22 L798 22 Q813 22 824 33 Q834 44 834 58 L834 485 Q834 521 798 521 L682 521 L682 426 Q682 410 670 398 Q659 386 642 386 Q626 386 614 398 Q602 410 602 426 L602 521 L396 521 L396 426 Q396 410 384 398 Q373 386 356 386 Q340 386 328 398 Q316 410 316 426 L316 521 L201 521 Q165 521 165 485 L165 -23 Q165 -39 153 -51 Q142 -63 125 -63 Q109 -63 97 -51 Q85 -39 85 -23 L85 485 Q85 533 119 567 Q153 601 201 601 L316 601 L316 652 Q316 669 328 680 Q340 692 356 692 Q373 692 384 680 Q396 669 396 652 L396 601 L602 601 L602 652 Q602 669 614 680 Q626 692 642 692 Q659 692 670 680 Q682 669 682 652 L682 601 L798 601 ZM488 114 Q495 96 484 78 Q472 60 450 60 Q422 60 413 85 L356 233 L299 85 Q293 70 278 63 Q263 56 248 62 Q211 76 225 114 L308 331 Q321 364 356 364 Q392 364 404 331 L488 114 ZM642 236 L581 85 Q572 60 544 60 Q524 60 512 77 Q500 93 507 114 L594 331 Q606 364 642 364 Q677 364 690 331 L777 114 Q791 78 754 62 Q739 56 724 63 Q708 69 702 85 L642 236 Z" /><glyph glyph-name="uni540D" unicode="&#x540d;" d="M350 662 Q383 686 406 655 L474 567 Q498 536 467 511 Q433 489 411 518 L343 606 Q319 637 350 662 ZM161 547 Q148 537 132 539 Q114 540 105 554 Q95 567 96 583 Q98 599 111 610 L382 822 Q415 846 438 815 Q449 801 447 785 Q444 769 431 759 L161 547 ZM764 563 Q602 427 381 379 L121 327 Q80 327 74 359 Q71 376 80 389 Q90 403 106 406 Q117 406 364 457 Q568 502 712 624 Q726 636 771 681 L484 681 Q468 681 456 693 Q444 705 444 721 Q444 761 484 761 L818 761 Q857 761 873 725 Q888 689 862 661 Q801 596 764 563 ZM788 349 Q835 349 869 316 Q903 282 903 234 L903 75 Q903 27 869 -6 Q835 -40 788 -40 L341 -40 Q293 -40 260 -6 Q226 27 226 75 L226 234 Q226 282 260 316 Q293 349 341 349 L788 349 ZM823 234 Q823 269 788 269 L341 269 Q306 269 306 234 L306 75 Q306 40 341 40 L788 40 Q823 40 823 75 L823 234 Z" /><glyph glyph-name="uni8D5B" unicode="&#x8d5b;" d="M916 281 Q931 274 936 258 Q942 242 934 227 Q927 213 912 208 Q896 202 881 209 Q561 367 559 369 L451 369 L123 208 Q108 201 93 206 Q76 211 69 226 Q62 241 67 257 Q73 272 88 280 L269 369 L112 369 Q77 369 77 404 Q77 439 112 439 L312 439 L312 470 L178 470 Q143 470 143 505 Q143 540 178 540 L312 540 L312 571 L236 571 Q201 571 201 606 Q201 641 236 641 L312 641 L312 646 Q312 663 324 674 Q336 686 352 686 Q369 686 380 674 Q392 663 392 646 L392 641 L613 641 L613 646 Q613 663 625 674 Q637 686 653 686 Q670 686 681 674 Q693 663 693 646 L693 641 L763 641 Q798 641 798 606 Q798 571 763 571 L693 571 L693 540 L821 540 Q856 540 856 505 Q856 470 821 470 L693 470 L693 439 L888 439 Q923 439 923 404 Q923 369 888 369 L739 369 L916 281 ZM392 470 L392 439 L613 439 L613 470 L545 470 Q510 470 510 505 Q510 540 545 540 L613 540 L613 571 L392 571 L392 540 L455 540 Q490 540 490 505 Q490 470 455 470 L392 470 ZM116 576 Q100 576 88 588 Q76 600 76 616 L76 675 Q76 719 107 749 Q138 780 181 780 L457 780 L457 783 Q457 801 470 814 Q482 826 500 826 Q517 826 530 814 Q542 801 542 783 L542 780 L819 780 Q862 780 893 749 Q924 718 924 675 L924 616 Q924 600 912 588 Q901 576 884 576 Q844 576 844 616 L844 675 Q844 700 819 700 L181 700 Q156 700 156 675 L156 616 Q156 600 144 588 Q133 576 116 576 ZM767 56 Q751 56 739 68 Q727 80 727 96 L727 158 Q727 175 715 186 Q704 198 687 198 L314 198 Q298 198 286 186 Q274 175 274 158 L274 96 Q274 80 262 68 Q251 56 234 56 Q218 56 206 68 Q194 80 194 96 L194 158 Q194 208 229 243 Q265 278 314 278 L687 278 Q737 278 772 243 Q807 208 807 158 L807 96 Q807 80 795 68 Q784 56 767 56 ZM859 15 Q875 12 884 -2 Q893 -16 890 -32 Q887 -47 873 -57 Q858 -68 843 -63 L541 -2 Q501 5 459 -2 L158 -63 Q142 -67 129 -58 Q115 -49 111 -32 Q108 -16 117 -2 Q126 12 142 15 L460 79 L460 138 Q460 155 472 166 Q484 178 500 178 Q540 178 540 138 L540 79 L859 15 Z" /><glyph glyph-name="uni4E09" unicode="&#x4e09;" d="M178 687 Q160 687 148 700 Q135 712 135 730 Q135 747 148 760 Q160 772 178 772 L822 772 Q839 772 852 760 Q864 747 864 730 Q864 712 852 700 Q839 687 822 687 L178 687 ZM789 430 Q806 430 819 418 Q831 405 831 387 Q831 370 819 357 Q806 345 789 345 L211 345 Q193 345 181 357 Q168 370 168 387 Q168 405 181 418 Q193 430 211 430 L789 430 ZM898 67 Q916 67 929 55 Q941 42 941 24 Q941 7 929 -6 Q916 -18 898 -18 L101 -18 Q84 -18 71 -6 Q59 7 59 24 Q59 42 71 55 Q84 67 101 67 L898 67 Z" /><glyph glyph-name="uni4E66" unicode="&#x4e66;" d="M431 641 L431 -25 Q431 -41 419 -53 Q408 -65 391 -65 Q375 -65 363 -53 Q351 -41 351 -25 L351 328 L95 328 Q79 328 67 340 Q55 352 55 368 Q55 385 67 396 Q79 408 95 408 L351 408 L351 641 L124 641 Q108 641 96 653 Q84 665 84 681 Q84 698 96 709 Q108 721 124 721 L351 721 L351 785 Q351 802 363 813 Q375 825 391 825 Q408 825 419 813 Q431 802 431 785 L431 721 L653 721 Q704 721 737 686 Q773 650 773 601 L773 475 Q773 459 761 447 Q750 435 733 435 Q693 435 693 475 L693 601 Q693 617 681 629 Q669 641 653 641 L431 641 ZM787 408 Q839 408 872 373 Q907 338 907 288 L907 105 Q907 55 872 20 Q839 -15 787 -15 L623 -15 Q607 -15 595 -3 Q583 9 583 25 Q583 42 595 53 Q607 65 623 65 L787 65 Q803 65 816 76 Q827 89 827 105 L827 288 Q827 305 816 316 Q804 328 787 328 L492 328 Q476 328 464 340 Q452 352 452 368 Q452 385 464 396 Q476 408 492 408 L787 408 ZM927 675 Q939 664 940 648 Q941 631 931 619 Q907 592 874 615 L716 753 Q703 763 702 780 Q701 797 712 809 Q739 840 769 813 L927 675 Z" /><glyph glyph-name="uni6570" unicode="&#x6570;" d="M103 571 Q87 571 75 583 Q63 595 63 611 Q63 628 75 639 Q87 651 103 651 L263 651 L263 786 Q263 803 275 814 Q287 826 303 826 Q320 826 331 814 Q343 803 343 786 L343 651 L493 651 Q510 651 521 639 Q533 628 533 611 Q533 595 521 583 Q510 571 493 571 L103 571 ZM88 733 Q56 758 81 790 Q92 803 108 805 Q124 806 137 796 L206 743 Q219 732 221 716 Q222 700 212 687 Q191 656 156 680 L88 733 ZM445 678 Q415 654 389 685 Q379 699 381 715 Q384 731 397 741 L463 792 Q477 802 493 800 Q509 797 519 784 Q529 771 527 754 Q525 738 512 728 L445 678 ZM209 42 Q225 46 239 37 Q253 28 257 12 Q261 -4 252 -18 Q243 -32 227 -36 Q110 -64 104 -64 Q73 -64 65 -33 Q61 -17 70 -3 Q79 11 95 15 L209 42 ZM453 284 Q493 284 511 251 Q528 219 507 185 L452 99 Q431 67 396 87 Q382 96 379 112 Q375 129 384 142 L424 204 L231 204 L202 148 Q346 92 473 31 Q488 24 493 9 Q499 -7 492 -22 Q486 -36 470 -42 Q454 -49 438 -41 Q306 22 160 78 Q132 89 121 117 Q111 146 124 171 L141 204 L92 204 Q76 204 64 216 Q52 228 52 244 Q52 261 64 272 Q76 284 92 284 L182 284 L206 331 Q214 346 230 351 Q246 356 260 348 Q275 341 280 325 Q286 309 278 295 L272 284 L453 284 ZM303 353 Q287 353 275 365 Q263 377 263 393 L263 454 L126 374 Q116 369 106 369 Q83 369 72 389 Q52 423 86 444 L239 533 Q303 570 366 533 L519 444 Q553 422 534 389 Q515 359 479 374 L343 454 L343 393 Q343 377 331 365 Q320 353 303 353 ZM884 619 L884 442 Q884 217 729 67 L720 58 Q700 39 642 -9 L586 -56 Q553 -81 529 -50 Q505 -19 535 6 L589 50 Q645 97 664 115 L674 125 Q734 183 760 231 Q804 315 804 442 L804 619 L662 619 Q625 619 598 646 Q572 672 572 709 L572 787 Q572 804 584 815 Q596 827 612 827 Q629 827 640 815 Q652 804 652 787 L652 709 Q652 699 662 699 L906 699 Q946 699 946 659 Q946 643 934 631 Q923 619 906 619 L884 619 ZM934 10 Q946 -1 946 -18 Q946 -35 935 -47 Q910 -72 878 -48 L791 36 Q779 47 779 64 Q779 81 790 92 Q801 104 818 105 Q835 105 846 94 L934 10 ZM633 206 Q590 322 579 426 L566 553 Q564 569 575 582 Q585 595 601 596 Q617 598 631 588 Q643 578 645 561 L659 435 Q668 343 708 234 Q715 215 703 198 Q691 180 670 180 Q643 180 633 206 Z" /><glyph glyph-name="uni62D3" unicode="&#x62d3;" d="M901 791 Q918 791 929 779 Q941 768 941 751 Q941 735 929 723 Q918 711 901 711 L413 711 Q397 711 385 723 Q373 735 373 751 Q373 768 385 779 Q397 791 413 791 L901 791 ZM803 418 Q849 418 881 385 Q914 353 914 307 L914 71 Q914 25 881 -8 Q849 -40 803 -40 L545 -40 Q499 -40 467 -8 Q434 25 434 71 L434 307 Q434 353 467 385 Q499 418 545 418 L803 418 ZM834 307 Q834 338 803 338 L545 338 Q514 338 514 307 L514 71 Q514 40 545 40 L803 40 Q834 40 834 71 L834 307 ZM635 685 Q648 675 649 658 Q651 642 640 629 L406 357 Q396 345 379 344 Q363 342 349 352 Q318 379 345 409 L579 681 Q590 694 606 695 Q623 696 635 685 ZM278 348 Q315 359 328 321 Q333 305 325 290 Q317 275 301 271 L104 213 Q89 208 74 216 Q58 225 54 240 Q43 279 81 290 L278 348 ZM95 566 Q55 566 55 606 Q55 623 67 634 Q79 646 95 646 L174 646 L174 781 Q174 821 214 821 Q231 821 242 809 Q254 798 254 781 L254 646 L325 646 Q342 646 353 634 Q365 623 365 606 Q365 566 325 566 L254 566 L254 396 Q254 380 242 368 Q231 356 214 356 Q174 356 174 396 L174 566 L95 566 ZM214 218 Q231 218 242 206 Q254 195 254 178 L254 46 Q254 7 226 -21 Q198 -49 159 -49 L98 -49 Q82 -49 70 -37 Q58 -25 58 -9 Q58 8 70 19 Q82 31 98 31 L159 31 Q174 31 174 46 L174 178 Q174 218 214 218 Z" /><glyph glyph-name="uni65FA" unicode="&#x65fa;" d="M455 716 Q439 716 427 728 Q415 740 415 756 Q415 773 427 784 Q439 796 455 796 L881 796 Q898 796 909 784 Q921 773 921 756 Q921 740 909 728 Q898 716 881 716 L455 716 ZM904 42 Q921 42 932 30 Q944 19 944 2 Q944 -14 932 -26 Q921 -38 904 -38 L413 -38 Q397 -38 385 -26 Q373 -14 373 2 Q373 19 385 30 Q397 42 413 42 L904 42 ZM668 67 Q652 67 640 79 Q628 91 628 107 L628 346 L462 346 Q446 346 434 358 Q422 370 422 386 Q422 426 462 426 L628 426 L628 651 Q628 668 640 679 Q652 691 668 691 Q685 691 696 679 Q708 668 708 651 L708 426 L868 426 Q908 426 908 386 Q908 370 896 358 Q885 346 868 346 L708 346 L708 107 Q708 91 696 79 Q685 67 668 67 ZM380 129 Q380 84 348 52 Q315 19 270 19 L197 19 Q151 19 119 52 Q87 84 87 129 L87 655 Q87 701 119 733 Q151 765 197 765 L270 765 Q315 765 348 733 Q380 701 380 655 L380 129 ZM300 655 Q300 685 270 685 L197 685 Q167 685 167 655 L167 432 L235 432 Q252 432 263 420 Q275 409 275 392 Q275 376 263 364 Q252 352 235 352 L167 352 L167 129 Q167 99 197 99 L270 99 Q300 99 300 129 L300 655 Z" /><glyph glyph-name="uni4F4D" unicode="&#x4f4d;" d="M375 611 Q359 611 347 623 Q335 635 335 651 Q335 668 347 679 Q359 691 375 691 L588 691 L588 783 Q588 800 600 811 Q612 823 628 823 Q645 823 656 811 Q668 800 668 783 L668 691 L881 691 Q921 691 921 651 Q921 611 881 611 L375 611 ZM427 562 Q443 566 457 557 Q471 548 475 532 L565 141 Q574 102 535 93 Q520 88 506 98 Q492 107 487 123 L397 514 Q388 553 427 562 ZM796 532 Q805 571 844 562 Q860 558 869 544 Q878 530 874 514 L781 122 Q776 107 763 98 Q748 88 733 93 Q694 102 703 141 L796 532 ZM904 46 Q921 46 932 34 Q944 23 944 6 Q944 -10 932 -22 Q921 -34 904 -34 L354 -34 Q314 -34 314 6 Q314 46 354 46 L904 46 ZM280 821 Q295 814 300 798 Q306 782 298 767 L131 436 Q124 422 109 417 Q93 412 77 419 Q62 426 57 442 Q51 458 59 472 L226 803 Q234 818 249 823 Q265 829 280 821 ZM209 512 Q226 512 237 500 Q249 489 249 472 L249 -25 Q249 -41 237 -53 Q226 -65 209 -65 Q193 -65 181 -53 Q169 -41 169 -25 L169 472 Q169 489 181 500 Q193 512 209 512 Z" /><glyph glyph-name="uni4E94" unicode="&#x4e94;" d="M147 714 Q131 714 119 726 Q107 738 107 754 Q107 771 119 782 Q131 794 147 794 L855 794 Q872 794 883 782 Q895 771 895 754 Q895 738 883 726 Q872 714 855 714 L147 714 ZM906 46 Q923 46 934 34 Q946 23 946 6 Q946 -10 934 -22 Q923 -34 906 -34 L98 -34 Q82 -34 70 -22 Q58 -10 58 6 Q58 23 70 34 Q82 46 98 46 L752 46 L752 392 Q752 409 740 420 Q729 432 712 432 L405 432 L355 110 Q350 76 316 76 Q298 76 286 90 Q274 103 276 122 L324 432 L152 432 Q136 432 124 444 Q112 456 112 472 Q112 489 124 500 Q136 512 152 512 L337 512 L359 653 Q364 692 404 687 Q443 680 438 641 L418 512 L712 512 Q762 512 797 477 Q832 442 832 392 L832 46 L906 46 Z" /><glyph glyph-name="uni79C0" unicode="&#x79c0;" d="M101 565 Q85 565 73 577 Q61 589 61 605 Q61 622 73 633 Q85 645 101 645 L460 645 L460 753 Q460 770 472 781 Q484 793 500 793 L842 793 Q859 793 870 781 Q882 770 882 753 Q882 737 870 725 Q859 713 842 713 L540 713 L540 645 L899 645 Q916 645 927 633 Q939 622 939 605 Q939 589 927 577 Q916 565 899 565 L101 565 ZM158 713 Q142 713 130 725 Q118 737 118 753 Q118 770 130 781 Q142 793 158 793 L399 793 Q416 793 427 781 Q439 770 439 753 Q439 737 427 725 Q416 713 399 713 L158 713 ZM809 187 Q848 187 876 159 Q904 132 904 92 L904 42 Q904 3 876 -25 Q848 -53 809 -53 L572 -53 Q556 -53 544 -41 Q532 -29 532 -13 Q532 4 544 15 Q556 27 572 27 L809 27 Q824 27 824 42 L824 92 Q824 107 809 107 L612 107 Q576 107 566 141 Q556 175 586 194 L647 235 L165 235 Q125 235 125 275 Q125 315 165 315 L755 315 Q791 315 801 281 Q811 247 781 227 L720 187 L809 187 ZM367 211 Q380 222 396 220 Q413 219 423 206 Q433 193 432 176 Q430 160 417 149 L168 -54 Q138 -78 112 -49 Q102 -36 103 -19 Q105 -3 118 8 L367 211 ZM910 402 Q925 396 932 381 Q939 366 933 350 Q919 313 881 327 L540 458 L540 372 Q540 356 528 344 Q517 332 500 332 Q484 332 472 344 Q460 356 460 372 L460 458 L119 327 Q104 321 89 328 Q73 334 67 350 Q54 388 91 402 L439 535 Q500 558 561 535 L910 402 Z" /><glyph glyph-name="uni4E00" unicode="&#x4e00;" d="M890 472 Q907 472 920 460 Q932 447 932 430 Q932 412 920 400 Q907 387 890 387 L110 387 Q92 387 80 400 Q67 412 67 430 Q67 447 80 460 Q92 472 110 472 L890 472 Z" /><glyph glyph-name="uni5F71" unicode="&#x5f71;" d="M562 455 Q602 455 602 415 Q602 375 562 375 L97 375 Q81 375 69 387 Q57 399 57 415 Q57 432 69 443 Q81 455 97 455 L287 455 Q291 495 330 495 Q370 495 372 455 L562 455 ZM545 52 Q559 44 563 28 Q567 12 559 -2 Q538 -36 504 -16 L422 34 Q408 42 404 58 Q400 74 409 88 Q417 102 434 106 Q450 110 464 102 L545 52 ZM227 96 Q235 82 231 66 Q226 49 212 41 L131 -5 Q95 -22 76 10 Q68 24 72 41 Q77 57 91 65 L172 111 Q207 130 227 96 ZM658 511 Q647 500 630 501 Q613 502 602 514 Q575 544 606 571 L873 805 Q903 832 930 801 Q941 789 940 772 Q939 755 926 745 L658 511 ZM873 527 Q903 554 930 523 Q941 511 940 494 Q939 477 926 467 L658 233 Q647 222 630 223 Q612 224 602 237 Q591 249 592 265 Q593 282 606 293 L873 527 ZM873 249 Q903 276 930 245 Q941 233 940 217 Q939 200 926 189 L658 -45 Q647 -56 630 -55 Q613 -53 602 -41 Q591 -29 592 -12 Q593 4 606 15 L873 249 ZM242 616 Q207 616 207 651 Q207 686 242 686 L416 686 Q451 686 451 651 Q451 616 416 616 L242 616 ZM200 507 Q153 507 119 541 Q85 574 85 622 L85 680 Q85 728 119 762 Q153 795 200 795 L458 795 Q505 795 539 762 Q573 728 573 680 L573 622 Q573 574 539 541 Q505 507 458 507 L200 507 ZM165 622 Q165 587 200 587 L458 587 Q493 587 493 622 L493 680 Q493 715 458 715 L200 715 Q165 715 165 680 L165 622 ZM470 347 Q510 347 537 319 Q565 291 565 252 L565 227 Q565 188 537 160 Q510 132 470 132 L371 132 L371 39 Q371 0 343 -28 Q316 -56 276 -56 L226 -56 Q210 -56 198 -44 Q186 -32 186 -16 Q186 1 198 12 Q210 24 226 24 L276 24 Q291 24 291 39 L291 172 Q291 189 303 200 Q315 212 331 212 L470 212 Q485 212 485 227 L485 252 Q485 267 470 267 L180 267 Q165 267 165 252 L165 227 Q165 212 180 212 L233 212 Q250 212 261 200 Q273 189 273 172 Q273 156 261 144 Q250 132 233 132 L180 132 Q141 132 113 160 Q85 188 85 227 L85 252 Q85 291 113 319 Q141 347 180 347 L470 347 Z" /><glyph glyph-name="uni4F18" unicode="&#x4f18;" d="M268 821 Q283 814 289 799 Q294 783 287 768 L131 436 Q124 422 108 416 Q91 409 78 417 Q63 424 57 439 Q52 455 59 470 L215 802 Q222 817 237 823 Q253 828 268 821 ZM202 493 Q219 493 230 481 Q242 470 242 453 L242 -25 Q242 -41 230 -53 Q219 -65 202 -65 Q186 -65 174 -53 Q162 -41 162 -25 L162 453 Q162 470 174 481 Q186 493 202 493 ZM638 515 L638 65 Q638 30 673 30 L804 30 Q839 30 839 65 L839 231 Q839 271 879 271 Q919 271 919 231 L919 65 Q919 17 885 -16 Q851 -50 804 -50 L673 -50 Q626 -50 592 -16 Q558 17 558 65 L558 515 L329 515 Q313 515 301 527 Q289 539 289 555 Q289 572 301 583 Q313 595 329 595 L445 595 L445 782 Q445 799 457 810 Q469 822 485 822 Q502 822 513 810 Q525 799 525 782 L525 595 L902 595 Q919 595 930 583 Q942 572 942 555 Q942 539 930 527 Q919 515 902 515 L638 515 ZM468 477 Q507 466 496 427 L367 -32 Q357 -69 318 -60 Q302 -55 294 -41 Q286 -27 290 -11 L419 449 Q424 465 438 473 Q452 481 468 477 ZM668 742 Q655 752 653 768 Q650 784 661 798 Q671 811 687 813 Q704 815 717 805 L842 709 Q874 684 849 652 Q829 623 793 645 L668 742 Z" /><glyph glyph-name="uni8BC1" unicode="&#x8bc1;" d="M89 724 Q62 753 89 781 Q118 808 146 781 L274 653 Q285 642 285 625 Q285 608 274 597 Q262 585 245 585 Q229 585 217 597 L89 724 ZM419 719 Q403 719 391 731 Q379 743 379 759 Q379 776 391 787 Q403 799 419 799 L885 799 Q902 799 913 787 Q925 776 925 759 Q925 743 913 731 Q902 719 885 719 L419 719 ZM901 43 Q941 43 941 3 Q941 -37 901 -37 L402 -37 Q362 -37 362 3 Q362 43 402 43 L643 43 L643 646 Q643 663 655 674 Q667 686 683 686 Q700 686 711 674 Q723 663 723 646 L723 442 L872 442 Q889 442 900 430 Q912 419 912 402 Q912 386 900 374 Q889 362 872 362 L723 362 L723 43 L901 43 ZM440 554 Q440 571 452 582 Q464 594 480 594 Q497 594 508 582 Q520 571 520 554 L520 115 Q520 99 508 87 Q497 75 480 75 Q464 75 452 87 Q440 99 440 115 L440 554 ZM295 76 Q312 76 323 64 Q335 53 335 36 Q335 20 323 8 Q312 -4 295 -4 L265 -4 Q226 -4 198 24 Q170 52 170 91 L170 466 Q170 481 155 481 L89 481 Q49 481 49 521 Q49 538 61 549 Q73 561 89 561 L155 561 Q195 561 222 533 Q250 505 250 466 L250 91 Q250 76 265 76 L295 76 Z" /><glyph glyph-name="uniFF08" unicode="&#xff08;" d="M607 379 Q607 141 742 4 Q754 -7 754 -24 Q754 -41 742 -52 Q731 -63 714 -64 Q697 -64 685 -52 Q612 21 570 134 Q527 249 527 379 Q527 508 570 623 Q612 736 685 809 Q714 838 742 809 Q754 798 754 781 Q754 765 742 753 Q607 616 607 379 Z" /><glyph glyph-name="uniFF09" unicode="&#xff09;" d="M372 379 Q372 616 237 753 Q225 765 225 781 Q225 798 237 809 Q266 838 294 809 Q367 736 409 623 Q452 508 452 379 Q452 249 409 134 Q367 21 294 -52 Q282 -64 265 -64 Q248 -63 237 -52 Q225 -41 225 -24 Q225 -7 237 4 Q372 141 372 379 Z" /><glyph glyph-name="plus" unicode="+" d="M559 419 Q576 419 587 407 Q599 396 599 379 Q599 339 559 339 L369 339 L369 149 Q369 133 357 121 Q346 109 329 109 Q313 109 301 121 Q289 133 289 149 L289 339 L100 339 Q60 339 60 379 Q60 396 72 407 Q84 419 100 419 L289 419 L289 608 Q289 625 301 636 Q313 648 329 648 Q346 648 357 636 Q369 625 369 608 L369 419 L559 419 Z" /><glyph glyph-name="uni54D2" unicode="&#x54d2;" d="M363 747 Q355 761 359 778 Q363 794 377 802 Q390 811 407 807 Q423 803 432 789 L524 635 Q545 602 511 580 Q475 565 456 594 L363 747 ZM605 550 Q589 550 577 562 Q565 574 565 590 Q565 607 577 618 Q589 630 605 630 L710 630 L710 777 Q710 794 722 805 Q734 817 750 817 Q767 817 778 805 Q790 794 790 777 L790 630 L896 630 Q913 630 924 618 Q936 607 936 590 Q936 574 924 562 Q913 550 896 550 L790 550 L790 471 Q790 431 750 431 Q710 431 710 471 L710 550 L605 550 ZM905 42 Q922 42 933 30 Q945 19 945 2 Q945 -14 933 -26 Q922 -38 905 -38 L594 -38 Q512 -38 471 4 Q434 45 434 124 L434 446 Q434 465 414 465 L380 465 Q364 465 352 477 Q340 489 340 505 Q340 522 352 533 Q364 545 380 545 L414 545 Q459 545 487 515 Q514 485 514 446 L514 124 Q514 75 530 59 Q546 42 594 42 L905 42 ZM213 754 Q256 754 287 723 Q318 692 318 649 L318 135 Q318 92 287 61 Q257 30 213 30 L189 30 Q146 30 115 61 Q84 92 84 135 L84 649 Q84 692 115 723 Q146 754 189 754 L213 754 ZM238 649 Q238 674 213 674 L189 674 Q164 674 164 649 L164 135 Q164 110 189 110 L213 110 Q238 110 238 135 L238 649 ZM386 44 Q406 44 421 30 Q435 15 435 -5 Q435 -25 421 -40 Q406 -54 386 -54 Q366 -54 351 -40 Q337 -25 337 -5 Q337 15 351 30 Q366 44 386 44 ZM583 83 Q548 103 567 138 L700 380 Q716 409 750 409 Q783 409 799 380 L932 138 Q951 103 917 83 Q907 78 897 78 Q875 78 862 99 L750 304 L637 99 Q630 85 613 80 Q597 75 583 83 Z" /></font>
</defs>
</svg>
