<?xml version="1.0" standalone="no"?><!DOCTYPE svg PUBLIC "-//W3C//DTD SVG 1.1//EN" "http://www.w3.org/Graphics/SVG/1.1/DTD/svg11.dtd" ><svg xmlns="http://www.w3.org/2000/svg"><metadata></metadata><defs><font id="fonteditor" horiz-adv-x="1000"><font-face font-family="g,X¨[Wí" font-weight="400" font-stretch="normal" units-per-em="1000" panose-1="2 0 0 0 0 0 0 0 0 0" ascent="815" descent="-344" x-height="0" bbox="25 -122 1000 836" underline-thickness="0" underline-position="0" unicode-range="U+0030-ff0c" /><missing-glyph horiz-adv-x="244"  /><glyph glyph-name="zero" unicode="0" d="M461 778 Q542 778 600 721 Q657 663 657 582 L657 125 Q657 45 600 -13 Q542 -70 461 -70 L270 -70 Q189 -70 132 -13 Q74 45 74 125 L74 582 Q74 663 132 721 Q189 778 270 778 L461 778 ZM562 582 Q562 624 533 654 Q503 683 461 683 L270 683 Q229 683 199 654 Q169 624 169 582 L169 125 Q169 84 199 54 Q229 25 270 25 L461 25 Q503 25 533 54 Q562 84 562 125 L562 582 Z" /><glyph glyph-name="three" unicode="3" d="M507 348 Q558 291 558 211 L558 116 Q558 26 512 -20 Q468 -70 378 -70 L27 -70 L27 25 L378 25 Q425 25 443 44 Q463 66 463 116 L463 211 Q463 255 437 284 Q406 318 346 318 L94 318 L94 413 L341 413 Q401 413 432 447 Q458 476 458 520 L458 592 Q458 643 438 664 Q419 683 374 683 L27 683 L27 778 L374 778 Q462 778 508 728 Q553 682 553 592 L553 520 Q553 442 502 383 Q492 373 486 368 Q497 360 507 348 Z" /><glyph glyph-name="five" unicode="5" d="M539 424 Q591 375 591 292 L591 114 Q591 31 538 -17 Q483 -70 388 -70 L56 -70 L56 25 L388 25 Q442 25 469 49 Q496 70 496 114 L496 292 Q496 377 411 377 L56 377 L56 778 L590 778 L590 683 L151 683 L151 472 L411 472 Q490 472 539 424 Z" /><glyph glyph-name="nine" unicode="9" d="M579 730 Q618 688 618 611 L618 122 Q618 39 562 -17 Q504 -70 410 -70 L86 -70 L86 25 L410 25 Q523 25 523 122 L523 288 L223 288 Q144 288 100 334 Q56 380 56 462 L56 607 Q56 688 103 732 Q155 778 247 778 L447 778 Q536 778 579 730 ZM523 383 L523 611 Q523 651 509 666 Q493 683 447 683 L247 683 Q190 683 168 663 Q151 646 151 607 L151 462 Q151 419 168 401 Q185 383 223 383 L523 383 Z" /><glyph glyph-name="colon" unicode=":" d="M90 -53 L90 81 L223 81 L223 -53 L90 -53 ZM90 539 L223 539 L223 405 L90 405 L90 539 Z" /><glyph glyph-name="C" unicode="c" d="M657 26 L657 -69 L275 -69 Q185 -69 121 -5 Q56 60 56 151 L56 557 Q56 648 121 713 Q185 777 275 777 L646 777 L646 682 L275 682 Q224 682 188 645 Q151 609 151 557 L151 151 Q151 99 188 62 Q224 26 275 26 L657 26 Z" /><glyph glyph-name="G" unicode="g" d="M386 406 L719 406 L719 135 Q719 50 659 -9 Q599 -69 515 -69 L274 -69 Q183 -69 119 -4 Q54 60 54 151 L54 558 Q54 649 119 713 Q183 777 274 777 L705 777 L705 682 L274 682 Q223 682 186 646 Q149 609 149 558 L149 151 Q149 99 186 63 Q223 26 274 26 L515 26 Q560 26 592 58 Q624 90 624 135 L624 311 L386 311 L386 406 Z" /><glyph glyph-name="quotedblleft" unicode="&#x201c;" d="M600 785 L582 739 L625 739 L625 610 L490 610 L490 709 L520 785 L600 785 ZM742 739 L784 739 L784 610 L650 610 L650 709 L680 785 L760 785 L742 739 Z" /><glyph glyph-name="quotedblright" unicode="&#x201d;" d="M372 785 L506 785 L506 687 L476 610 L393 610 L412 657 L372 657 L372 785 ZM212 657 L212 785 L346 785 L346 687 L316 610 L234 610 L252 657 L212 657 Z" /><glyph glyph-name="uni3001" unicode="&#x3001;" d="M302 165 L433 -101 L321 -101 L191 165 L302 165 Z" /><glyph glyph-name="uni3002" unicode="&#x3002;" d="M331 156 Q381 156 418 120 Q454 83 454 32 Q454 -18 418 -55 Q381 -91 331 -91 Q280 -91 244 -55 Q207 -18 207 32 Q207 83 244 120 Q280 156 331 156 ZM331 0 Q363 0 363 32 Q363 65 331 65 Q298 65 298 32 Q298 0 331 0 Z" /><glyph glyph-name="uni4E00" unicode="&#x4e00;" d="M42 439 L958 439 L958 342 L42 342 L42 439 Z" /><glyph glyph-name="uni4E07" unicode="&#x4e07;" d="M952 698 L303 698 L269 501 L912 501 L912 -87 L573 -87 L573 6 L819 6 L819 408 L252 408 L163 -105 L71 -105 L210 698 L47 698 L47 791 L952 791 L952 698 Z" /><glyph glyph-name="uni4E0D" unicode="&#x4e0d;" d="M960 701 L440 701 L137 55 L34 55 L337 701 L40 701 L40 796 L960 796 L960 701 ZM453 -122 L453 593 L548 593 L548 -122 L453 -122 ZM722 593 L972 53 L869 53 L619 593 L722 593 Z" /><glyph glyph-name="uni4E0E" unicode="&#x4e0e;" d="M191 817 L191 454 L926 454 L926 -89 L396 -89 L396 1 L831 1 L831 359 L96 359 L96 817 L191 817 ZM224 700 L958 700 L958 610 L224 610 L224 700 ZM788 230 L788 140 L42 140 L42 230 L788 230 Z" /><glyph glyph-name="uni4E13" unicode="&#x4e13;" d="M966 423 L312 423 L281 281 L888 281 L794 -97 L243 -97 L243 -7 L715 -7 L761 191 L160 191 L212 423 L34 423 L34 513 L232 513 L256 620 L64 620 L64 711 L277 711 L301 822 L401 822 L376 711 L936 711 L936 620 L357 620 L332 513 L966 513 L966 423 Z" /><glyph glyph-name="uni4E1A" unicode="&#x4e1a;" d="M39 6 L961 6 L961 -84 L39 -84 L39 6 ZM412 815 L412 49 L321 49 L321 815 L412 815 ZM678 815 L678 49 L587 49 L587 815 L678 815 ZM220 154 L130 154 L59 719 L148 719 L220 154 ZM945 719 L872 154 L783 154 L854 719 L945 719 Z" /><glyph glyph-name="uni4E2A" unicode="&#x4e2a;" d="M452 -114 L452 542 L547 542 L547 -114 L452 -114 ZM500 829 L965 579 L965 473 L500 722 L35 473 L35 579 L500 829 Z" /><glyph glyph-name="uni4E2D" unicode="&#x4e2d;" d="M545 670 L942 670 L942 135 L823 135 L851 226 L851 580 L545 580 L545 226 L823 226 L823 135 L545 135 L545 -119 L454 -119 L454 135 L58 135 L58 670 L454 670 L454 826 L545 826 L545 670 ZM454 226 L454 580 L148 580 L148 226 L454 226 Z" /><glyph glyph-name="uni4E30" unicode="&#x4e30;" d="M965 174 L965 79 L547 79 L547 -105 L452 -105 L452 79 L34 79 L34 174 L452 174 L452 344 L77 344 L77 439 L452 439 L452 609 L58 609 L58 704 L452 704 L452 813 L547 813 L547 704 L942 704 L942 609 L547 609 L547 439 L923 439 L923 344 L547 344 L547 174 L965 174 Z" /><glyph glyph-name="uni4E3A" unicode="&#x4e3a;" d="M418 595 L937 595 L937 -87 L496 -87 L496 4 L847 4 L847 504 L389 504 L194 -106 L97 -106 L291 504 L36 504 L36 595 L321 595 L394 825 L491 825 L418 595 ZM277 643 L172 643 L78 800 L183 800 L277 643 ZM705 105 L599 105 L431 392 L537 392 L705 105 Z" /><glyph glyph-name="uni4E3B" unicode="&#x4e3b;" d="M950 707 L950 617 L51 617 L51 707 L451 707 L451 821 L550 821 L550 707 L950 707 ZM42 8 L959 8 L959 -82 L42 -82 L42 8 ZM548 52 L453 52 L453 267 L60 267 L60 358 L453 358 L453 573 L548 573 L548 358 L941 358 L941 267 L548 267 L548 52 Z" /><glyph glyph-name="uni4E5F" unicode="&#x4e5f;" d="M222 7 L964 7 L964 -83 L131 -83 L131 449 L34 427 L34 519 L131 542 L131 774 L222 774 L222 562 L485 623 L485 832 L575 832 L575 644 L922 724 L922 177 L831 177 L831 610 L575 551 L575 112 L485 112 L485 530 L222 470 L222 7 Z" /><glyph glyph-name="uni4E86" unicode="&#x4e86;" d="M59 793 L943 793 L943 691 L600 459 L600 -90 L271 -90 L271 5 L505 5 L505 510 L782 698 L59 698 L59 793 Z" /><glyph glyph-name="uni4EA4" unicode="&#x4ea4;" d="M961 749 L961 659 L39 659 L39 749 L453 749 L453 821 L548 821 L548 749 L961 749 ZM400 634 L400 533 L38 366 L38 467 L400 634 ZM845 299 L604 182 L951 14 L951 -87 L499 131 L48 -87 L48 14 L396 182 L154 299 L154 399 L499 232 L845 399 L845 299 ZM601 533 L601 634 L963 467 L963 366 L601 533 Z" /><glyph glyph-name="uni4EC5" unicode="&#x4ec5;" d="M969 18 L969 -96 L640 138 L311 -100 L311 15 L562 194 L350 345 L350 638 L440 638 L440 390 L640 249 L836 389 L836 694 L350 694 L350 784 L926 784 L926 345 L718 194 L969 18 ZM138 -99 L138 422 L228 422 L228 -99 L138 -99 ZM38 422 L164 805 L262 805 L136 422 L38 422 Z" /><glyph glyph-name="uni4EE5" unicode="&#x4ee5;" d="M152 787 L152 69 L388 69 L388 -21 L62 -21 L62 787 L152 787 ZM730 399 L971 -102 L870 -102 L685 283 L500 -102 L399 -102 L640 395 L640 814 L730 814 L730 399 ZM466 228 L374 228 L293 800 L384 800 L466 228 Z" /><glyph glyph-name="uni4F01" unicode="&#x4f01;" d="M569 274 L569 8 L947 8 L947 -82 L53 -82 L53 8 L194 8 L194 460 L284 460 L284 8 L479 8 L479 570 L569 570 L569 365 L886 365 L886 274 L569 274 ZM500 836 L959 556 L959 452 L500 732 L42 452 L42 556 L500 836 Z" /><glyph glyph-name="uni4F18" unicode="&#x4f18;" d="M529 608 L963 608 L963 517 L516 517 L421 -98 L328 -98 L423 517 L260 517 L260 608 L436 608 L466 805 L561 805 L529 608 ZM863 800 L863 655 L772 655 L772 800 L863 800 ZM163 805 L259 805 L123 422 L213 422 L213 -99 L123 -99 L123 422 L27 422 L163 805 ZM693 454 L693 2 L963 2 L963 -88 L602 -88 L602 454 L693 454 Z" /><glyph glyph-name="uni4F1A" unicode="&#x4f1a;" d="M44 298 L956 298 L956 208 L44 208 L44 298 ZM196 407 L196 498 L804 498 L804 407 L196 407 ZM953 464 L500 730 L47 464 L47 570 L500 836 L953 570 L953 464 ZM696 136 L797 136 L903 -84 L114 -84 L222 172 L322 172 L251 6 L755 6 L696 136 Z" /><glyph glyph-name="uni4F20" unicode="&#x4f20;" d="M954 410 L526 410 L504 285 L906 285 L828 -85 L408 -85 L408 5 L754 5 L793 194 L393 194 L434 410 L306 410 L306 500 L451 500 L473 616 L355 616 L355 706 L490 706 L509 808 L602 808 L583 706 L938 706 L938 616 L565 616 L544 500 L954 500 L954 410 ZM139 -99 L139 422 L229 422 L229 -99 L139 -99 ZM41 422 L182 805 L279 805 L139 422 L41 422 Z" /><glyph glyph-name="uni4F4D" unicode="&#x4f4d;" d="M948 704 L948 613 L307 613 L307 704 L598 704 L598 810 L689 810 L689 704 L948 704 ZM295 8 L960 8 L960 -82 L295 -82 L295 8 ZM410 61 L346 561 L437 561 L502 61 L410 61 ZM850 61 L759 61 L824 561 L915 561 L850 61 ZM173 805 L269 805 L123 422 L213 422 L213 -99 L123 -99 L123 422 L27 422 L173 805 Z" /><glyph glyph-name="uni4F53" unicode="&#x4f53;" d="M653 584 L653 104 L796 104 L796 14 L653 14 L653 -99 L562 -99 L562 14 L419 14 L419 104 L562 104 L562 584 L269 584 L269 674 L562 674 L562 810 L653 810 L653 674 L941 674 L941 584 L653 584 ZM374 543 L463 543 L354 -90 L266 -90 L374 543 ZM845 543 L957 -90 L868 -90 L758 543 L845 543 ZM144 805 L240 805 L122 422 L213 422 L213 -99 L122 -99 L122 422 L26 422 L144 805 Z" /><glyph glyph-name="uni4F5C" unicode="&#x4f5c;" d="M145 -99 L145 422 L235 422 L235 -99 L145 -99 ZM27 422 L157 805 L253 805 L123 422 L27 422 ZM524 674 L967 674 L967 584 L637 584 L637 -99 L546 -99 L546 584 L493 584 L400 311 L304 311 L473 805 L568 805 L524 674 ZM689 334 L689 424 L943 424 L943 334 L689 334 ZM689 83 L689 173 L943 173 L943 83 L689 83 Z" /><glyph glyph-name="uni4F60" unicode="&#x4f60;" d="M584 1 L584 555 L675 555 L675 -89 L504 -89 L513 1 L584 1 ZM281 -82 L407 378 L501 378 L374 -82 L281 -82 ZM841 378 L966 -82 L873 -82 L747 378 L841 378 ZM410 702 L410 456 L319 456 L319 792 L940 792 L940 456 L849 456 L849 702 L410 702 ZM159 805 L255 805 L123 422 L213 422 L213 -99 L123 -99 L123 422 L27 422 L159 805 Z" /><glyph glyph-name="uni4F9B" unicode="&#x4f9b;" d="M322 315 L966 315 L966 225 L322 225 L322 315 ZM435 363 L435 565 L338 565 L338 655 L435 655 L435 805 L525 805 L525 655 L739 655 L739 805 L830 805 L830 655 L950 655 L950 565 L830 565 L830 363 L739 363 L739 565 L525 565 L525 363 L435 363 ZM319 -91 L455 176 L555 176 L418 -91 L319 -91 ZM712 176 L811 176 L948 -91 L849 -91 L712 176 ZM148 -99 L148 422 L238 422 L238 -99 L148 -99 ZM38 422 L184 805 L284 805 L139 422 L38 422 Z" /><glyph glyph-name="uni500D" unicode="&#x500d;" d="M351 -87 L351 261 L911 261 L911 -87 L788 -87 L821 3 L821 171 L441 171 L441 3 L788 3 L788 -87 L351 -87 ZM301 422 L961 422 L961 332 L301 332 L301 422 ZM943 760 L943 669 L320 669 L320 760 L586 760 L586 811 L677 811 L677 760 L943 760 ZM146 811 L246 811 L134 428 L214 428 L214 -102 L124 -102 L124 428 L33 428 L146 811 ZM412 470 L358 622 L451 622 L506 470 L412 470 ZM844 470 L751 470 L805 622 L898 622 L844 470 Z" /><glyph glyph-name="uni5143" unicode="&#x5143;" d="M64 -104 L214 330 L309 330 L159 -104 L64 -104 ZM967 462 L967 371 L33 371 L33 462 L967 462 ZM933 785 L933 694 L67 694 L67 785 L933 785 ZM719 3 L968 3 L968 -87 L625 -87 L625 330 L719 330 L719 3 Z" /><glyph glyph-name="uni5168" unicode="&#x5168;" d="M847 498 L847 407 L152 407 L152 498 L847 498 ZM63 -84 L63 6 L936 6 L936 -84 L63 -84 ZM117 162 L117 252 L452 252 L452 381 L547 381 L547 252 L881 252 L881 162 L547 162 L547 34 L452 34 L452 162 L117 162 ZM500 835 L959 555 L959 445 L500 726 L42 445 L42 555 L500 835 Z" /><glyph glyph-name="uni516C" unicode="&#x516c;" d="M415 824 L134 340 L28 340 L308 824 L415 824 ZM978 340 L872 340 L591 824 L698 824 L978 340 ZM589 352 L700 352 L917 -84 L83 -84 L352 436 L459 436 L242 17 L759 17 L589 352 Z" /><glyph glyph-name="uni5185" unicode="&#x5185;" d="M547 690 L927 690 L927 -92 L668 -92 L668 -2 L837 -2 L837 600 L547 600 L547 481 L775 71 L672 71 L500 379 L328 71 L224 71 L453 481 L453 600 L163 600 L163 -97 L72 -97 L72 690 L453 690 L453 827 L547 827 L547 690 Z" /><glyph glyph-name="uni5207" unicode="&#x5207;" d="M250 803 L250 598 L391 598 L391 508 L250 508 L250 13 L376 13 L376 -77 L160 -77 L160 508 L36 508 L36 598 L160 598 L160 803 L250 803 ZM421 788 L929 788 L929 -88 L694 -88 L694 2 L839 2 L839 698 L421 698 L421 788 ZM439 -96 L538 648 L627 648 L528 -96 L439 -96 Z" /><glyph glyph-name="uni5219" unicode="&#x5219;" d="M160 701 L160 162 L70 162 L70 791 L540 791 L540 162 L450 162 L450 701 L160 701 ZM350 629 L350 185 L562 -92 L451 -92 L305 105 L160 -92 L48 -92 L260 185 L260 629 L350 629 ZM846 812 L937 812 L937 -91 L680 -91 L680 -1 L846 -1 L846 812 ZM736 724 L736 101 L646 101 L646 724 L736 724 Z" /><glyph glyph-name="uni521B" unicode="&#x521b;" d="M173 350 L173 9 L570 9 L570 -82 L83 -82 L83 440 L553 440 L553 132 L265 132 L265 222 L463 222 L463 350 L173 350 ZM845 809 L935 809 L935 -86 L668 -86 L668 4 L845 4 L845 809 ZM748 713 L748 108 L658 108 L658 713 L748 713 ZM32 583 L322 816 L613 583 L613 466 L322 698 L32 466 L32 583 Z" /><glyph glyph-name="uni522B" unicode="&#x522b;" d="M845 808 L936 808 L936 -86 L669 -86 L669 4 L845 4 L845 808 ZM743 712 L743 107 L653 107 L653 712 L743 712 ZM246 351 L235 286 L541 286 L541 -84 L319 -84 L319 7 L451 7 L451 196 L219 196 L169 -87 L73 -87 L123 196 L47 196 L47 286 L139 286 L150 351 L246 351 ZM66 385 L66 793 L541 793 L541 385 L417 385 L451 475 L451 703 L157 703 L157 475 L417 475 L417 385 L66 385 Z" /><glyph glyph-name="uni524D" unicode="&#x524d;" d="M401 369 L401 279 L199 279 L199 369 L401 369 ZM199 105 L199 196 L401 196 L401 105 L199 105 ZM74 -95 L74 544 L526 544 L526 -89 L327 -89 L327 1 L435 1 L435 454 L165 454 L165 -95 L74 -95 ZM837 1 L837 548 L927 548 L927 -89 L698 -89 L698 1 L837 1 ZM728 507 L728 72 L638 72 L638 507 L728 507 ZM767 710 L952 710 L952 620 L47 620 L47 710 L233 710 L193 813 L292 813 L333 710 L667 710 L708 813 L807 813 L767 710 Z" /><glyph glyph-name="uni529B" unicode="&#x529b;" d="M342 661 L939 661 L939 -88 L467 -88 L467 7 L844 7 L844 566 L320 566 L168 -111 L70 -111 L223 566 L42 566 L42 661 L244 661 L280 821 L378 821 L342 661 Z" /><glyph glyph-name="uni529E" unicode="&#x529e;" d="M40 -3 L101 521 L187 521 L126 -3 L40 -3 ZM898 582 L962 -3 L877 -3 L813 582 L898 582 ZM411 826 L398 718 L756 718 L756 -97 L518 -97 L518 -7 L665 -7 L665 628 L387 628 L300 -117 L211 -117 L300 628 L45 628 L45 718 L310 718 L323 826 L411 826 Z" /><glyph glyph-name="uni52A8" unicode="&#x52a8;" d="M735 708 L938 708 L938 -87 L751 -87 L751 3 L848 3 L848 618 L725 618 L653 -101 L563 -101 L635 618 L531 618 L531 708 L645 708 L656 824 L746 824 L735 708 ZM479 775 L479 685 L60 685 L60 775 L479 775 ZM38 341 L38 431 L502 431 L502 341 L38 341 ZM331 252 L423 252 L489 -23 L489 -84 L55 -84 L55 -22 L137 306 L231 306 L155 7 L389 7 L331 252 Z" /><glyph glyph-name="uni5347" unicode="&#x5347;" d="M969 389 L969 299 L800 299 L800 -108 L708 -108 L708 299 L275 299 L221 -108 L130 -108 L185 299 L31 299 L31 389 L196 389 L234 673 L324 673 L286 389 L708 389 L708 809 L800 809 L800 389 L969 389 ZM566 794 L566 703 L61 703 L61 794 L566 794 Z" /><glyph glyph-name="uni534E" unicode="&#x534e;" d="M626 298 L626 504 L428 448 L428 539 L626 595 L626 808 L716 808 L716 621 L952 688 L952 597 L716 529 L716 389 L948 389 L948 298 L626 298 ZM954 166 L954 76 L544 76 L544 -117 L454 -117 L454 76 L46 76 L46 166 L454 166 L454 275 L544 275 L544 166 L954 166 ZM336 806 L145 509 L39 509 L230 806 L336 806 ZM297 276 L207 276 L207 568 L297 568 L297 276 Z" /><glyph glyph-name="uni539A" unicode="&#x539a;" d="M954 792 L954 701 L152 701 L152 -100 L62 -100 L62 792 L954 792 ZM789 324 L214 324 L214 655 L922 655 L922 324 L789 324 L832 409 L832 570 L304 570 L304 409 L789 409 L789 324 ZM348 450 L348 528 L789 528 L789 450 L348 450 ZM957 140 L957 52 L677 52 L677 -92 L342 -92 L342 -5 L581 -5 L581 52 L193 52 L193 140 L588 140 L709 194 L214 194 L214 279 L919 279 L919 219 L757 140 L957 140 Z" /><glyph glyph-name="uni539F" unicode="&#x539f;" d="M60 793 L953 793 L953 703 L151 703 L151 -100 L60 -100 L60 793 ZM789 212 L615 212 L615 -94 L430 -94 L430 -4 L525 -4 L525 212 L219 212 L219 625 L521 625 L521 675 L611 675 L611 625 L915 625 L915 212 L789 212 L824 302 L824 535 L309 535 L309 302 L789 302 L789 212 ZM346 374 L346 464 L787 464 L787 374 L346 374 ZM193 -85 L311 167 L408 167 L291 -85 L193 -85 ZM732 167 L829 167 L946 -85 L849 -85 L732 167 Z" /><glyph glyph-name="uni53C2" unicode="&#x53c2;" d="M959 548 L959 457 L770 457 L958 322 L958 210 L747 362 L747 303 L217 226 L217 317 L710 389 L616 457 L382 457 L36 207 L36 318 L228 457 L41 457 L41 548 L365 548 L417 593 L545 593 L496 548 L959 548 ZM784 797 L911 614 L89 614 L265 816 L391 816 L291 704 L728 704 L663 797 L784 797 ZM46 -115 L46 -24 L950 110 L950 18 L46 -115 ZM125 147 L843 253 L843 162 L125 56 L125 147 Z" /><glyph glyph-name="uni53E3" unicode="&#x53e3;" d="M102 746 L898 746 L898 -39 L763 -39 L805 54 L805 653 L195 653 L195 54 L763 54 L763 -39 L102 -39 L102 746 Z" /><glyph glyph-name="uni53EA" unicode="&#x53ea;" d="M757 362 L757 272 L122 272 L122 795 L879 795 L879 272 L757 272 L789 362 L789 705 L212 705 L212 362 L757 362 ZM31 -104 L204 225 L305 225 L132 -104 L31 -104 ZM798 225 L971 -104 L870 -104 L697 225 L798 225 Z" /><glyph glyph-name="uni53F0" unicode="&#x53f0;" d="M137 -85 L137 306 L864 306 L864 -85 L737 -85 L772 7 L772 214 L229 214 L229 7 L737 7 L737 -85 L137 -85 ZM726 782 L898 484 L898 417 L102 417 L102 485 L300 811 L408 811 L224 509 L777 509 L620 782 L726 782 Z" /><glyph glyph-name="uni53F7" unicode="&#x53f7;" d="M731 575 L731 485 L135 485 L135 793 L864 793 L864 485 L731 485 L772 575 L772 703 L228 703 L228 575 L731 575 ZM41 423 L959 423 L959 333 L41 333 L41 423 ZM229 303 L229 233 L863 233 L863 -85 L402 -85 L402 5 L771 5 L771 143 L137 143 L137 303 L229 303 Z" /><glyph glyph-name="uni5408" unicode="&#x5408;" d="M136 -85 L136 272 L863 272 L863 -85 L730 -85 L773 5 L773 182 L226 182 L226 5 L730 5 L730 -85 L136 -85 ZM135 386 L135 477 L865 477 L865 386 L135 386 ZM500 830 L958 580 L958 479 L500 728 L42 479 L42 580 L500 830 Z" /><glyph glyph-name="uni540D" unicode="&#x540d;" d="M111 -85 L111 269 L890 269 L890 -85 L763 -85 L800 5 L800 179 L202 179 L202 5 L763 5 L763 -85 L111 -85 ZM325 611 L628 611 L628 521 L325 521 L325 611 ZM953 791 L763 342 L43 342 L43 432 L696 432 L810 701 L249 701 L163 514 L51 514 L184 791 L953 791 Z" /><glyph glyph-name="uni5411" unicode="&#x5411;" d="M545 735 L938 735 L938 -91 L635 -91 L635 -1 L848 -1 L848 644 L152 644 L152 -92 L62 -92 L62 735 L454 735 L454 827 L545 827 L545 735 ZM725 516 L725 103 L605 103 L635 193 L635 426 L365 426 L365 193 L605 193 L605 103 L275 103 L275 516 L725 516 Z" /><glyph glyph-name="uni548C" unicode="&#x548c;" d="M518 414 L327 414 L327 -97 L236 -97 L236 414 L47 414 L47 504 L236 504 L236 704 L59 704 L59 795 L507 795 L507 704 L327 704 L327 504 L518 504 L518 414 ZM42 -87 L99 358 L183 358 L127 -87 L42 -87 ZM381 358 L465 358 L521 -87 L437 -87 L381 358 ZM572 783 L935 783 L935 -79 L809 -79 L844 11 L844 693 L662 693 L662 11 L809 11 L809 -79 L572 -79 L572 783 Z" /><glyph glyph-name="uni54C1" unicode="&#x54c1;" d="M738 511 L738 421 L137 421 L137 795 L862 795 L862 421 L738 421 L772 511 L772 705 L227 705 L227 511 L738 511 ZM536 331 L941 331 L941 -86 L819 -86 L851 4 L851 241 L626 241 L626 4 L819 4 L819 -86 L536 -86 L536 331 ZM59 -86 L59 331 L463 331 L463 -86 L341 -86 L373 4 L373 241 L149 241 L149 4 L341 4 L341 -86 L59 -86 Z" /><glyph glyph-name="uni56DE" unicode="&#x56de;" d="M279 142 L279 566 L721 566 L721 142 L592 142 L631 232 L631 476 L369 476 L369 232 L592 232 L592 142 L279 142 ZM60 794 L942 794 L942 -86 L812 -86 L852 4 L852 704 L150 704 L150 4 L812 4 L812 -86 L60 -86 L60 794 Z" /><glyph glyph-name="uni56FD" unicode="&#x56fd;" d="M790 628 L790 537 L210 537 L210 628 L790 628 ZM776 418 L776 327 L545 327 L545 191 L454 191 L454 327 L224 327 L224 418 L454 418 L454 505 L545 505 L545 418 L776 418 ZM209 69 L209 159 L791 159 L791 69 L209 69 ZM711 202 L621 202 L621 286 L711 286 L711 202 ZM59 793 L941 793 L941 -87 L802 -87 L851 3 L851 703 L149 703 L149 3 L802 3 L802 -87 L59 -87 L59 793 Z" /><glyph glyph-name="uni5728" unicode="&#x5728;" d="M297 8 L957 8 L957 -83 L297 -83 L297 8 ZM673 52 L582 52 L582 295 L315 295 L315 385 L582 385 L582 521 L673 521 L673 385 L939 385 L939 295 L673 295 L673 52 ZM143 -101 L143 291 L234 291 L234 -101 L143 -101 ZM956 616 L287 616 L131 291 L31 291 L187 616 L47 616 L47 706 L231 706 L288 826 L388 826 L331 706 L956 706 L956 616 Z" /><glyph glyph-name="uni575A" unicode="&#x575a;" d="M39 6 L961 6 L961 -84 L39 -84 L39 6 ZM454 39 L454 119 L77 119 L77 209 L454 209 L454 259 L545 259 L545 209 L922 209 L922 119 L545 119 L545 39 L454 39 ZM168 779 L168 316 L78 316 L78 779 L168 779 ZM391 811 L391 289 L300 289 L300 811 L391 811 ZM828 591 L828 702 L507 702 L507 792 L918 792 L918 541 L809 473 L954 389 L954 288 L724 421 L508 287 L508 391 L637 472 L509 546 L509 658 L599 658 L599 596 L720 525 L828 591 Z" /><glyph glyph-name="uni578B" unicode="&#x578b;" d="M579 790 L579 700 L65 700 L65 790 L579 790 ZM91 248 L111 426 L41 426 L41 517 L122 517 L137 659 L227 659 L212 517 L406 517 L406 659 L496 659 L496 517 L598 517 L598 426 L496 426 L496 248 L406 248 L406 426 L201 426 L182 248 L91 248 ZM713 253 L713 343 L845 343 L845 802 L935 802 L935 253 L713 253 ZM753 745 L753 408 L663 408 L663 745 L753 745 ZM544 4 L951 4 L951 -87 L48 -87 L48 4 L454 4 L454 78 L89 78 L89 168 L454 168 L454 220 L544 220 L544 168 L908 168 L908 78 L544 78 L544 4 Z" /><glyph glyph-name="uni590F" unicode="&#x590f;" d="M225 490 L225 560 L776 560 L776 490 L225 490 ZM225 392 L225 461 L776 461 L776 392 L225 392 ZM46 792 L955 792 L955 706 L546 706 L546 674 L894 674 L894 278 L776 278 L804 362 L804 589 L197 589 L197 362 L776 362 L776 278 L107 278 L107 674 L455 674 L455 706 L46 706 L46 792 ZM893 64 L712 28 L944 -15 L944 -101 L484 -17 L55 -101 L55 -15 L257 25 L108 51 L108 140 L488 70 L803 131 L803 151 L108 151 L108 260 L198 260 L198 236 L893 236 L893 64 Z" /><glyph glyph-name="uni591A" unicode="&#x591a;" d="M282 632 L705 632 L705 542 L282 542 L282 632 ZM973 794 L804 382 L57 382 L57 472 L743 472 L840 704 L259 704 L164 542 L61 542 L204 794 L973 794 ZM270 167 L692 167 L692 77 L270 77 L270 167 ZM48 77 L191 327 L959 327 L791 -85 L43 -85 L43 5 L729 5 L827 237 L246 237 L151 77 L48 77 Z" /><glyph glyph-name="uni5927" unicode="&#x5927;" d="M960 522 L548 522 L548 452 L959 -93 L846 -93 L500 367 L154 -93 L41 -93 L453 455 L453 522 L42 522 L42 617 L453 617 L453 815 L548 815 L548 617 L960 617 L960 522 Z" /><glyph glyph-name="uni5956" unicode="&#x5956;" d="M545 313 L545 254 L957 254 L957 164 L553 164 L953 -2 L953 -97 L500 91 L47 -97 L47 -2 L447 164 L43 164 L43 254 L454 254 L454 313 L545 313 ZM419 806 L419 352 L329 352 L329 806 L419 806 ZM289 704 L289 602 L58 686 L58 786 L289 704 ZM289 522 L289 421 L58 344 L58 445 L289 522 ZM615 614 L762 614 L762 524 L615 524 L615 614 ZM607 694 L549 525 L454 525 L541 785 L959 785 L867 353 L476 353 L476 443 L787 443 L840 694 L607 694 Z" /><glyph glyph-name="uni597D" unicode="&#x597d;" d="M967 424 L967 329 L793 329 L793 -92 L559 -92 L559 -2 L700 -2 L700 329 L453 329 L453 424 L700 424 L700 489 L798 692 L461 692 L461 785 L943 785 L793 468 L793 424 L967 424 ZM402 224 L303 96 L454 -91 L332 -91 L245 19 L159 -91 L36 -91 L184 96 L82 224 L82 595 L43 595 L43 685 L82 685 L82 808 L172 808 L172 685 L402 685 L402 224 ZM172 259 L243 172 L312 259 L312 595 L172 595 L172 259 Z" /><glyph glyph-name="uni59CB" unicode="&#x59cb;" d="M434 -82 L434 331 L938 331 L938 -82 L812 -82 L848 8 L848 241 L524 241 L524 8 L812 8 L812 -82 L434 -82 ZM850 782 L966 447 L398 447 L513 811 L608 811 L522 538 L841 538 L755 782 L850 782 ZM360 191 L270 72 L389 -91 L280 -91 L215 -2 L147 -91 L35 -91 L160 75 L73 195 L73 605 L39 605 L39 695 L73 695 L73 805 L163 805 L163 695 L360 695 L360 191 ZM163 221 L215 149 L270 221 L270 605 L163 605 L163 221 Z" /><glyph glyph-name="uni5A92" unicode="&#x5a92;" d="M903 750 L956 750 L956 660 L903 660 L903 342 L781 342 L812 432 L812 660 L521 660 L521 432 L781 432 L781 342 L430 342 L430 660 L377 660 L377 750 L430 750 L430 812 L521 812 L521 750 L812 750 L812 812 L903 812 L903 750 ZM715 315 L715 282 L956 282 L956 192 L715 192 L715 -100 L625 -100 L625 192 L377 192 L377 282 L625 282 L625 315 L715 315 ZM553 502 L553 593 L781 593 L781 502 L553 502 ZM398 -85 L470 157 L561 157 L489 -85 L398 -85 ZM774 157 L866 157 L939 -85 L846 -85 L774 157 ZM329 191 L253 74 L355 -91 L246 -91 L198 -13 L146 -91 L34 -91 L144 77 L72 194 L72 605 L39 605 L39 695 L72 695 L72 804 L162 804 L162 695 L329 695 L329 191 ZM162 221 L200 161 L238 221 L238 605 L162 605 L162 221 Z" /><glyph glyph-name="uni5B63" unicode="&#x5b63;" d="M407 504 L407 416 L45 311 L45 400 L407 504 ZM954 400 L954 311 L593 416 L593 504 L954 400 ZM826 273 L672 170 L954 170 L954 79 L593 79 L593 -89 L261 -89 L261 1 L503 1 L503 79 L45 79 L45 170 L537 170 L642 236 L214 236 L214 326 L826 326 L826 273 ZM545 620 L954 620 L954 530 L545 530 L545 362 L454 362 L454 530 L45 530 L45 620 L454 620 L454 677 L545 677 L545 620 ZM894 794 L894 704 L106 704 L106 794 L894 794 Z" /><glyph glyph-name="uni5B9E" unicode="&#x5b9e;" d="M677 138 L783 138 L937 -98 L831 -98 L677 138 ZM654 262 L956 262 L956 172 L443 172 L177 -93 L49 -93 L314 172 L44 172 L44 262 L557 262 L704 609 L800 609 L654 262 ZM148 668 L148 550 L57 550 L57 758 L452 758 L452 828 L547 828 L547 758 L943 758 L943 550 L852 550 L852 668 L148 668 ZM549 376 L454 376 L330 615 L425 615 L549 376 ZM167 542 L262 542 L386 303 L291 303 L167 542 Z" /><glyph glyph-name="uni5BA3" unicode="&#x5ba3;" d="M28 7 L944 7 L944 -83 L28 -83 L28 7 ZM184 608 L788 608 L788 517 L184 517 L184 608 ZM134 669 L134 534 L43 534 L43 760 L439 760 L439 828 L534 828 L534 760 L929 760 L929 534 L839 534 L839 669 L134 669 ZM108 67 L108 458 L864 458 L864 67 L733 67 L774 157 L774 367 L198 367 L198 157 L733 157 L733 67 L108 67 ZM238 217 L238 307 L734 307 L734 217 L238 217 Z" /><glyph glyph-name="uni5BFC" unicode="&#x5bfc;" d="M211 425 L965 425 L965 335 L121 335 L121 795 L892 795 L892 508 L761 508 L801 598 L801 704 L211 704 L211 598 L761 598 L761 508 L211 508 L211 425 ZM825 310 L825 236 L965 236 L965 146 L825 146 L825 -95 L554 -95 L554 -4 L735 -4 L735 146 L41 146 L41 236 L735 236 L735 310 L825 310 ZM122 14 L122 111 L493 6 L493 -91 L122 14 Z" /><glyph glyph-name="uni5C55" unicode="&#x5c55;" d="M785 293 L952 293 L952 203 L195 203 L195 293 L363 293 L363 363 L221 363 L221 453 L363 453 L363 506 L453 506 L453 453 L695 453 L695 506 L785 506 L785 453 L935 453 L935 363 L785 363 L785 293 ZM453 363 L453 293 L695 293 L695 363 L453 363 ZM396 181 L396 -3 L613 -3 L613 -93 L306 -93 L306 181 L396 181 ZM741 181 L794 108 L947 164 L947 65 L850 30 L939 -94 L826 -94 L629 181 L741 181 ZM812 534 L150 534 L150 -98 L59 -98 L59 793 L938 793 L938 534 L812 534 L848 624 L848 702 L150 702 L150 624 L812 624 L812 534 Z" /><glyph glyph-name="uni5DE1" unicode="&#x5de1;" d="M545 79 L441 79 L239 439 L441 799 L545 799 L342 439 L545 79 ZM648 79 L446 439 L648 799 L752 799 L549 439 L752 79 L648 79 ZM960 799 L757 439 L960 79 L856 79 L654 439 L856 799 L960 799 ZM199 537 L199 6 L959 6 L959 -84 L40 -84 L40 6 L109 6 L109 447 L40 447 L40 537 L199 537 ZM199 812 L199 601 L109 601 L109 812 L199 812 Z" /><glyph glyph-name="uni5E08" unicode="&#x5e08;" d="M717 660 L717 536 L940 536 L940 -22 L790 -22 L790 68 L850 68 L850 446 L717 446 L717 -101 L627 -101 L627 446 L495 446 L495 -22 L405 -22 L405 536 L627 536 L627 660 L717 660 ZM388 791 L956 791 L956 701 L388 701 L388 791 ZM63 74 L63 715 L154 715 L154 74 L63 74 ZM234 -101 L234 822 L324 822 L324 -101 L234 -101 Z" /><glyph glyph-name="uni5E73" unicode="&#x5e73;" d="M968 259 L968 169 L545 169 L545 -105 L454 -105 L454 169 L32 169 L32 259 L454 259 L454 665 L545 665 L545 259 L968 259 ZM951 793 L951 703 L49 703 L49 793 L951 793 ZM220 309 L124 654 L217 654 L313 309 L220 309 ZM777 309 L684 309 L780 654 L873 654 L777 309 Z" /><glyph glyph-name="uni5E74" unicode="&#x5e74;" d="M959 179 L959 89 L587 89 L587 -106 L497 -106 L497 89 L459 89 L497 179 L497 394 L233 394 L233 179 L459 179 L459 89 L44 89 L44 179 L143 179 L143 484 L497 484 L497 601 L587 601 L587 484 L922 484 L922 394 L587 394 L587 179 L959 179 ZM943 727 L943 636 L143 636 L143 820 L233 820 L233 727 L943 727 Z" /><glyph glyph-name="uni5E7F" unicode="&#x5e7f;" d="M561 748 L965 748 L965 653 L160 653 L160 -97 L65 -97 L65 748 L461 748 L461 830 L561 830 L561 748 Z" /><glyph glyph-name="uni5EA6" unicode="&#x5ea6;" d="M895 596 L957 596 L957 506 L895 506 L895 358 L762 358 L805 448 L805 506 L362 506 L362 448 L762 448 L762 358 L272 358 L272 506 L198 506 L198 596 L272 596 L272 646 L362 646 L362 596 L805 596 L805 646 L895 646 L895 596 ZM895 119 L717 61 L952 -14 L952 -110 L573 15 L197 -109 L197 -13 L428 62 L274 112 L274 205 L572 109 L805 184 L805 216 L274 216 L274 307 L895 307 L895 119 ZM955 768 L955 678 L157 678 L157 -103 L66 -103 L66 768 L481 768 L481 821 L576 821 L576 768 L955 768 Z" /><glyph glyph-name="uni5EA7" unicode="&#x5ea7;" d="M612 122 L612 6 L947 6 L947 -84 L191 -84 L191 6 L522 6 L522 122 L208 122 L208 212 L522 212 L522 645 L612 645 L612 212 L930 212 L930 122 L612 122 ZM299 628 L389 628 L389 521 L506 269 L407 269 L345 413 L281 269 L182 269 L299 521 L299 628 ZM835 628 L835 521 L952 269 L853 269 L790 413 L726 269 L628 269 L745 521 L745 628 L835 628 ZM571 772 L954 772 L954 681 L152 681 L152 -92 L61 -92 L61 772 L476 772 L476 825 L571 825 L571 772 Z" /><glyph glyph-name="uni5F00" unicode="&#x5f00;" d="M958 381 L958 289 L796 289 L796 -107 L701 -107 L701 289 L287 289 L253 -107 L158 -107 L192 289 L42 289 L42 381 L201 381 L224 651 L319 651 L296 381 L701 381 L701 651 L796 651 L796 381 L958 381 ZM937 787 L937 695 L57 695 L57 787 L937 787 Z" /><glyph glyph-name="uni5F53" unicode="&#x5f53;" d="M549 518 L920 518 L920 -86 L781 -86 L830 4 L830 428 L54 428 L54 518 L458 518 L458 830 L549 830 L549 518 ZM54 4 L781 4 L781 -86 L54 -86 L54 4 ZM781 261 L781 171 L66 171 L66 261 L781 261 ZM306 583 L206 583 L89 799 L189 799 L306 583 ZM911 799 L794 583 L693 583 L810 799 L911 799 Z" /><glyph glyph-name="uni5F81" unicode="&#x5f81;" d="M356 793 L949 793 L949 703 L356 703 L356 793 ZM631 665 L721 665 L721 399 L929 399 L929 308 L721 308 L721 43 L631 43 L631 665 ZM479 572 L479 5 L949 5 L949 -85 L312 -85 L312 5 L389 5 L389 572 L479 572 ZM137 -99 L137 301 L228 301 L228 -99 L137 -99 ZM29 301 L175 554 L279 554 L134 301 L29 301 ZM39 554 L184 809 L289 809 L143 554 L39 554 Z" /><glyph glyph-name="uni6027" unicode="&#x6027;" d="M187 -102 L187 811 L277 811 L277 -102 L187 -102 ZM56 137 L56 663 L146 663 L146 137 L56 137 ZM319 137 L319 663 L409 663 L409 137 L319 137 ZM669 41 L669 267 L452 267 L452 357 L669 357 L669 558 L455 558 L455 795 L545 795 L545 649 L669 649 L669 812 L759 812 L759 649 L953 649 L953 558 L759 558 L759 357 L944 357 L944 267 L759 267 L759 41 L669 41 ZM419 4 L961 4 L961 -86 L419 -86 L419 4 Z" /><glyph glyph-name="uni6210" unicode="&#x6210;" d="M959 575 L746 575 L832 172 L959 229 L959 130 L852 82 L891 -103 L798 -103 L767 44 L560 -49 L560 50 L748 134 L653 575 L156 575 L156 398 L485 398 L485 -82 L264 -82 L264 8 L395 8 L395 308 L156 308 L156 -107 L66 -107 L66 665 L633 665 L599 824 L693 824 L726 665 L959 665 L959 575 ZM925 801 L925 713 L835 713 L835 801 L925 801 Z" /><glyph glyph-name="uni6211" unicode="&#x6211;" d="M958 224 L958 132 L823 105 L852 -99 L761 -99 L736 87 L506 41 L506 132 L723 177 L684 454 L312 454 L312 273 L502 307 L502 216 L312 182 L312 -86 L78 -86 L78 5 L222 5 L222 166 L48 136 L48 227 L222 258 L222 454 L44 454 L44 544 L222 544 L222 705 L78 705 L78 795 L521 795 L521 705 L312 705 L312 544 L672 544 L634 816 L724 816 L762 544 L956 544 L956 454 L775 454 L811 194 L958 224 ZM910 634 L820 634 L799 790 L890 790 L910 634 Z" /><glyph glyph-name="uni6280" unicode="&#x6280;" d="M246 808 L246 650 L349 650 L349 560 L246 560 L246 291 L349 291 L349 201 L246 201 L246 -91 L61 -91 L61 0 L155 0 L155 201 L52 201 L52 291 L155 291 L155 560 L52 560 L52 650 L155 650 L155 808 L246 808 ZM708 716 L954 716 L954 626 L708 626 L708 519 L618 519 L618 626 L395 626 L395 716 L618 716 L618 810 L708 810 L708 716 ZM924 258 L741 138 L954 6 L954 -99 L661 86 L372 -103 L372 3 L577 138 L396 252 L396 354 L657 192 L834 308 L834 391 L396 391 L396 481 L924 481 L924 258 Z" /><glyph glyph-name="uni62FF" unicode="&#x62ff;" d="M577 134 L577 101 L942 101 L942 19 L577 19 L577 -91 L290 -91 L290 -14 L477 -14 L477 19 L58 19 L58 101 L477 101 L477 134 L98 134 L98 212 L477 212 L477 246 L85 246 L85 324 L915 324 L915 246 L577 246 L577 212 L902 212 L902 134 L577 134 ZM150 358 L150 550 L850 550 L850 358 L727 358 L759 436 L759 471 L241 471 L241 436 L727 436 L727 358 L150 358 ZM275 659 L725 659 L725 583 L275 583 L275 659 ZM500 830 L959 682 L959 586 L500 734 L42 586 L42 682 L500 830 Z" /><glyph glyph-name="uni6301" unicode="&#x6301;" d="M367 498 L958 498 L958 407 L367 407 L367 498 ZM617 535 L617 620 L386 620 L386 710 L617 710 L617 808 L707 808 L707 710 L938 710 L938 620 L707 620 L707 535 L617 535 ZM874 373 L874 303 L949 303 L949 213 L874 213 L874 -92 L654 -92 L654 -2 L783 -2 L783 213 L378 213 L378 303 L783 303 L783 373 L874 373 ZM399 164 L492 164 L563 -56 L471 -56 L399 164 ZM233 560 L233 303 L319 303 L319 213 L233 213 L233 -90 L60 -90 L60 0 L143 0 L143 213 L52 213 L52 303 L143 303 L143 560 L52 560 L52 651 L143 651 L143 808 L233 808 L233 651 L316 651 L316 560 L233 560 Z" /><glyph glyph-name="uni6307" unicode="&#x6307;" d="M262 808 L262 646 L365 646 L365 556 L262 556 L262 299 L365 299 L365 209 L262 209 L262 -86 L57 -86 L57 4 L171 4 L171 209 L53 209 L53 299 L171 299 L171 556 L53 556 L53 646 L171 646 L171 808 L262 808 ZM405 -83 L405 350 L934 350 L934 -83 L806 -83 L844 8 L844 259 L495 259 L495 8 L806 8 L806 -83 L405 -83 ZM534 88 L534 179 L806 179 L806 88 L534 88 ZM530 719 L951 719 L951 629 L530 629 L530 719 ZM495 810 L495 509 L951 509 L951 419 L405 419 L405 810 L495 810 Z" /><glyph glyph-name="uni63A8" unicode="&#x63a8;" d="M245 811 L245 656 L335 656 L335 566 L245 566 L245 291 L335 291 L335 200 L245 200 L245 -90 L43 -90 L43 0 L155 0 L155 200 L43 200 L43 291 L155 291 L155 566 L43 566 L43 656 L155 656 L155 811 L245 811 ZM746 5 L949 5 L949 -85 L620 -85 L656 5 L656 143 L485 143 L485 5 L620 5 L620 -85 L394 -85 L394 531 L351 531 L437 813 L534 813 L489 667 L941 667 L941 577 L746 577 L746 460 L935 460 L935 370 L746 370 L746 233 L935 233 L935 143 L746 143 L746 5 ZM656 460 L656 577 L485 577 L485 460 L656 460 ZM485 233 L656 233 L656 370 L485 370 L485 233 ZM746 806 L746 703 L656 703 L656 806 L746 806 Z" /><glyph glyph-name="uni63D0" unicode="&#x63d0;" d="M229 802 L229 636 L316 636 L316 546 L229 546 L229 308 L316 308 L316 217 L229 217 L229 -86 L49 -86 L49 4 L139 4 L139 217 L49 217 L49 308 L139 308 L139 546 L49 546 L49 636 L139 636 L139 802 L229 802 ZM782 519 L782 429 L390 429 L390 800 L911 800 L911 429 L782 429 L821 519 L821 709 L480 709 L480 519 L782 519 ZM521 570 L521 660 L782 660 L782 570 L521 570 ZM346 372 L955 372 L955 282 L346 282 L346 372 ZM721 101 L721 9 L955 9 L955 -81 L612 -81 L466 23 L436 -91 L343 -91 L426 228 L519 228 L491 117 L631 17 L631 253 L721 253 L721 192 L936 192 L936 101 L721 101 Z" /><glyph glyph-name="uni6536" unicode="&#x6536;" d="M292 153 L292 807 L382 807 L382 -102 L292 -102 L292 62 L61 62 L61 746 L151 746 L151 153 L292 153 ZM913 625 L913 281 L765 119 L957 -97 L833 -97 L702 51 L567 -97 L445 -97 L642 118 L492 288 L492 568 L582 568 L582 324 L705 187 L823 316 L823 625 L492 625 L492 807 L582 807 L582 715 L962 715 L962 625 L913 625 Z" /><glyph glyph-name="uni6559" unicode="&#x6559;" d="M971 -87 L855 -87 L757 53 L652 -87 L538 -87 L702 132 L591 289 L591 596 L682 596 L682 321 L761 211 L843 321 L843 651 L591 651 L591 814 L682 814 L682 741 L961 741 L961 651 L933 651 L933 292 L816 133 L971 -87 ZM540 620 L436 539 L532 539 L532 448 L331 448 L247 385 L499 385 L499 327 L355 192 L355 179 L532 179 L532 88 L355 88 L355 -88 L139 -88 L139 2 L265 2 L265 88 L49 88 L49 179 L265 179 L265 220 L345 295 L126 295 L47 236 L47 338 L193 448 L40 448 L40 539 L181 539 L181 618 L66 618 L66 708 L181 708 L181 805 L271 805 L271 708 L377 708 L377 618 L271 618 L271 539 L307 539 L540 733 L540 620 Z" /><glyph glyph-name="uni6587" unicode="&#x6587;" d="M871 642 L871 314 L606 176 L954 -1 L954 -108 L503 123 L42 -114 L42 -8 L399 176 L132 314 L132 592 L224 592 L224 372 L502 230 L777 371 L777 642 L39 642 L39 734 L453 734 L453 824 L546 824 L546 734 L961 734 L961 642 L871 642 Z" /><glyph glyph-name="uni65B0" unicode="&#x65b0;" d="M46 487 L112 487 L83 645 L175 645 L204 487 L358 487 L387 645 L478 645 L449 487 L515 487 L515 397 L326 397 L326 302 L506 302 L506 212 L326 212 L326 -97 L193 -97 L193 -7 L236 -7 L236 212 L56 212 L56 302 L236 302 L236 397 L46 397 L46 487 ZM946 703 L645 703 L645 -98 L555 -98 L555 793 L946 793 L946 703 ZM958 389 L880 389 L880 -100 L790 -100 L790 389 L683 389 L683 480 L958 480 L958 389 ZM509 675 L54 675 L54 766 L236 766 L236 819 L326 819 L326 766 L509 766 L509 675 ZM94 165 L185 165 L137 -82 L48 -82 L94 165 ZM461 165 L509 -82 L419 -82 L372 165 L461 165 Z" /><glyph glyph-name="uni65E5" unicode="&#x65e5;" d="M108 796 L892 796 L892 -87 L757 -87 L800 5 L800 704 L200 704 L200 400 L745 400 L745 307 L200 307 L200 5 L757 5 L757 -87 L108 -87 L108 796 Z" /><glyph glyph-name="uni660E" unicode="&#x660e;" d="M813 535 L813 445 L631 445 L631 535 L813 535 ZM631 191 L631 282 L813 282 L813 191 L631 191 ZM505 798 L940 798 L940 -89 L741 -89 L741 1 L850 1 L850 708 L595 708 L595 -96 L505 -96 L505 798 ZM60 -74 L60 785 L428 785 L428 -74 L300 -74 L339 17 L339 695 L148 695 L148 401 L302 401 L302 311 L148 311 L148 17 L300 17 L300 -74 L60 -74 Z" /><glyph glyph-name="uni6625" unicode="&#x6625;" d="M968 177 L856 177 L832 208 L832 -84 L708 -84 L742 6 L742 222 L257 222 L257 6 L708 6 L708 -84 L166 -84 L166 210 L141 177 L29 177 L187 383 L52 383 L52 474 L452 474 L452 529 L87 529 L87 619 L452 619 L452 673 L72 673 L72 763 L452 763 L452 830 L547 830 L547 763 L926 763 L926 673 L547 673 L547 619 L911 619 L911 529 L547 529 L547 474 L946 474 L946 383 L810 383 L968 177 ZM245 312 L752 312 L697 383 L300 383 L245 312 ZM290 69 L290 159 L709 159 L709 69 L290 69 Z" /><glyph glyph-name="uni662F" unicode="&#x662f;" d="M737 500 L737 410 L138 410 L138 794 L866 794 L866 410 L737 410 L775 500 L775 704 L228 704 L228 500 L737 500 ZM266 557 L266 647 L737 647 L737 557 L266 557 ZM960 262 L549 262 L549 179 L919 179 L919 89 L549 89 L549 3 L960 3 L960 -87 L424 -87 L190 44 L144 -103 L49 -103 L154 228 L249 228 L219 131 L448 3 L459 3 L459 262 L40 262 L40 353 L960 353 L960 262 Z" /><glyph glyph-name="uni666F" unicode="&#x666f;" d="M743 565 L743 482 L136 482 L136 795 L867 795 L867 482 L743 482 L776 565 L776 712 L226 712 L226 565 L743 565 ZM742 106 L547 106 L547 -98 L393 -98 L393 -10 L457 -10 L457 106 L136 106 L136 316 L867 316 L867 106 L742 106 L776 189 L776 232 L226 232 L226 189 L742 189 L742 106 ZM260 600 L260 677 L743 677 L743 600 L260 600 ZM545 434 L960 434 L960 351 L40 351 L40 434 L454 434 L454 467 L545 467 L545 434 ZM642 -15 L642 73 L946 13 L946 -75 L642 -15 ZM53 -75 L53 13 L356 73 L356 -15 L53 -75 Z" /><glyph glyph-name="uni6700" unicode="&#x6700;" d="M749 558 L749 469 L127 469 L127 795 L873 795 L873 469 L749 469 L783 558 L783 708 L217 708 L217 558 L749 558 ZM251 590 L251 676 L749 676 L749 590 L251 590 ZM47 426 L959 426 L959 339 L495 339 L495 36 L520 36 L520 -50 L495 -50 L495 -104 L405 -104 L405 -50 L376 -50 L405 36 L405 339 L197 339 L197 36 L376 36 L376 -50 L55 -50 L55 36 L107 36 L107 339 L47 339 L47 426 ZM375 296 L375 209 L227 209 L227 296 L375 296 ZM227 80 L227 166 L375 166 L375 80 L227 80 ZM931 138 L816 67 L946 -1 L946 -98 L729 13 L543 -102 L543 -3 L640 59 L551 105 L551 203 L724 113 L841 188 L841 214 L552 214 L552 300 L931 300 L931 138 Z" /><glyph glyph-name="uni6708" unicode="&#x6708;" d="M784 523 L784 433 L216 433 L216 523 L784 523 ZM216 187 L216 278 L784 278 L784 187 L216 187 ZM80 792 L920 792 L920 -93 L594 -93 L594 -3 L830 -3 L830 701 L170 701 L170 -97 L80 -97 L80 792 Z" /><glyph glyph-name="uni6709" unicode="&#x6709;" d="M794 357 L794 267 L341 267 L341 357 L794 357 ZM341 93 L341 183 L794 183 L794 93 L341 93 ZM959 627 L304 627 L262 530 L925 530 L925 -95 L568 -95 L568 -5 L835 -5 L835 440 L305 440 L305 -103 L215 -103 L215 421 L130 227 L32 227 L206 627 L41 627 L41 717 L245 717 L291 822 L389 822 L343 717 L959 717 L959 627 Z" /><glyph glyph-name="uni672F" unicode="&#x672f;" d="M956 496 L546 496 L546 -119 L454 -119 L454 496 L45 496 L45 586 L454 586 L454 828 L546 828 L546 586 L956 586 L956 496 ZM865 649 L770 649 L710 808 L805 808 L865 649 ZM768 424 L956 -94 L859 -94 L671 424 L768 424 ZM40 -94 L228 424 L326 424 L138 -94 L40 -94 Z" /><glyph glyph-name="uni673A" unicode="&#x673a;" d="M862 1 L965 1 L965 -92 L769 -92 L769 702 L574 702 L574 -104 L481 -104 L481 795 L862 795 L862 1 ZM290 809 L290 697 L439 697 L439 607 L290 607 L290 -100 L200 -100 L200 607 L45 607 L45 697 L200 697 L200 809 L290 809 ZM338 -75 L338 555 L422 555 L422 -75 L338 -75 ZM68 -75 L68 555 L153 555 L153 -75 L68 -75 Z" /><glyph glyph-name="uni6750" unicode="&#x6750;" d="M968 692 L968 601 L898 601 L898 -88 L676 -88 L676 4 L803 4 L803 601 L477 601 L477 692 L803 692 L803 817 L898 817 L898 692 L968 692 ZM469 -85 L580 549 L674 549 L563 -85 L469 -85 ZM282 815 L282 692 L428 692 L428 601 L282 601 L282 -95 L192 -95 L192 601 L50 601 L50 692 L192 692 L192 815 L282 815 ZM65 -85 L65 549 L141 549 L141 -85 L65 -85 ZM332 -85 L332 549 L407 549 L407 -85 L332 -85 Z" /><glyph glyph-name="uni6765" unicode="&#x6765;" d="M545 375 L960 375 L960 285 L545 285 L545 -108 L454 -108 L454 285 L40 285 L40 375 L454 375 L454 654 L58 654 L58 744 L454 744 L454 816 L545 816 L545 744 L942 744 L942 654 L545 654 L545 375 ZM46 -92 L222 249 L324 249 L148 -92 L46 -92 ZM220 618 L277 411 L181 411 L124 618 L220 618 ZM672 249 L775 249 L950 -92 L849 -92 L672 249 ZM811 411 L715 411 L771 618 L867 618 L811 411 Z" /><glyph glyph-name="uni676F" unicode="&#x676f;" d="M833 634 L1000 59 L909 59 L740 634 L833 634 ZM711 704 L668 560 L738 560 L738 -95 L647 -95 L647 489 L521 59 L429 59 L619 704 L432 704 L432 794 L947 794 L947 704 L711 704 ZM279 815 L279 692 L427 692 L427 601 L279 601 L279 -95 L188 -95 L188 601 L41 601 L41 692 L188 692 L188 815 L279 815 ZM66 -85 L66 544 L142 544 L142 -85 L66 -85 ZM325 -85 L325 544 L401 544 L401 -85 L325 -85 Z" /><glyph glyph-name="uni6837" unicode="&#x6837;" d="M289 809 L289 676 L431 676 L431 586 L289 586 L289 -102 L199 -102 L199 586 L45 586 L45 676 L199 676 L199 809 L289 809 ZM337 -77 L337 546 L421 546 L421 -77 L337 -77 ZM68 -77 L68 546 L152 546 L152 -77 L68 -77 ZM949 676 L949 586 L472 586 L472 676 L559 676 L532 807 L625 807 L651 676 L780 676 L807 807 L898 807 L872 676 L949 676 ZM958 163 L958 73 L756 73 L756 -102 L665 -102 L665 73 L463 73 L463 163 L665 163 L665 326 L479 326 L479 417 L665 417 L665 544 L756 544 L756 417 L942 417 L942 326 L756 326 L756 163 L958 163 Z" /><glyph glyph-name="uni6BCF" unicode="&#x6bcf;" d="M954 297 L954 207 L879 207 L879 -85 L749 -85 L789 5 L789 207 L209 207 L209 5 L749 5 L749 -85 L119 -85 L119 207 L46 207 L46 297 L119 297 L119 588 L879 588 L879 297 L954 297 ZM209 297 L789 297 L789 498 L209 498 L209 297 ZM364 67 L364 152 L634 152 L634 67 L364 67 ZM364 444 L634 444 L634 359 L364 359 L364 444 ZM942 748 L942 658 L119 658 L119 825 L209 825 L209 748 L942 748 Z" /><glyph glyph-name="uni6BD4" unicode="&#x6bd4;" d="M149 815 L149 7 L483 7 L483 -86 L56 -86 L56 815 L149 815 ZM182 431 L182 525 L489 525 L489 431 L182 431 ZM612 815 L612 7 L951 7 L951 -86 L519 -86 L519 815 L612 815 ZM645 525 L951 525 L951 431 L645 431 L645 525 Z" /><glyph glyph-name="uni6C0F" unicode="&#x6c0f;" d="M153 702 L153 4 L429 4 L429 -88 L61 -88 L61 794 L917 794 L917 702 L153 702 ZM962 415 L962 325 L784 325 L891 -103 L799 -103 L692 325 L216 325 L216 415 L669 415 L606 665 L698 665 L761 415 L962 415 Z" /><glyph glyph-name="uni6C34" unicode="&#x6c34;" d="M461 -2 L461 823 L551 823 L551 -92 L321 -92 L321 -2 L461 -2 ZM405 639 L405 574 L131 -87 L34 -87 L297 548 L47 548 L47 639 L405 639 ZM699 521 L967 -82 L868 -82 L582 563 L929 746 L929 638 L699 521 Z" /><glyph glyph-name="uni6D3B" unicode="&#x6d3b;" d="M332 -84 L332 303 L920 303 L920 -84 L786 -84 L830 6 L830 212 L422 212 L422 6 L786 6 L786 -84 L332 -84 ZM671 549 L952 549 L952 459 L671 459 L671 335 L581 335 L581 459 L301 459 L301 549 L581 549 L581 670 L671 670 L671 549 ZM931 792 L931 702 L322 702 L322 792 L931 792 ZM25 544 L124 544 L232 309 L133 309 L25 544 ZM47 805 L146 805 L253 571 L155 571 L47 805 ZM32 -96 L134 265 L231 265 L129 -96 L32 -96 Z" /><glyph glyph-name="uni6D41" unicode="&#x6d41;" d="M577 -84 L577 293 L667 293 L667 -84 L577 -84 ZM295 -93 L376 293 L469 293 L388 -93 L295 -93 ZM882 -1 L967 -1 L967 -91 L791 -91 L791 294 L882 294 L882 -1 ZM309 355 L400 639 L279 639 L279 730 L576 730 L576 815 L666 815 L666 730 L962 730 L962 639 L494 639 L432 445 L821 445 L771 582 L867 582 L950 355 L309 355 ZM26 544 L125 544 L232 310 L133 310 L26 544 ZM48 806 L146 806 L254 571 L155 571 L48 806 ZM32 -96 L134 265 L231 265 L129 -96 L32 -96 Z" /><glyph glyph-name="uni6F14" unicode="&#x6f14;" d="M314 464 L572 464 L572 516 L404 516 L404 604 L831 604 L831 516 L662 516 L662 464 L919 464 L919 83 L794 83 L829 174 L829 374 L662 374 L662 327 L794 327 L794 239 L662 239 L662 198 L572 198 L572 239 L441 239 L441 327 L572 327 L572 374 L405 374 L405 174 L794 174 L794 83 L314 83 L314 464 ZM662 749 L957 749 L957 514 L867 514 L867 659 L368 659 L368 514 L277 514 L277 749 L572 749 L572 815 L662 815 L662 749 ZM257 -104 L257 -13 L566 69 L566 -21 L257 -104 ZM659 -21 L659 69 L956 -13 L956 -104 L659 -21 ZM26 544 L124 544 L232 309 L133 309 L26 544 ZM40 805 L140 805 L247 571 L148 571 L40 805 ZM32 -96 L134 265 L231 265 L129 -96 L32 -96 Z" /><glyph glyph-name="uni70AB" unicode="&#x70ab;" d="M752 733 L958 733 L958 643 L456 643 L456 733 L661 733 L661 807 L752 807 L752 733 ZM764 264 L854 264 L939 -16 L939 -83 L469 -83 L469 -10 Q542 117 623 262 L467 262 L467 336 Q545 521 579 611 L671 611 Q638 523 566 352 L674 352 Q748 490 777 548 L869 548 Q775 350 577 10 L841 10 L764 264 ZM288 803 L288 322 L434 -97 L337 -97 L243 188 L136 -97 L41 -97 L198 327 L198 803 L288 803 ZM149 785 L149 325 L69 325 L69 785 L149 785 ZM418 785 L418 325 L338 325 L338 785 L418 785 Z" /><glyph glyph-name="uni70B9" unicode="&#x70b9;" d="M882 537 L882 178 L745 178 L791 268 L791 447 L214 447 L214 268 L745 268 L745 178 L123 178 L123 537 L446 537 L446 830 L536 830 L536 717 L953 717 L953 626 L536 626 L536 537 L882 537 ZM30 -96 L135 103 L233 103 L128 -96 L30 -96 ZM297 103 L392 103 L475 -96 L380 -96 L297 103 ZM538 103 L633 103 L715 -96 L620 -96 L538 103 ZM873 103 L957 -96 L861 -96 L778 103 L873 103 Z" /><glyph glyph-name="uni70BC" unicode="&#x70bc;" d="M456 -78 L523 187 L615 187 L547 -78 L456 -78 ZM909 187 L963 -78 L874 -78 L819 187 L909 187 ZM950 249 L774 249 L774 -91 L630 -91 L630 -1 L684 -1 L684 249 L475 249 L511 454 L458 454 L458 544 L527 544 L542 631 L458 631 L458 721 L558 721 L574 811 L663 811 L647 721 L955 721 L955 631 L632 631 L618 544 L781 544 L781 336 L950 336 L950 249 ZM603 454 L583 336 L691 336 L691 454 L603 454 ZM286 803 L286 338 L437 -97 L340 -97 L247 188 L139 -97 L45 -97 L196 312 L196 803 L286 803 ZM145 785 L145 325 L64 325 L64 785 L145 785 ZM418 785 L418 325 L338 325 L338 785 L418 785 Z" /><glyph glyph-name="uni7231" unicode="&#x7231;" d="M157 509 L157 453 L61 453 L61 600 L198 600 L173 680 L274 680 L300 600 L460 600 L433 680 L535 680 L560 600 L726 600 L756 680 L856 680 L825 600 L938 600 L938 453 L843 453 L843 509 L157 509 ZM931 793 L931 703 L68 703 L68 793 L931 793 ZM896 118 L712 55 L947 -10 L947 -103 L561 3 L244 -105 L244 -8 L406 46 L268 84 L268 178 L560 97 L805 179 L805 196 L237 196 L136 -100 L37 -100 L187 336 L55 336 L55 424 L217 424 L235 475 L334 475 L316 424 L944 424 L944 336 L286 336 L269 286 L896 286 L896 118 Z" /><glyph glyph-name="uni725B" unicode="&#x725b;" d="M973 267 L973 173 L547 173 L547 -122 L453 -122 L453 173 L27 173 L27 267 L453 267 L453 534 L84 534 L84 788 L177 788 L177 628 L453 628 L453 829 L547 829 L547 628 L936 628 L936 534 L547 534 L547 267 L973 267 Z" /><glyph glyph-name="uni738B" unicode="&#x738b;" d="M955 792 L955 702 L44 702 L44 792 L955 792 ZM34 5 L966 5 L966 -85 L34 -85 L34 5 ZM545 40 L454 40 L454 308 L54 308 L54 399 L454 399 L454 667 L545 667 L545 399 L946 399 L946 308 L545 308 L545 40 Z" /><glyph glyph-name="uni7403" unicode="&#x7403;" d="M884 708 L964 708 L964 618 L702 618 L702 -97 L533 -97 L533 -7 L611 -7 L611 618 L353 618 L353 708 L611 708 L611 820 L702 820 L702 708 L794 708 L794 801 L884 801 L884 708 ZM454 563 L568 307 L468 307 L354 563 L454 563 ZM470 262 L565 262 L433 -86 L338 -86 L470 262 ZM963 563 L840 307 L741 307 L863 563 L963 563 ZM742 262 L840 262 L963 -86 L866 -86 L742 262 ZM312 789 L312 698 L46 698 L46 789 L312 789 ZM49 -81 L49 10 L316 10 L316 -81 L49 -81 ZM225 43 L134 43 L134 309 L49 309 L49 399 L134 399 L134 666 L225 666 L225 399 L309 399 L309 309 L225 309 L225 43 Z" /><glyph glyph-name="uni7531" unicode="&#x7531;" d="M545 663 L935 663 L935 -88 L807 -88 L845 2 L845 572 L545 572 L545 348 L807 348 L807 258 L545 258 L545 47 L454 47 L454 258 L193 258 L193 348 L454 348 L454 572 L155 572 L155 2 L807 2 L807 -88 L65 -88 L65 663 L454 663 L454 830 L545 830 L545 663 Z" /><glyph glyph-name="uni7535" unicode="&#x7535;" d="M525 3 L964 3 L964 -87 L435 -87 L435 138 L78 138 L78 711 L435 711 L435 830 L525 830 L525 711 L881 711 L881 138 L743 138 L791 229 L791 621 L525 621 L525 470 L743 470 L743 380 L525 380 L525 229 L743 229 L743 138 L525 138 L525 3 ZM169 229 L435 229 L435 380 L217 380 L217 470 L435 470 L435 621 L169 621 L169 229 Z" /><glyph glyph-name="uni767B" unicode="&#x767b;" d="M56 654 L272 654 L272 563 L56 563 L56 654 ZM944 789 L944 701 L692 701 L692 789 L944 789 ZM712 206 L712 116 L160 116 L160 360 L840 360 L840 116 L712 116 L750 206 L750 270 L250 270 L250 206 L712 206 ZM744 566 L953 424 L953 314 L691 493 L691 413 L308 413 L308 479 L45 303 L45 413 L376 631 L376 703 L55 703 L55 793 L467 793 L467 583 L346 504 L677 504 L532 602 L532 810 L622 810 L622 650 L692 602 L692 654 L944 654 L944 566 L744 566 ZM823 87 L801 8 L952 8 L952 -83 L49 -83 L49 8 L197 8 L176 87 L269 87 L291 8 L708 8 L729 87 L823 87 Z" /><glyph glyph-name="uni7684" unicode="&#x7684;" d="M622 716 L938 716 L938 -88 L615 -88 L615 2 L848 2 L848 626 L531 626 L531 817 L622 817 L622 716 ZM716 87 L622 87 L541 548 L635 548 L716 87 ZM189 276 L189 366 L326 366 L326 276 L189 276 ZM302 808 L302 722 L451 722 L451 -81 L318 -81 L360 10 L360 632 L155 632 L155 10 L318 10 L318 -81 L65 -81 L65 722 L212 722 L212 808 L302 808 Z" /><glyph glyph-name="uni7740" unicode="&#x7740;" d="M361 167 L361 252 L769 252 L769 167 L361 167 ZM361 42 L361 126 L769 126 L769 42 L361 42 ZM947 419 L307 419 L293 380 L891 380 L891 -86 L769 -86 L801 0 L801 293 L329 293 L329 0 L769 0 L769 -86 L239 -86 L239 228 L145 -34 L44 -34 L204 419 L52 419 L52 506 L236 506 L249 545 L95 545 L95 632 L280 632 L295 671 L70 671 L70 757 L245 757 L226 816 L329 816 L349 757 L651 757 L671 816 L773 816 L754 757 L929 757 L929 671 L396 671 L382 632 L904 632 L904 545 L352 545 L337 506 L947 506 L947 419 Z" /><glyph glyph-name="uni77E5" unicode="&#x77e5;" d="M503 295 L338 295 L526 -96 L426 -96 L276 215 L127 -96 L26 -96 L215 295 L40 295 L40 386 L231 386 L231 600 L321 600 L321 386 L503 386 L503 295 ZM497 725 L497 634 L50 634 L50 812 L140 812 L140 725 L497 725 ZM560 785 L937 785 L937 -76 L812 -76 L847 14 L847 695 L650 695 L650 14 L812 14 L812 -76 L560 -76 L560 785 Z" /><glyph glyph-name="uni78CB" unicode="&#x78cb;" d="M929 238 L929 148 L546 148 L546 238 L929 238 ZM773 106 L773 1 L951 1 L951 -89 L491 -89 L491 1 L683 1 L683 106 L773 106 ZM954 403 L954 312 L567 312 Q511 154 464 38 L460 27 L362 27 L372 52 Q421 175 471 312 L387 312 L387 403 L502 403 Q516 437 526 470 L407 470 L407 560 L557 560 L578 628 L396 628 L396 718 L512 718 L475 808 L572 808 L609 718 L756 718 L793 808 L890 808 L853 718 L945 718 L945 628 L673 628 L652 560 L927 560 L927 470 L621 470 Q614 447 598 403 L954 403 ZM39 677 L39 768 L348 768 L348 677 L214 677 L165 501 L335 501 L335 -77 L213 -77 L245 13 L245 410 L169 410 L169 13 L213 13 L213 -77 L79 -77 L79 343 L28 343 L120 677 L39 677 Z" /><glyph glyph-name="uni793A" unicode="&#x793a;" d="M898 780 L898 690 L99 690 L99 780 L898 780 ZM32 467 L968 467 L968 377 L560 377 L560 -92 L322 -92 L322 -2 L468 -2 L468 377 L32 377 L32 467 ZM36 -81 L195 263 L294 263 L135 -81 L36 -81 ZM709 263 L808 263 L966 -81 L868 -81 L709 263 Z" /><glyph glyph-name="uni795E" unicode="&#x795e;" d="M376 489 L255 358 L255 -102 L161 -102 L161 254 L39 120 L39 248 L266 499 L40 499 L40 590 L376 590 L376 489 ZM263 810 L263 631 L173 631 L173 810 L263 810 ZM299 65 L299 325 L380 325 L380 65 L299 65 ZM729 674 L940 674 L940 65 L814 65 L850 155 L850 584 L729 584 L729 415 L814 415 L814 325 L729 325 L729 155 L814 155 L814 65 L729 65 L729 -101 L639 -101 L639 65 L428 65 L428 674 L639 674 L639 808 L729 808 L729 674 ZM639 415 L639 584 L518 584 L518 155 L639 155 L639 325 L555 325 L555 415 L639 415 Z" /><glyph glyph-name="uni79C0" unicode="&#x79c0;" d="M404 516 L404 421 L45 301 L45 396 L404 516 ZM595 516 L954 396 L954 301 L595 421 L595 516 ZM454 359 L454 546 L50 546 L50 636 L454 636 L454 702 L103 702 L103 793 L897 793 L897 702 L545 702 L545 636 L950 636 L950 546 L545 546 L545 359 L454 359 ZM813 260 L718 169 L892 169 L892 -89 L546 -89 L546 1 L802 1 L802 83 L591 83 L591 153 L665 225 L128 225 L128 315 L813 315 L813 260 ZM91 -94 L246 200 L350 200 L195 -94 L91 -94 Z" /><glyph glyph-name="uni79CB" unicode="&#x79cb;" d="M930 785 L930 293 L839 293 L839 785 L930 785 ZM591 785 L591 293 L500 293 L500 785 L591 785 ZM761 328 L966 -87 L866 -87 L715 223 L564 -87 L464 -87 L670 328 L670 810 L761 810 L761 328 ZM440 795 L440 705 L54 705 L54 795 L440 795 ZM297 664 L297 498 L447 498 L447 408 L297 408 L297 -100 L207 -100 L207 408 L45 408 L45 498 L207 498 L207 664 L297 664 ZM70 -83 L70 364 L151 364 L151 -83 L70 -83 ZM353 -83 L353 364 L434 364 L434 -83 L353 -83 Z" /><glyph glyph-name="uni7A3F" unicode="&#x7a3f;" d="M908 631 L908 398 L786 398 L819 485 L819 543 L532 543 L532 485 L786 485 L786 398 L444 398 L444 631 L908 631 ZM418 -88 L418 334 L933 334 L933 -83 L845 -83 L845 244 L507 244 L507 -88 L418 -88 ZM561 -28 L561 184 L790 184 L790 -28 L687 -28 L714 53 L714 103 L638 103 L638 53 L687 53 L687 -28 L561 -28 ZM723 765 L950 765 L950 674 L408 674 L408 765 L628 765 L628 809 L723 809 L723 765 ZM266 672 L266 488 L389 488 L389 398 L266 398 L266 -95 L176 -95 L176 398 L42 398 L42 488 L176 488 L176 672 L266 672 ZM65 -85 L65 362 L136 362 L136 -85 L65 -85 ZM307 -85 L307 362 L378 362 L378 -85 L307 -85 ZM377 792 L377 702 L53 702 L53 792 L377 792 Z" /><glyph glyph-name="uni7B49" unicode="&#x7b49;" d="M545 432 L545 373 L954 373 L954 283 L46 283 L46 373 L454 373 L454 432 L96 432 L96 522 L454 522 L454 577 L545 577 L545 522 L904 522 L904 432 L545 432 ZM813 244 L813 211 L922 211 L922 121 L813 121 L813 -95 L512 -95 L512 -5 L718 -5 L718 121 L78 121 L78 211 L718 211 L718 244 L813 244 ZM180 80 L284 80 L367 -79 L263 -79 L180 80 ZM244 562 L189 652 L300 652 L355 562 L244 562 ZM761 652 L815 562 L706 562 L651 652 L761 652 ZM491 766 L491 675 L55 675 L55 812 L160 812 L160 766 L491 766 ZM633 766 L955 766 L955 675 L529 675 L529 812 L633 812 L633 766 Z" /><glyph glyph-name="uni7CBE" unicode="&#x7cbe;" d="M279 810 L279 455 L407 455 L407 364 L279 364 L279 -101 L189 -101 L189 364 L53 364 L53 455 L189 455 L189 810 L279 810 ZM68 -82 L68 322 L144 322 L144 -82 L68 -82 ZM144 793 L144 498 L68 498 L68 793 L144 793 ZM323 -82 L323 322 L399 322 L399 -82 L323 -82 ZM399 793 L399 498 L323 498 L323 793 L399 793 ZM735 477 L954 477 L954 387 L428 387 L428 477 L640 477 L640 523 L448 523 L448 612 L640 612 L640 659 L436 659 L436 748 L640 748 L640 806 L735 806 L735 748 L939 748 L939 659 L735 659 L735 612 L926 612 L926 523 L735 523 L735 477 ZM578 117 L578 202 L797 202 L797 117 L578 117 ZM578 -19 L578 67 L797 67 L797 -19 L578 -19 ZM450 -92 L450 342 L924 342 L924 -92 L834 -92 L834 252 L540 252 L540 -92 L450 -92 Z" /><glyph glyph-name="uni7D20" unicode="&#x7d20;" d="M546 509 L952 509 L952 426 L588 426 L376 325 L519 325 Q657 370 760 408 L789 420 L789 331 L777 327 Q621 270 377 196 L758 196 L680 261 L815 261 L920 175 L920 115 L551 115 L551 -96 L339 -96 L339 -6 L461 -6 L461 115 L82 115 L82 186 L113 196 Q107 193 316 259 L151 259 L151 310 L395 426 L49 426 L49 509 L455 509 L455 551 L82 551 L82 635 L455 635 L455 675 L74 675 L74 759 L455 759 L455 815 L546 815 L546 759 L927 759 L927 675 L546 675 L546 635 L918 635 L918 551 L546 551 L546 509 ZM221 73 L351 73 L194 -80 L65 -80 L221 73 ZM649 73 L779 73 L935 -80 L806 -80 L649 73 Z" /><glyph glyph-name="uni7EBF" unicode="&#x7ebf;" d="M864 802 L864 712 L774 712 L774 802 L864 802 ZM943 266 L943 164 L849 120 Q885 8 915 -75 L923 -100 L827 -100 L766 82 L415 -82 L415 20 L737 170 L686 329 L396 287 L396 378 L658 416 Q652 438 638 481 Q625 524 618 545 L396 518 L396 609 L591 633 Q581 664 567 712 L536 815 L631 815 L634 802 L682 644 L941 675 L941 584 L708 557 Q716 533 748 429 L941 457 L941 366 L777 342 Q800 267 820 208 L943 266 ZM44 -73 L44 17 L340 17 L340 -73 L44 -73 ZM218 479 L267 579 L361 579 L184 206 L338 206 L338 116 L44 116 L175 388 L34 388 L184 809 L280 809 L152 479 L218 479 Z" /><glyph glyph-name="uni7EC8" unicode="&#x7ec8;" d="M50 -89 L50 1 L339 1 L339 -89 L50 -89 ZM770 432 L963 338 L963 237 L672 380 L361 210 L361 310 L574 427 L407 510 L407 633 L497 633 L497 566 L671 480 L835 570 L835 666 L407 666 L407 813 L497 813 L497 757 L925 757 L925 516 L770 432 ZM488 271 L911 190 L911 96 L488 178 L488 271 ZM422 -3 L422 91 L942 -16 L942 -109 L422 -3 ZM363 592 Q349 556 341 538 Q244 303 192 186 L339 186 L339 95 L52 95 L164 346 L33 346 L52 406 Q118 609 173 792 L177 805 L272 805 L264 780 Q199 566 157 437 L202 437 L258 573 Q261 582 266 592 L363 592 Z" /><glyph glyph-name="uni7ECE" unicode="&#x7ece;" d="M45 -74 L45 16 L328 16 L328 -74 L45 -74 ZM251 579 L347 579 L177 205 L329 205 L329 115 L45 115 L165 388 L34 388 L167 809 L266 809 L150 478 L206 478 L251 579 ZM711 187 L711 92 L949 92 L949 2 L711 2 L711 -113 L620 -113 L620 2 L382 2 L382 92 L620 92 L620 187 L396 187 L396 278 L620 278 L620 362 L711 362 L711 278 L935 278 L935 187 L711 187 ZM771 502 L958 420 L958 317 L659 449 L373 311 L373 413 L549 497 L406 561 L406 661 L660 550 L839 636 L839 700 L403 700 L403 791 L929 791 L929 577 L771 502 Z" /><glyph glyph-name="uni7ED3" unicode="&#x7ed3;" d="M41 -73 L41 17 L326 17 L326 -73 L41 -73 ZM241 580 L337 580 L183 206 L326 206 L326 116 L46 116 L160 389 L34 389 L147 810 L245 810 L150 479 L198 479 L241 580 ZM393 -83 L393 285 L935 285 L935 -83 L809 -83 L845 8 L845 195 L483 195 L483 8 L809 8 L809 -83 L393 -83 ZM383 385 L383 475 L945 475 L945 385 L383 385 ZM709 721 L963 721 L963 631 L709 631 L709 516 L619 516 L619 631 L366 631 L366 721 L619 721 L619 809 L709 809 L709 721 Z" /><glyph glyph-name="uni7EDF" unicode="&#x7edf;" d="M951 731 L951 641 L365 641 L365 731 L613 731 L613 812 L703 812 L703 731 L951 731 ZM819 6 L951 6 L951 -85 L729 -85 L729 287 L819 287 L819 6 ZM385 -95 L474 287 L567 287 L478 -95 L385 -95 ZM45 -73 L45 17 L324 17 L324 -73 L45 -73 ZM215 479 L262 579 L358 579 L177 206 L322 206 L322 116 L45 116 L173 388 L34 388 L179 809 L277 809 L150 479 L215 479 ZM865 580 L940 331 L381 331 L463 613 L557 613 L502 422 L819 422 L770 580 L865 580 Z" /><glyph glyph-name="uni7EED" unicode="&#x7eed;" d="M45 -73 L45 17 L312 17 L312 -73 L45 -73 ZM243 579 L336 579 L176 206 L314 206 L314 116 L45 116 L162 388 L34 388 L163 809 L259 809 L150 479 L201 479 L243 579 ZM849 348 L849 501 L363 501 L363 591 L602 591 L602 659 L376 659 L376 749 L602 749 L602 813 L693 813 L693 749 L925 749 L925 659 L693 659 L693 591 L940 591 L940 348 L849 348 ZM955 130 L642 130 L460 -96 L341 -96 L525 130 L354 130 L354 220 L648 220 L721 455 L818 455 L744 220 L955 220 L955 130 ZM811 95 L960 -96 L840 -96 L692 95 L811 95 ZM517 262 L426 262 L355 425 L447 425 L517 262 ZM563 301 L492 463 L583 463 L654 301 L563 301 Z" /><glyph glyph-name="uni7FFB" unicode="&#x7ffb;" d="M474 796 L474 705 L72 705 L72 796 L474 796 ZM231 328 L231 476 L57 476 L57 567 L231 567 L231 682 L321 682 L321 567 L497 567 L497 476 L321 476 L321 328 L231 328 ZM76 -86 L76 305 L475 305 L475 -86 L353 -86 L388 4 L388 214 L162 214 L162 4 L353 4 L353 -86 L76 -86 ZM316 188 L316 153 L356 153 L356 67 L316 67 L316 31 L234 31 L234 67 L195 67 L195 153 L234 153 L234 188 L316 188 ZM198 452 L136 331 L41 331 L103 452 L198 452 ZM353 452 L448 452 L511 331 L416 331 L353 452 ZM727 795 L938 795 L938 -90 L765 -90 L765 1 L858 1 L858 704 L727 704 L727 795 ZM810 668 L841 367 L764 367 L732 668 L810 668 ZM810 35 L732 35 L764 336 L841 336 L810 35 ZM503 704 L503 795 L715 795 L715 -90 L542 -90 L542 1 L634 1 L634 704 L503 704 ZM619 367 L540 367 L509 668 L587 668 L619 367 ZM619 336 L587 35 L509 35 L540 336 L619 336 ZM115 590 L88 682 L176 682 L202 590 L115 590 ZM434 590 L347 590 L373 682 L461 682 L434 590 Z" /><glyph glyph-name="uni8005" unicode="&#x8005;" d="M300 92 L300 182 L757 182 L757 92 L300 92 ZM961 444 L545 444 L376 359 L884 359 L884 -84 L757 -84 L794 6 L794 268 L263 268 L263 6 L757 6 L757 -84 L172 -84 L172 257 L44 192 L44 292 L172 357 L172 359 L175 359 L344 444 L44 444 L44 534 L328 534 L328 634 L75 634 L75 724 L328 724 L328 824 L418 824 L418 724 L669 724 L669 634 L418 634 L418 534 L524 534 L942 744 L942 644 L724 534 L961 534 L961 444 Z" /><glyph glyph-name="uni804C" unicode="&#x804c;" d="M802 375 L802 285 L506 285 L506 791 L923 791 L923 285 L802 285 L833 375 L833 700 L596 700 L596 375 L802 375 ZM477 -93 L562 236 L656 236 L571 -93 L477 -93 ZM884 236 L968 -93 L874 -93 L790 236 L884 236 ZM37 701 L37 791 L465 791 L465 701 L414 701 L414 112 L463 112 L463 22 L414 22 L414 -102 L323 -102 L323 22 L284 22 L323 112 L323 701 L165 701 L165 565 L284 565 L284 475 L165 475 L165 338 L284 338 L284 248 L165 248 L165 112 L284 112 L284 22 L37 22 L37 112 L75 112 L75 701 L37 701 Z" /><glyph glyph-name="uni80B2" unicode="&#x80b2;" d="M765 275 L765 185 L235 185 L235 275 L765 275 ZM235 49 L235 139 L765 139 L765 49 L235 49 ZM111 -99 L111 408 L888 408 L888 -92 L570 -92 L570 -2 L797 -2 L797 318 L202 318 L202 -99 L111 -99 ZM333 676 L240 546 L761 546 L699 633 L810 633 L889 520 L889 455 L111 455 L111 521 L222 676 L39 676 L39 766 L452 766 L452 830 L547 830 L547 766 L961 766 L961 676 L333 676 Z" /><glyph glyph-name="uni80CC" unicode="&#x80cc;" d="M745 272 L745 182 L260 182 L260 272 L745 272 ZM260 41 L260 131 L745 131 L745 41 L260 41 ZM134 -97 L134 417 L878 417 L878 -98 L547 -98 L547 -8 L788 -8 L788 327 L225 327 L225 -97 L134 -97 ZM323 448 L323 654 L50 654 L50 745 L323 745 L323 812 L414 812 L414 448 L323 448 ZM670 812 L670 556 L951 556 L951 465 L580 465 L580 812 L670 812 ZM286 594 L286 504 L50 504 L50 594 L286 594 ZM706 734 L955 734 L955 644 L706 644 L706 734 Z" /><glyph glyph-name="uni80FD" unicode="&#x80fd;" d="M373 325 L373 235 L200 235 L200 325 L373 325 ZM200 78 L200 168 L373 168 L373 78 L200 78 ZM70 -90 L70 480 L502 480 L502 -87 L325 -87 L325 3 L412 3 L412 389 L160 389 L160 -90 L70 -90 ZM656 810 L656 468 L948 468 L948 378 L566 378 L566 810 L656 810 ZM691 686 L948 686 L948 596 L691 596 L691 686 ZM656 336 L656 7 L948 7 L948 -84 L566 -84 L566 336 L656 336 ZM691 136 L691 226 L948 226 L948 136 L691 136 ZM351 765 L450 765 L521 541 L52 541 L145 808 L244 808 L181 632 L392 632 L351 765 Z" /><glyph glyph-name="uni8111" unicode="&#x8111;" d="M721 746 L954 746 L954 656 L403 656 L403 746 L631 746 L631 814 L721 814 L721 746 ZM842 8 L842 605 L932 605 L932 -83 L421 -83 L421 605 L511 605 L511 8 L842 8 ZM748 632 L839 632 L723 330 L830 47 L738 47 L676 209 L614 47 L523 47 L631 327 L515 632 L608 632 L677 449 L748 632 ZM66 -86 L66 796 L365 796 L365 -87 L226 -87 L226 1 L274 1 L274 705 L157 705 L157 525 L248 525 L248 435 L157 435 L157 262 L248 262 L248 172 L157 172 L157 -86 L66 -86 Z" /><glyph glyph-name="uni81EA" unicode="&#x81ea;" d="M216 407 L216 497 L784 497 L784 407 L216 407 ZM216 160 L216 250 L784 250 L784 160 L216 160 ZM547 745 L911 745 L911 -87 L784 -87 L821 3 L821 655 L179 655 L179 3 L784 3 L784 -87 L89 -87 L89 745 L452 745 L452 830 L547 830 L547 745 Z" /><glyph glyph-name="uni83B7" unicode="&#x83b7;" d="M233 582 L233 652 L47 652 L47 742 L233 742 L233 806 L323 806 L323 742 L675 742 L675 806 L765 806 L765 742 L953 742 L953 652 L765 652 L765 582 L675 582 L675 652 L323 652 L323 582 L233 582 ZM900 432 L810 432 L810 544 L900 544 L900 432 ZM747 287 L959 -87 L854 -87 L670 246 L486 -87 L381 -87 L592 287 L405 287 L405 377 L625 377 L625 552 L715 552 L715 377 L949 377 L949 287 L747 287 ZM381 391 L320 361 L320 -84 L74 -84 L74 8 L229 8 L229 133 L50 43 L50 141 L229 232 L229 315 L50 225 L50 324 L229 414 L229 438 L63 476 L63 576 L320 507 L320 460 L381 491 L381 391 Z" /><glyph glyph-name="uni884C" unicode="&#x884c;" d="M932 788 L932 703 L401 703 L401 788 L932 788 ZM374 466 L960 466 L960 381 L374 381 L374 466 ZM762 1 L762 338 L853 338 L853 -88 L505 -88 L505 1 L762 1 ZM149 -99 L149 303 L239 303 L239 -99 L149 -99 ZM28 303 L194 556 L302 556 L137 303 L28 303 ZM28 555 L194 809 L302 809 L137 555 L28 555 Z" /><glyph glyph-name="uni8981" unicode="&#x8981;" d="M226 188 L226 151 L502 87 L869 172 L869 79 L703 41 L946 -15 L946 -108 L503 -6 L57 -108 L57 -15 L301 41 L136 80 L136 188 L44 188 L44 278 L136 278 L136 339 L226 339 L226 278 L955 278 L955 188 L226 188 ZM325 645 L325 700 L49 700 L49 789 L951 789 L951 700 L675 700 L675 645 L934 645 L934 364 L803 364 L844 453 L844 556 L675 556 L675 484 L585 484 L585 556 L415 556 L415 484 L325 484 L325 556 L156 556 L156 453 L803 453 L803 364 L66 364 L66 645 L325 645 ZM585 645 L585 700 L415 700 L415 645 L585 645 Z" /><glyph glyph-name="uni8BA9" unicode="&#x8ba9;" d="M641 463 L641 60 L550 60 L550 810 L641 810 L641 553 L948 553 L948 463 L641 463 ZM347 8 L966 8 L966 -83 L347 -83 L347 8 ZM211 528 L211 12 L300 12 L300 -78 L121 -78 L121 438 L31 438 L31 528 L211 528 ZM208 808 L208 585 L118 585 L118 808 L208 808 Z" /><glyph glyph-name="uni8BBA" unicode="&#x8bba;" d="M470 448 L470 6 L943 6 L943 -84 L380 -84 L380 448 L470 448 ZM510 272 L934 379 L934 286 L510 179 L510 272 ZM632 816 L956 569 L956 458 L632 705 L308 458 L308 569 L632 816 ZM223 521 L223 5 L301 5 L301 -85 L133 -85 L133 431 L30 431 L30 521 L223 521 ZM219 808 L219 585 L129 585 L129 808 L219 808 Z" /><glyph glyph-name="uni8BC4" unicode="&#x8bc4;" d="M961 242 L961 152 L667 152 L667 -115 L577 -115 L577 152 L286 152 L286 242 L577 242 L577 654 L667 654 L667 242 L961 242 ZM950 791 L950 700 L294 700 L294 791 L950 791 ZM387 297 L315 646 L408 646 L479 297 L387 297 ZM857 297 L765 297 L836 646 L928 646 L857 297 ZM200 520 L200 4 L277 4 L277 -86 L109 -86 L109 430 L30 430 L30 520 L200 520 ZM196 807 L196 584 L106 584 L106 807 L196 807 Z" /><glyph glyph-name="uni8D5B" unicode="&#x8d5b;" d="M545 170 L545 86 L929 -9 L929 -102 L500 5 L71 -102 L71 -9 L454 86 L454 170 L545 170 ZM141 693 L141 593 L51 593 L51 780 L452 780 L452 823 L547 823 L547 780 L949 780 L949 593 L859 593 L859 693 L141 693 ZM858 342 L959 294 L959 201 L835 261 L835 65 L745 65 L745 200 L255 200 L255 65 L165 65 L165 262 L39 201 L39 294 L140 342 L46 342 L46 422 L293 422 L293 454 L104 454 L104 532 L293 532 L293 563 L176 563 L176 641 L293 641 L293 674 L383 674 L383 641 L617 641 L617 674 L707 674 L707 641 L822 641 L822 563 L707 563 L707 532 L894 532 L894 454 L707 454 L707 422 L952 422 L952 342 L858 342 ZM383 563 L383 532 L617 532 L617 563 L383 563 ZM225 291 L774 291 L666 342 L588 342 L617 422 L617 454 L383 454 L383 422 L588 422 L588 342 L332 342 L225 291 Z" /><glyph glyph-name="uni8D77" unicode="&#x8d77;" d="M492 508 L492 418 L47 418 L47 508 L224 508 L224 615 L65 615 L65 706 L224 706 L224 812 L314 812 L314 706 L474 706 L474 615 L314 615 L314 508 L492 508 ZM459 6 L953 6 L953 -85 L436 -85 L148 55 L127 -97 L37 -97 L100 356 L190 356 L162 151 L262 101 L262 371 L352 371 L352 268 L485 268 L485 177 L352 177 L352 58 L459 6 ZM842 507 L842 696 L535 696 L535 786 L932 786 L932 417 L637 417 L637 208 L949 208 L949 118 L547 118 L547 507 L842 507 Z" /><glyph glyph-name="uni8D85" unicode="&#x8d85;" d="M463 463 L463 378 L42 378 L42 463 L463 463 ZM214 498 L214 624 L60 624 L60 709 L214 709 L214 810 L299 810 L299 709 L445 709 L445 624 L299 624 L299 498 L214 498 ZM690 668 L608 407 L517 407 L599 668 L690 668 ZM412 3 L955 3 L955 -83 L388 -83 L152 54 L132 -99 L47 -99 L99 303 L185 303 L165 146 L261 90 L261 343 L346 343 L346 240 L453 240 L453 155 L346 155 L346 41 L412 3 ZM843 502 L843 705 L508 705 L508 790 L928 790 L928 417 L724 417 L744 502 L843 502 ZM807 145 L807 60 L519 60 L519 361 L928 361 L928 60 L807 60 L843 145 L843 275 L604 275 L604 145 L807 145 Z" /><glyph glyph-name="uni8D8A" unicode="&#x8d8a;" d="M667 155 L667 64 L499 64 L499 679 L722 679 L699 811 L789 811 L813 679 L953 679 L953 589 L830 589 L870 367 L956 407 L956 306 L888 274 L927 60 L836 60 L804 236 L694 185 L694 287 L787 329 L739 589 L589 589 L589 155 L667 155 ZM930 791 L930 711 L840 711 L840 791 L930 791 ZM454 461 L454 376 L44 376 L44 461 L454 461 ZM206 496 L206 615 L61 615 L61 701 L206 701 L206 808 L292 808 L292 701 L437 701 L437 615 L292 615 L292 496 L206 496 ZM413 1 L957 1 L957 -85 L390 -85 L153 52 L134 -101 L49 -101 L101 301 L187 301 L166 144 L250 95 L250 341 L336 341 L336 238 L446 238 L446 153 L336 153 L336 45 L413 1 Z" /><glyph glyph-name="uni8FD9" unicode="&#x8fd9;" d="M948 44 L612 207 L265 30 L265 138 L507 259 L321 348 L321 608 L412 608 L412 406 L610 311 L798 406 L798 652 L272 652 L272 742 L567 742 L567 810 L658 810 L658 742 L953 742 L953 652 L889 652 L889 349 L717 260 L948 149 L948 44 ZM199 6 L959 6 L959 -84 L40 -84 L40 6 L109 6 L109 447 L40 447 L40 537 L199 537 L199 6 ZM199 812 L199 601 L109 601 L109 812 L199 812 Z" /><glyph glyph-name="uni8FDB" unicode="&#x8fdb;" d="M400 81 L400 319 L271 319 L271 409 L400 409 L400 622 L297 622 L297 712 L400 712 L400 813 L490 813 L490 712 L739 712 L739 813 L829 813 L829 712 L936 712 L936 622 L829 622 L829 409 L955 409 L955 319 L829 319 L829 81 L739 81 L739 319 L709 319 L739 409 L739 622 L490 622 L490 409 L709 409 L709 319 L490 319 L490 81 L400 81 ZM196 11 L959 11 L959 -80 L35 -80 L35 11 L106 11 L106 447 L35 447 L35 537 L196 537 L196 11 ZM187 813 L187 602 L97 602 L97 813 L187 813 Z" /><glyph glyph-name="uni9001" unicode="&#x9001;" d="M301 153 Q434 247 560 342 L289 342 L289 432 L575 432 L575 563 L307 563 L307 653 L414 653 L361 806 L456 806 L509 653 L740 653 L794 806 L889 806 L836 653 L933 653 L933 563 L665 563 L665 432 L951 432 L951 342 L680 342 L946 147 L946 39 L916 61 Q759 170 621 277 Q487 175 324 61 L294 39 L294 147 L301 153 ZM215 6 L959 6 L959 -84 L40 -84 L40 6 L125 6 L125 447 L40 447 L40 537 L215 537 L215 6 ZM215 812 L215 601 L125 601 L125 812 L215 812 Z" /><glyph glyph-name="uni90FD" unicode="&#x90fd;" d="M224 94 L224 185 L419 185 L419 94 L224 94 ZM287 527 L292 527 L580 752 L580 642 L428 527 L580 527 L580 436 L328 436 L225 359 L545 359 L545 -79 L419 -79 L455 11 L455 269 L187 269 L187 11 L419 11 L419 -79 L97 -79 L97 263 L36 218 L36 327 L181 436 L44 436 L44 527 L196 527 L196 638 L66 638 L66 728 L196 728 L196 803 L287 803 L287 728 L413 728 L413 638 L287 638 L287 527 ZM939 791 L939 452 L885 352 L939 352 L939 -28 L782 -28 L782 65 L846 65 L846 352 L787 352 L846 476 L846 698 L726 698 L726 -105 L633 -105 L633 791 L939 791 Z" /><glyph glyph-name="uni9177" unicode="&#x9177;" d="M528 -82 L528 284 L924 284 L924 -82 L801 -82 L834 8 L834 194 L618 194 L618 8 L801 8 L801 -82 L528 -82 ZM704 484 L704 615 L525 615 L525 792 L615 792 L615 705 L704 705 L704 812 L795 812 L795 705 L945 705 L945 615 L795 615 L795 484 L704 484 ZM507 448 L956 448 L956 357 L507 357 L507 448 ZM54 701 L54 792 L476 792 L476 701 L372 701 L372 614 L470 614 L470 -80 L356 -80 L384 11 L384 223 L283 223 L283 524 L254 524 L254 223 L180 223 L180 524 L151 524 L151 11 L356 11 L356 -80 L65 -80 L65 614 L165 614 L165 701 L54 701 ZM384 314 L384 524 L357 524 L357 314 L384 314 ZM282 614 L282 701 L255 701 L255 614 L282 614 ZM182 73 L182 164 L356 164 L356 73 L182 73 Z" /><glyph glyph-name="uni91CC" unicode="&#x91cc;" d="M454 37 L454 124 L84 124 L84 214 L454 214 L454 307 L103 307 L103 795 L897 795 L897 307 L771 307 L807 398 L807 705 L193 705 L193 398 L454 398 L454 497 L235 497 L235 587 L454 587 L454 676 L545 676 L545 587 L765 587 L765 497 L545 497 L545 398 L771 398 L771 307 L545 307 L545 214 L916 214 L916 124 L545 124 L545 37 L454 37 ZM42 4 L958 4 L958 -86 L42 -86 L42 4 Z" /><glyph glyph-name="uni91D1" unicode="&#x91d1;" d="M545 236 L545 6 L955 6 L955 -84 L45 -84 L45 6 L454 6 L454 236 L88 236 L88 326 L454 326 L454 422 L140 422 L140 513 L860 513 L860 422 L545 422 L545 326 L912 326 L912 236 L545 236 ZM228 198 L292 44 L200 44 L135 198 L228 198 ZM806 44 L713 44 L777 198 L870 198 L806 44 ZM500 830 L959 580 L959 479 L500 728 L42 479 L42 580 L500 830 Z" /><glyph glyph-name="uniFF01" unicode="&#xff01;" d="M288 115 L288 793 L393 793 L393 115 L288 115 ZM285 -74 L285 75 L395 75 L395 -74 L285 -74 Z" /><glyph glyph-name="uniFF0C" unicode="&#xff0c;" d="M390 67 L390 -31 L361 -108 L280 -108 L299 -61 L257 -61 L257 67 L390 67 Z" /><glyph glyph-name="uni9F84" unicode="&#x9f84;" d="M336 544 L494 544 L494 453 L48 453 L48 544 L98 544 L98 776 L188 776 L188 544 L246 544 L246 816 L336 816 L336 739 L473 739 L473 649 L336 649 L336 544 ZM315 406 L315 260 L372 39 L300 39 L274 153 L250 39 L178 39 L235 260 L235 406 L315 406 ZM353 7 L353 -83 L78 -83 L78 406 L168 406 L168 7 L353 7 ZM382 406 L472 406 L472 -83 L353 -83 L382 7 L382 406 ZM568 305 L948 305 L853 -86 L608 -86 L608 4 L787 4 L835 215 L568 215 L568 305 ZM779 515 L779 351 L689 351 L689 515 L779 515 ZM786 809 L973 395 L869 395 L738 698 L599 395 L494 395 L695 809 L786 809 Z" /><glyph glyph-name="uni98CE" unicode="&#x98ce;" d="M908 2 L967 2 L967 -93 L813 -93 L813 697 L187 697 L187 -93 L92 -93 L92 792 L908 792 L908 2 ZM779 632 L558 333 L790 18 L673 18 L500 254 L326 18 L211 18 L443 331 L219 632 L337 632 L501 410 L665 632 L779 632 Z" /><glyph glyph-name="uni9898" unicode="&#x9898;" d="M686 498 L776 498 L776 290 L947 42 L835 42 L731 201 L626 42 L515 42 L686 290 L686 498 ZM510 791 L951 791 L951 700 L776 700 L776 637 L936 637 L936 247 L845 247 L845 546 L617 546 L617 247 L526 247 L526 637 L686 637 L686 700 L510 700 L510 791 ZM335 512 L335 422 L76 422 L76 793 L465 793 L465 422 L335 422 L375 512 L375 702 L166 702 L166 512 L335 512 ZM207 562 L207 652 L335 652 L335 562 L207 562 ZM487 367 L487 277 L39 277 L39 367 L487 367 ZM354 91 L354 4 L951 4 L951 -86 L298 -86 L154 17 L130 -100 L37 -100 L103 221 L196 221 L174 113 L264 50 L264 248 L354 248 L354 182 L473 182 L473 91 L354 91 Z" /><glyph glyph-name="uni9876" unicode="&#x9876;" d="M396 791 L396 700 L41 700 L41 791 L396 791 ZM191 12 L191 648 L282 648 L282 -79 L81 -79 L81 12 L191 12 ZM633 611 L633 700 L416 700 L416 791 L940 791 L940 700 L723 700 L723 611 L927 611 L927 128 L836 128 L836 521 L519 521 L519 128 L429 128 L429 611 L633 611 ZM723 130 L966 -97 L828 -97 L678 56 L528 -97 L390 -97 L633 130 L633 465 L723 465 L723 130 Z" /><glyph glyph-name="uni9762" unicode="&#x9762;" d="M953 703 L545 703 L545 597 L928 597 L928 -86 L797 -86 L838 4 L838 507 L688 507 L688 4 L797 4 L797 -86 L72 -86 L72 597 L454 597 L454 703 L47 703 L47 793 L953 793 L953 703 ZM162 507 L162 4 L312 4 L312 507 L162 507 ZM598 4 L598 507 L402 507 L402 397 L557 397 L557 308 L402 308 L402 205 L557 205 L557 117 L402 117 L402 4 L598 4 Z" /><glyph glyph-name="uni96C6" unicode="&#x96c6;" d="M544 202 L954 202 L954 111 L544 111 L544 -117 L454 -117 L454 111 L46 111 L46 202 L454 202 L454 237 L544 237 L544 202 ZM55 -96 L55 -5 L386 83 L386 -7 L55 -96 ZM612 -7 L612 83 L942 -5 L942 -96 L612 -7 ZM149 546 L132 499 L34 499 L147 807 L245 807 L224 752 L500 752 L500 811 L590 811 L590 752 L918 752 L918 664 L590 664 L590 617 L908 617 L908 530 L590 530 L590 482 L908 482 L908 395 L590 395 L590 348 L926 348 L926 261 L467 261 L500 348 L500 395 L239 395 L239 348 L467 348 L467 261 L149 261 L149 546 ZM500 482 L500 530 L239 530 L239 482 L500 482 ZM500 617 L500 664 L239 664 L239 617 L500 617 Z" /><glyph glyph-name="uni957F" unicode="&#x957f;" d="M293 447 L958 447 L958 356 L293 356 L293 0 L498 0 L498 -90 L203 -90 L203 356 L39 356 L39 447 L203 447 L203 813 L293 813 L293 447 ZM710 306 L963 -86 L860 -86 L606 306 L710 306 ZM926 810 L691 496 L586 496 L822 810 L926 810 Z" /><glyph glyph-name="uni953B" unicode="&#x953b;" d="M601 584 L601 493 L472 493 L472 584 L601 584 ZM472 282 L472 373 L601 373 L601 282 L472 282 ZM612 72 L435 72 L435 -99 L344 -99 L344 72 L312 72 L312 162 L344 162 L344 794 L601 794 L601 704 L435 704 L435 162 L612 162 L612 72 ZM728 704 L728 505 L639 505 L639 794 L916 794 L916 597 L962 597 L953 507 L826 507 L826 704 L728 704 ZM965 -94 L854 -94 L787 0 L723 -94 L610 -94 L731 81 L642 207 L642 340 L732 340 L732 237 L786 160 L838 237 L838 380 L639 380 L639 471 L929 471 L929 207 L842 80 L965 -94 ZM145 794 L145 687 L285 687 L285 597 L55 597 L55 794 L145 794 ZM45 406 L45 496 L285 496 L285 406 L45 406 ZM213 370 L213 256 L285 256 L285 166 L213 166 L213 9 L278 9 L278 -81 L123 -81 L123 166 L45 166 L45 256 L123 256 L123 370 L213 370 Z" /><glyph glyph-name="uniFF08" unicode="&#xff08;" d="M642 353 Q642 92 804 -65 L838 -97 L704 -97 L699 -91 Q640 -20 602 71 Q547 202 547 353 Q547 503 602 634 Q640 727 701 799 L706 805 L841 805 L807 772 Q642 618 642 353 Z" /><glyph glyph-name="uniFF09" unicode="&#xff09;" d="M342 353 Q342 618 177 772 L143 805 L278 805 L283 799 Q345 727 382 634 Q437 503 437 353 Q437 202 382 71 Q344 -20 285 -91 L280 -97 L146 -97 L180 -65 Q342 92 342 353 Z" /></font>
</defs>
</svg>
