<?xml version="1.0" standalone="no"?><!DOCTYPE svg PUBLIC "-//W3C//DTD SVG 1.1//EN" "http://www.w3.org/Graphics/SVG/1.1/DTD/svg11.dtd" ><svg xmlns="http://www.w3.org/2000/svg"><metadata></metadata><defs><font id="fonteditor" horiz-adv-x="285"><font-face font-family="e¹kcQpN­~¤Ñ{OS" font-weight="400" font-stretch="normal" units-per-em="256" panose-1="2 0 0 0 0 0 0 0 0 0" ascent="229" descent="-67" x-height="0" bbox="0 -66 266 218" underline-thickness="0" underline-position="0" unicode-range="U+0028-ff1b" /><missing-glyph horiz-adv-x="256"  /><glyph glyph-name="parenleft" unicode="(" d="M83 -66 L71 -66 Q19 -19 17 63 Q19 146 71 195 L83 195 Q30 139 32 63 Q31 -11 83 -66 Z" /><glyph glyph-name="parenright" unicode=")" d="M10 -66 L23 -66 Q74 -20 76 63 Q74 147 23 195 L10 195 Q63 138 62 63 Q64 -10 10 -66 Z" /><glyph glyph-name="comma" unicode="," d="M50 16 L50 -4 Q51 -37 26 -55 L19 -49 Q40 -33 39 -8 L25 -8 L25 16 L50 16 Z" /><glyph glyph-name="period" unicode="." d="M49 -8 L49 16 L25 16 L25 -8 L49 -8 Z" /><glyph glyph-name="slash" unicode="/" d="M0 -12 L12 -12 L76 194 L63 194 L0 -12 Z" /><glyph glyph-name="zero" unicode="0" d="M78 0 Q129 -1 128 89 Q129 181 77 180 Q29 178 28 89 Q28 0 78 0 ZM78 193 Q144 193 144 89 Q143 -10 79 -12 Q13 -10 12 89 Q14 190 78 193 Z" /><glyph glyph-name="one" unicode="1" d="M90 -9 L105 -9 L105 193 L94 193 Q82 160 31 135 L31 121 Q77 142 90 164 L90 -9 Z" /><glyph glyph-name="two" unicode="2" d="M140 -9 L140 2 L27 2 Q44 36 87 67 Q144 107 139 140 Q136 191 80 193 Q30 194 13 146 L27 138 Q38 179 75 180 Q122 179 123 137 Q127 112 75 75 Q30 44 9 0 L9 -9 L140 -9 Z" /><glyph glyph-name="three" unicode="3" d="M99 96 Q133 106 135 141 Q133 192 76 193 Q25 193 14 143 L29 138 Q35 181 77 180 Q119 180 119 141 Q118 100 67 100 L56 100 L56 88 L74 88 Q126 88 127 48 Q126 1 75 0 Q32 0 25 44 L10 40 Q21 -11 77 -12 Q140 -9 143 46 Q141 87 99 96 Z" /><glyph glyph-name="four" unicode="4" d="M21 52 L102 52 L102 171 Q102 168 98 162 L21 52 ZM144 39 L116 39 L116 -10 L102 -10 L102 39 L4 39 L4 48 L105 193 L116 193 L116 52 L144 52 L144 39 Z" /><glyph glyph-name="five" unicode="5" d="M35 102 L43 176 L134 176 L134 189 L31 189 L19 85 L29 83 Q45 110 78 110 Q127 108 129 56 Q127 2 77 0 Q32 0 25 45 L11 41 Q23 -12 79 -12 Q142 -9 144 58 Q140 120 82 123 Q52 123 35 102 Z" /><glyph glyph-name="six" unicode="6" d="M26 61 Q28 2 79 0 Q127 1 129 54 Q127 106 81 108 Q30 105 26 61 ZM140 148 L126 143 Q117 181 82 180 Q25 180 25 87 Q43 121 84 121 Q140 117 144 55 Q140 -8 81 -12 Q10 -13 11 82 Q11 193 83 193 Q127 191 140 148 Z" /><glyph glyph-name="seven" unicode="7" d="M143 180 L143 189 L13 189 L13 176 L125 176 Q59 76 47 -10 L63 -10 Q74 80 143 180 Z" /><glyph glyph-name="eight" unicode="8" d="M79 89 Q30 88 28 43 Q30 0 80 0 Q130 1 132 41 Q129 87 79 89 ZM79 181 Q38 179 36 140 Q37 100 80 99 Q121 101 123 140 Q121 179 79 181 ZM52 94 Q22 108 20 139 Q24 189 79 193 Q133 189 139 139 Q137 106 108 94 Q144 82 147 41 Q145 -10 80 -12 Q14 -10 12 43 Q16 84 52 94 Z" /><glyph glyph-name="nine" unicode="9" d="M130 117 Q128 178 77 180 Q28 179 27 125 Q29 72 74 70 Q125 73 130 117 ZM16 31 L29 36 Q40 -1 74 0 Q131 0 131 92 Q113 58 71 58 Q16 62 12 124 Q16 189 75 193 Q145 194 145 96 Q145 -12 72 -12 Q28 -10 16 31 Z" /><glyph glyph-name="at" unicode="@" d="M143 124 Q91 121 89 56 Q89 11 124 11 Q164 15 176 64 Q178 76 178 84 Q179 121 143 124 ZM185 134 L199 134 Q189 63 187 47 Q180 7 204 11 Q247 17 251 81 Q247 177 143 181 Q37 172 29 65 Q34 -41 144 -46 Q205 -46 241 -12 L247 -20 Q203 -61 142 -59 Q18 -54 13 64 Q22 186 144 194 Q260 190 266 83 Q262 5 200 0 Q168 1 173 38 Q160 0 119 0 Q74 1 73 58 Q78 132 143 137 Q174 136 182 110 Q184 122 185 134 Z" /><glyph glyph-name="C" unicode="c" d="M174 58 L191 53 Q175 -11 104 -12 Q18 -6 14 88 Q19 188 107 193 Q165 191 187 135 L170 131 Q153 177 105 179 Q35 173 30 90 Q34 6 103 0 Q161 0 174 58 Z" /><glyph glyph-name="D" unicode="d" d="M93 177 L37 177 L37 2 L92 2 Q172 2 172 90 Q170 174 93 177 ZM92 -9 L21 -9 L21 190 L94 190 Q184 187 187 90 Q189 -11 92 -9 Z" /><glyph glyph-name="G" unicode="g" d="M114 94 L199 94 L199 21 Q176 -11 114 -12 Q19 -7 15 89 Q19 188 110 193 Q178 192 199 135 L182 130 Q167 179 109 179 Q35 174 31 89 Q35 6 112 0 Q165 1 184 27 L184 81 L114 81 L114 94 Z" /><glyph glyph-name="J" unicode="j" d="M119 49 L119 190 L104 190 L104 48 Q105 -1 65 0 Q24 -1 24 48 L9 45 Q13 -13 64 -12 Q121 -14 119 49 Z" /><glyph glyph-name="M" unicode="m" d="M188 190 L214 190 L214 -10 L199 -10 L199 178 L197 178 L124 -9 L111 -9 L38 178 L36 178 L36 -10 L22 -10 L22 190 L47 190 L118 7 L188 190 Z" /><glyph glyph-name="P" unicode="p" d="M102 177 L37 177 L37 85 L102 85 Q158 85 158 133 Q155 175 102 177 ZM106 71 L37 71 L37 -9 L22 -9 L22 190 L108 190 Q169 186 175 132 Q173 73 106 71 Z" /><glyph glyph-name="Q" unicode="q" d="M106 1 Q185 4 187 90 Q182 173 108 180 Q32 174 27 90 Q31 6 106 1 ZM130 -8 L176 -54 L159 -60 L113 -11 Q110 -11 106 -11 Q15 -6 11 89 Q15 189 109 193 Q198 186 204 90 Q202 8 130 -8 Z" /><glyph glyph-name="c" unicode="c" d="M120 92 L135 96 Q122 138 75 140 Q14 137 11 63 Q12 -10 76 -12 Q128 -13 137 37 L122 41 Q117 1 77 0 Q28 2 27 63 Q28 126 77 127 Q110 125 120 92 Z" /><glyph glyph-name="d" unicode="d" d="M121 55 L121 78 Q116 120 73 128 Q26 126 24 62 Q24 0 73 0 Q119 1 121 55 ZM135 -9 L121 -9 L121 19 Q106 -12 67 -12 Q12 -9 10 62 Q12 137 70 140 Q105 139 121 108 L121 191 L135 191 L135 -9 Z" /><glyph glyph-name="m" unicode="m" d="M215 84 L215 -9 L200 -9 L200 82 Q201 130 165 128 Q129 126 123 81 L123 -9 L109 -9 L109 82 Q110 130 74 128 Q35 127 33 80 L33 -9 L18 -9 L18 137 L33 137 L33 108 Q44 139 77 140 Q116 140 122 104 Q132 139 168 140 Q216 141 215 84 Z" /><glyph glyph-name="o" unicode="o" d="M78 127 Q26 125 25 61 Q27 2 78 -1 Q128 0 130 62 Q127 123 78 127 ZM77 -12 Q12 -8 9 61 Q12 138 80 140 Q142 137 145 63 Q144 -11 77 -12 Z" /><glyph glyph-name="q" unicode="q" d="M121 54 L121 77 Q117 123 76 127 Q25 125 24 61 Q24 0 72 0 Q119 1 121 54 ZM135 -60 L121 -60 L121 17 Q107 -12 66 -12 Q12 -10 10 62 Q13 137 72 140 Q107 140 121 109 L121 136 L135 136 L135 -60 Z" /><glyph glyph-name="quotedblleft" unicode="&#x201c;" d="M159 142 L159 164 Q159 199 184 216 L190 210 Q169 193 170 168 L184 168 L184 142 L159 142 ZM198 142 L198 164 Q198 199 223 216 L229 210 Q208 193 209 168 L223 168 L223 142 L198 142 Z" /><glyph glyph-name="quotedblright" unicode="&#x201d;" d="M59 214 L59 192 Q60 156 35 140 L28 146 Q50 161 49 187 L35 187 L35 214 L59 214 ZM99 214 L99 192 Q100 157 74 140 L68 146 Q89 162 88 187 L74 187 L74 214 L99 214 Z" /><glyph glyph-name="uni2460" unicode="&#x2460;" d="M128 218 Q242 207 253 93 Q242 -18 128 -29 Q14 -18 3 93 Q14 207 128 218 ZM139 178 L139 8 L117 8 L117 129 L78 129 L78 146 Q118 145 123 178 L139 178 ZM128 212 Q19 202 9 93 Q19 -13 128 -23 Q237 -13 247 93 Q237 202 128 212 Z" /><glyph glyph-name="uni2461" unicode="&#x2461;" d="M128 218 Q242 207 253 93 Q242 -18 128 -29 Q14 -18 3 93 Q14 207 128 218 ZM95 118 L73 118 Q74 177 133 178 Q184 175 187 128 Q189 93 141 71 L123 61 Q96 46 93 28 L187 28 L187 8 L69 8 Q70 55 109 76 L132 89 Q166 104 164 129 Q161 158 130 159 Q96 159 95 118 ZM128 212 Q19 202 9 93 Q19 -13 128 -23 Q237 -13 247 93 Q237 202 128 212 Z" /><glyph glyph-name="uni2462" unicode="&#x2462;" d="M128 218 Q242 207 253 93 Q242 -18 128 -29 Q14 -18 3 93 Q14 207 128 218 ZM115 89 L115 108 Q121 107 126 107 Q158 108 159 135 Q157 161 127 162 Q95 162 93 125 L72 125 Q74 180 128 181 Q178 179 181 136 Q181 110 159 101 Q188 91 188 61 Q185 8 126 6 Q106 6 94 14 Q71 25 68 63 L90 63 Q91 26 127 26 Q163 28 165 58 Q165 89 125 89 Q119 89 115 89 ZM128 212 Q19 202 9 93 Q19 -13 128 -23 Q237 -13 247 93 Q237 202 128 212 Z" /><glyph glyph-name="uni3001" unicode="&#x3001;" d="M39 37 L49 46 L99 -10 L88 -19 L39 37 Z" /><glyph glyph-name="uni3002" unicode="&#x3002;" d="M53 13 Q55 -8 78 -10 Q100 -8 102 13 Q100 35 78 37 Q55 35 53 13 ZM44 13 Q47 44 78 47 Q109 44 112 13 Q109 -16 78 -19 Q47 -16 44 13 Z" /><glyph glyph-name="uni4E00" unicode="&#x4e00;" d="M7 104 L249 104 L249 89 L7 89 L7 104 Z" /><glyph glyph-name="uni4E09" unicode="&#x4e09;" d="M26 184 L230 184 L230 170 L26 170 L26 184 ZM10 3 L246 3 L246 -9 L10 -9 L10 3 ZM37 98 L218 98 L218 84 L37 84 L37 98 Z" /><glyph glyph-name="uni4E0A" unicode="&#x4e0a;" d="M109 206 L123 206 L123 130 L227 130 L227 116 L123 116 L123 0 L247 0 L247 -14 L9 -14 L9 0 L109 0 L109 206 Z" /><glyph glyph-name="uni4E0B" unicode="&#x4e0b;" d="M9 190 L247 190 L247 176 L124 176 L124 -27 L109 -27 L109 176 L9 176 L9 190 ZM221 57 Q174 86 129 110 L137 123 Q144 119 157 112 Q206 87 231 72 L221 57 Z" /><glyph glyph-name="uni4E0D" unicode="&#x4e0d;" d="M14 189 L245 189 L245 175 L153 175 Q102 94 17 37 Q11 43 7 49 Q95 107 135 175 L14 175 L14 189 ZM120 126 L134 126 L134 -30 L120 -30 L120 126 ZM238 44 Q176 87 153 100 L162 111 Q168 107 180 99 Q228 69 247 56 L238 44 Z" /><glyph glyph-name="uni4E0E" unicode="&#x4e0e;" d="M47 97 L59 210 L73 210 L69 170 L248 170 L248 157 L68 157 L63 111 L230 111 Q226 44 223 15 Q221 -24 172 -24 Q140 -24 119 -24 Q119 -21 118 -16 Q117 -11 116 -8 Q139 -10 170 -10 Q206 -11 209 17 Q210 25 211 42 Q214 79 215 97 L47 97 ZM7 53 L186 53 L186 40 L7 40 L7 53 Z" /><glyph glyph-name="uni4E13" unicode="&#x4e13;" d="M56 62 L56 76 Q64 89 72 111 L9 111 L9 124 L78 124 Q81 132 88 150 Q91 159 93 163 L24 163 L24 176 L98 176 Q104 189 110 211 L124 208 Q119 193 113 176 L233 176 L233 163 L108 163 Q106 159 103 150 Q96 132 93 124 L249 124 L249 111 L87 111 Q79 90 71 75 L219 75 L219 60 L151 0 Q158 -2 171 -9 Q184 -15 190 -18 L182 -30 Q114 3 54 30 L61 41 Q64 40 71 37 Q113 18 138 5 L201 62 L56 62 Z" /><glyph glyph-name="uni4E14" unicode="&#x4e14;" d="M7 -3 L45 -3 L45 195 L211 195 L211 -3 L249 -3 L249 -16 L7 -16 L7 -3 ZM59 50 L59 -3 L197 -3 L197 50 L59 50 ZM59 183 L59 128 L197 128 L197 183 L59 183 ZM59 116 L59 62 L197 62 L197 116 L59 116 Z" /><glyph glyph-name="uni4E1A" unicode="&#x4e1a;" d="M153 206 L166 206 L166 0 L249 0 L249 -13 L7 -13 L7 0 L89 0 L89 206 L102 206 L102 0 L153 0 L153 206 ZM196 53 L183 59 Q199 89 225 156 L238 151 Q219 102 196 53 ZM56 54 Q39 103 19 151 L32 156 Q41 133 61 82 Q67 65 70 58 L56 54 Z" /><glyph glyph-name="uni4E2A" unicode="&#x4e2a;" d="M238 93 Q166 131 130 185 Q88 126 17 88 Q10 97 7 100 Q91 145 129 209 L143 206 L137 196 Q178 139 248 105 Q247 103 243 99 Q239 95 238 93 ZM121 119 L135 119 L135 -29 L121 -29 L121 119 Z" /><glyph glyph-name="uni4E2D" unicode="&#x4e2d;" d="M23 156 L121 156 L121 211 L135 211 L135 156 L233 156 L233 47 L219 47 L219 61 L135 61 L135 -31 L121 -31 L121 61 L37 61 L37 47 L23 47 L23 156 ZM219 143 L135 143 L135 74 L219 74 L219 143 ZM37 143 L37 74 L121 74 L121 143 L37 143 Z" /><glyph glyph-name="uni4E3A" unicode="&#x4e3a;" d="M116 210 L130 210 Q130 174 126 144 L233 144 Q233 97 229 25 Q228 -24 182 -23 Q150 -24 138 -24 Q137 -15 134 -7 Q138 -7 152 -7 Q172 -8 180 -8 Q215 -11 215 25 Q217 50 219 124 Q219 121 219 130 L125 130 Q116 25 24 -31 Q23 -29 19 -25 Q15 -20 13 -18 Q105 36 111 130 L17 130 L17 144 L112 144 Q116 174 116 210 ZM136 83 L147 91 Q156 83 175 64 Q183 55 187 51 L175 41 Q156 64 136 83 ZM36 196 L47 205 Q48 204 50 202 Q66 188 84 170 L73 159 Q55 178 36 196 Z" /><glyph glyph-name="uni4E3B" unicode="&#x4e3b;" d="M19 164 L236 164 L236 151 L135 151 L135 85 L227 85 L227 72 L135 72 L135 -1 L247 -1 L247 -14 L8 -14 L8 -1 L121 -1 L121 72 L29 72 L29 85 L121 85 L121 151 L19 151 L19 164 ZM113 205 L126 210 Q141 180 144 173 L130 168 Q127 177 113 205 Z" /><glyph glyph-name="uni4E3E" unicode="&#x4e3e;" d="M65 81 L121 81 L121 120 L135 120 L135 81 L191 81 L191 69 L135 69 L135 33 L237 33 L237 20 L135 20 L135 -30 L121 -30 L121 20 L19 20 L19 33 L121 33 L121 69 L65 69 L65 81 ZM240 63 Q181 89 157 137 L98 137 Q77 92 16 59 Q15 60 13 63 Q12 66 6 72 Q60 95 83 137 L10 137 L10 149 L246 149 L246 137 L171 137 Q196 96 249 76 Q245 71 240 63 ZM183 156 L172 164 Q190 187 204 210 L216 203 Q203 182 183 156 ZM104 204 L115 210 Q122 202 134 185 Q140 176 143 171 L130 164 Q119 183 104 204 ZM36 197 L47 205 Q55 196 70 178 Q75 172 77 169 L65 161 Q57 172 41 191 Q38 195 36 197 Z" /><glyph glyph-name="uni4E45" unicode="&#x4e45;" d="M236 -27 Q169 12 141 76 Q103 15 19 -28 Q14 -22 8 -15 Q133 45 162 160 L80 160 Q64 127 35 94 Q29 100 23 105 Q66 150 86 208 L100 204 Q94 188 87 173 L177 173 L177 158 Q167 121 149 89 Q179 20 248 -12 Q242 -20 236 -27 Z" /><glyph glyph-name="uni4E4B" unicode="&#x4e4b;" d="M24 163 L224 163 L224 148 Q154 75 67 23 Q67 22 68 22 Q90 -2 137 -3 Q187 -6 249 -3 Q248 -7 245 -15 Q244 -17 244 -18 Q198 -18 178 -18 Q154 -18 136 -17 Q80 -16 54 15 Q50 19 43 15 Q41 13 38 10 Q21 -5 13 -16 L5 -3 Q19 11 29 21 Q41 32 48 32 Q49 32 51 32 Q53 31 54 31 Q146 88 206 150 L24 150 L24 163 ZM110 203 L123 209 Q125 206 128 201 Q141 181 146 172 L132 165 Q124 181 110 203 Z" /><glyph glyph-name="uni4E66" unicode="&#x4e66;" d="M104 209 L118 209 L118 163 L205 163 L200 91 L236 91 Q235 55 232 31 Q231 0 192 0 Q176 0 157 0 Q157 5 154 13 Q162 12 189 12 Q218 11 219 33 Q220 41 221 62 Q222 73 222 78 L118 78 L118 -29 L104 -29 L104 78 L9 78 L9 91 L104 91 L104 150 L26 150 L26 163 L104 163 L104 209 ZM190 150 L118 150 L118 91 L186 91 L190 150 ZM180 193 L189 203 Q195 198 209 189 Q232 173 242 166 L233 155 Q227 159 216 167 Q192 185 180 193 Z" /><glyph glyph-name="uni4E88" unicode="&#x4e88;" d="M13 107 L235 107 L235 92 L219 45 Q212 48 204 49 L220 93 L137 93 L137 14 Q139 -27 100 -26 Q78 -26 61 -26 Q61 -18 58 -10 Q65 -11 98 -11 Q123 -12 122 14 L122 93 L13 93 L13 107 ZM66 157 L76 166 Q79 164 85 160 Q111 143 123 134 L196 180 L36 180 L36 194 L217 194 L217 178 L136 125 Q138 124 141 122 Q145 119 146 118 L135 108 Q94 139 66 157 Z" /><glyph glyph-name="uni4E89" unicode="&#x4e89;" d="M18 123 Q14 129 9 134 Q54 167 84 212 L97 206 Q88 193 81 185 L185 185 L185 172 L157 142 L213 142 L213 95 L249 95 L249 83 L213 83 L213 23 L200 23 L200 37 L129 37 L129 7 Q130 -25 94 -25 Q77 -25 62 -25 Q62 -19 60 -11 Q70 -12 92 -12 Q117 -13 115 9 L115 37 L34 37 L34 48 L115 48 L115 83 L8 83 L8 95 L115 95 L115 130 L41 130 L41 142 L140 142 L169 173 L71 173 Q53 151 18 123 ZM129 83 L129 48 L200 48 L200 83 L129 83 ZM200 130 L129 130 L129 95 L200 95 L200 130 Z" /><glyph glyph-name="uni4E8B" unicode="&#x4e8b;" d="M24 27 L121 27 L121 50 L8 50 L8 61 L121 61 L121 84 L25 84 L25 95 L121 95 L121 114 L39 114 L39 158 L121 158 L121 177 L9 177 L9 188 L121 188 L121 211 L134 211 L134 188 L247 188 L247 177 L134 177 L134 158 L216 158 L216 114 L134 114 L134 95 L221 95 L221 61 L249 61 L249 50 L221 50 L221 3 L208 3 L208 16 L134 16 L134 3 Q136 -25 103 -25 Q99 -25 87 -26 Q75 -26 71 -26 Q71 -17 68 -12 Q70 -12 79 -12 Q95 -13 101 -13 Q123 -14 121 5 L121 16 L24 16 L24 27 ZM134 50 L134 27 L208 27 L208 50 L134 50 ZM208 84 L134 84 L134 61 L208 61 L208 84 ZM203 148 L134 148 L134 124 L203 124 L203 148 ZM52 148 L52 124 L121 124 L121 148 L52 148 Z" /><glyph glyph-name="uni4E8E" unicode="&#x4e8e;" d="M28 191 L229 191 L229 178 L139 178 L139 107 L248 107 L248 93 L139 93 L139 9 Q140 -25 106 -25 Q89 -25 70 -25 Q69 -18 67 -10 Q83 -10 100 -10 Q126 -12 124 11 L124 93 L8 93 L8 107 L124 107 L124 178 L28 178 L28 191 Z" /><glyph glyph-name="uni4E92" unicode="&#x4e92;" d="M42 48 L63 176 L21 176 L21 189 L235 189 L235 176 L77 176 L70 134 L206 134 L197 0 L245 0 L245 -11 L12 -11 L12 0 L182 0 L186 48 L42 48 ZM191 121 L68 121 L58 61 L187 61 L191 121 Z" /><glyph glyph-name="uni4EA4" unicode="&#x4ea4;" d="M85 100 Q105 59 128 38 Q150 58 170 102 L183 96 Q162 51 139 29 Q168 4 244 -13 Q243 -14 242 -17 Q241 -19 237 -27 Q162 -7 128 19 Q94 -7 17 -29 L10 -15 Q92 6 117 29 Q96 49 73 93 L85 100 ZM12 173 L129 173 Q128 175 126 179 Q117 196 111 204 L124 210 Q128 204 135 192 Q140 184 143 179 L131 173 L245 173 L245 159 L12 159 L12 173 ZM88 144 L99 133 Q52 95 24 77 Q20 83 14 89 Q55 114 88 144 ZM232 82 Q195 109 157 134 L166 144 Q206 119 241 94 L232 82 Z" /><glyph glyph-name="uni4EA7" unicode="&#x4ea7;" d="M32 110 L153 110 Q165 128 183 158 L196 151 Q184 131 168 110 L241 110 L241 97 L46 97 L46 77 Q48 9 17 -28 Q11 -24 5 -19 Q34 10 32 77 L32 110 ZM121 206 L134 210 Q136 205 140 195 Q143 186 145 181 L248 181 L248 168 L12 168 L12 181 L130 181 Q129 186 126 194 Q123 202 121 206 ZM68 151 L80 158 Q93 142 108 121 L96 113 Q76 141 68 151 Z" /><glyph glyph-name="uni4EBA" unicode="&#x4eba;" d="M237 -23 Q141 25 129 134 Q115 27 19 -26 Q18 -25 15 -22 Q11 -16 9 -15 Q104 38 118 144 Q121 164 121 206 L136 206 Q136 199 135 187 Q135 174 134 168 Q150 29 247 -11 Q245 -13 241 -18 Q238 -22 237 -23 Z" /><glyph glyph-name="uni4ECB" unicode="&#x4ecb;" d="M240 92 Q169 130 128 187 Q86 131 15 89 Q13 92 8 100 Q6 101 6 102 Q83 143 126 209 L142 207 Q139 203 136 198 Q181 137 249 106 Q245 100 240 92 ZM73 110 L87 110 Q87 93 87 73 Q88 0 36 -31 Q31 -26 25 -20 Q74 5 72 74 Q73 85 73 110 ZM165 110 L179 110 L179 -28 L165 -28 L165 110 Z" /><glyph glyph-name="uni4ECD" unicode="&#x4ecd;" d="M177 115 L205 177 L135 177 Q135 86 124 47 Q115 7 82 -27 Q76 -21 70 -17 Q102 15 111 52 Q121 87 121 177 L93 177 L93 190 L219 190 L219 175 L191 113 L241 113 Q241 106 240 91 Q239 41 238 20 Q237 -23 198 -22 Q178 -23 163 -23 Q163 -21 162 -15 Q161 -10 160 -7 Q172 -8 196 -8 Q222 -9 224 22 Q226 70 226 100 L177 100 L177 115 ZM14 72 Q11 80 6 84 Q41 136 62 207 Q65 206 69 205 Q73 203 76 202 Q67 177 57 151 L57 -28 L43 -28 L43 121 Q29 94 14 72 Z" /><glyph glyph-name="uni4ED6" unicode="&#x4ed6;" d="M70 110 L95 117 L95 178 L109 178 L109 121 L157 136 L157 208 L171 208 L171 140 L236 160 Q236 153 235 138 Q234 94 233 86 Q232 50 205 51 Q195 51 187 51 Q187 54 186 62 Q187 57 185 64 Q194 63 202 63 Q219 62 220 85 Q222 121 222 143 L171 127 L171 21 L157 21 L157 123 L109 108 L109 15 Q106 -11 136 -8 L199 -8 Q228 -9 232 10 Q235 26 237 44 Q244 41 250 40 Q250 38 249 34 Q247 13 244 5 Q240 -22 203 -21 L131 -21 Q93 -23 95 10 L95 104 L72 97 L70 110 ZM12 73 Q11 75 10 77 Q7 84 5 88 Q46 146 65 208 L79 204 Q78 200 75 193 Q62 160 54 144 L54 -29 L40 -29 L40 118 Q26 93 12 73 Z" /><glyph glyph-name="uni4EE5" unicode="&#x4ee5;" d="M238 -22 Q230 -13 216 3 Q194 28 184 39 Q162 1 99 -30 Q98 -29 96 -26 Q95 -24 89 -17 Q196 25 195 140 Q197 178 197 204 L211 204 Q211 188 210 153 Q209 144 209 140 Q206 88 191 52 Q221 20 250 -11 L238 -22 ZM41 18 Q58 28 91 49 Q105 59 112 63 Q113 54 116 47 Q73 20 42 1 Q35 -2 29 -8 L18 3 Q28 12 27 26 L27 200 L41 200 L41 18 ZM124 143 Q102 185 91 203 L103 209 Q104 207 107 203 Q127 170 137 150 L124 143 Z" /><glyph glyph-name="uni4EEC" unicode="&#x4eec;" d="M236 7 Q237 -26 204 -26 Q184 -26 168 -26 Q167 -19 165 -11 Q181 -12 199 -12 Q225 -13 223 8 L223 174 L157 174 L157 188 L236 188 L236 7 ZM12 74 Q11 77 9 82 Q8 86 6 90 Q45 149 61 207 L75 202 Q65 174 53 148 L53 -29 L40 -29 L40 121 Q28 98 12 74 ZM96 -26 L96 151 L109 151 L109 -26 L96 -26 ZM99 199 L110 206 Q115 200 127 186 Q137 175 141 170 L129 162 Q127 164 123 170 Q117 178 99 199 Z" /><glyph glyph-name="uni4EF6" unicode="&#x4ef6;" d="M168 209 L182 209 L182 151 L241 151 L241 138 L182 138 L182 70 L250 70 L250 57 L182 57 L182 -29 L168 -29 L168 57 L77 57 L77 70 L168 70 L168 138 L115 138 Q110 123 97 98 Q95 94 94 92 Q92 93 88 96 Q83 98 81 99 Q106 142 116 190 L130 187 Q125 169 119 151 L168 151 L168 209 ZM13 71 Q9 80 6 87 Q40 137 61 207 L75 204 Q66 176 55 150 L55 -29 L42 -29 L42 121 Q27 92 13 71 Z" /><glyph glyph-name="uni4EFB" unicode="&#x4efb;" d="M88 -2 L162 -2 L162 81 L84 81 L84 94 L162 94 L162 175 Q131 174 95 171 Q95 178 93 184 Q195 190 236 195 L239 182 Q209 179 176 176 L176 94 L250 94 L250 81 L176 81 L176 -2 L246 -2 L246 -15 L88 -15 L88 -2 ZM12 75 Q11 79 8 87 Q7 90 6 91 Q45 143 66 208 L80 204 Q70 176 57 149 L57 -29 L44 -29 L44 123 Q28 96 12 75 Z" /><glyph glyph-name="uni4EFD" unicode="&#x4efd;" d="M93 100 L213 100 Q213 94 212 78 Q211 31 209 11 Q208 -24 169 -24 Q159 -25 139 -25 Q138 -18 135 -10 Q145 -11 167 -11 Q194 -12 196 13 Q197 28 198 62 Q199 80 199 88 L137 88 Q139 13 80 -29 Q75 -23 69 -18 Q126 20 124 88 L93 88 L93 100 ZM13 78 Q11 83 6 93 Q42 140 64 207 L78 203 Q68 173 51 140 L51 -29 L38 -29 L38 116 Q35 111 29 101 Q18 86 13 78 ZM168 203 L180 208 Q203 149 249 117 Q244 113 238 105 Q189 143 168 203 ZM78 99 Q74 105 68 110 Q110 147 131 198 L144 193 Q124 141 78 99 Z" /><glyph glyph-name="uni4F01" unicode="&#x4f01;" d="M125 134 L139 134 L139 78 L215 78 L215 65 L139 65 L139 -3 L241 -3 L241 -17 L11 -17 L11 -3 L51 -3 L51 91 L65 91 L65 -3 L125 -3 L125 134 ZM239 106 Q165 144 129 191 Q92 144 16 103 Q12 109 6 115 Q89 156 127 210 L143 208 Q140 205 138 202 Q177 151 249 119 Q245 115 240 107 Q239 106 239 106 Z" /><glyph glyph-name="uni4F18" unicode="&#x4f18;" d="M134 208 L148 208 Q148 179 146 140 L244 140 L244 127 L175 127 L175 6 Q174 -8 193 -7 L211 -7 Q228 -8 232 11 Q233 18 235 40 Q234 38 235 46 Q238 45 244 44 Q247 42 249 42 Q248 22 244 4 Q240 -20 211 -20 L191 -20 Q161 -21 162 6 L162 127 L145 127 Q145 120 144 113 Q141 32 78 -28 Q73 -23 67 -18 Q127 37 131 114 Q131 121 131 127 L76 127 L76 140 L132 140 Q134 181 134 208 ZM13 77 Q10 85 6 92 Q45 142 65 208 L79 203 Q68 172 54 143 L54 -29 L40 -29 L40 118 Q32 103 15 79 Q13 78 13 77 ZM213 159 Q193 177 175 190 L183 199 Q198 189 222 169 L213 159 Z" /><glyph glyph-name="uni4F1A" unicode="&#x4f1a;" d="M213 -29 Q210 -26 204 -20 Q199 -14 197 -12 Q116 -14 66 -18 Q64 -18 59 -19 Q49 -20 45 -21 L36 -6 Q44 -2 54 4 Q80 27 103 56 L16 56 L16 70 L240 70 L240 56 L122 56 Q95 24 62 -5 Q125 -2 184 0 Q181 2 175 8 Q170 12 155 28 L166 36 Q206 -1 225 -20 L213 -29 ZM239 110 Q165 142 130 191 Q86 141 16 105 Q12 112 6 118 Q86 155 129 212 L145 209 Q142 205 138 201 Q174 154 249 122 Q245 119 239 110 ZM61 121 L194 121 L194 108 L61 108 L61 121 Z" /><glyph glyph-name="uni4F20" unicode="&#x4f20;" d="M107 75 Q109 81 113 94 Q116 105 118 110 L76 110 L76 122 L121 122 Q127 142 132 160 L89 160 L89 173 L135 173 Q140 191 143 208 L158 206 Q154 190 149 173 L239 173 L239 160 L146 160 Q144 149 137 129 Q136 124 135 122 L249 122 L249 110 L132 110 Q127 91 121 73 L233 73 L233 59 L175 0 Q192 -7 210 -18 L200 -30 Q167 -9 117 19 Q102 27 94 32 L102 42 Q131 26 163 7 L217 61 L107 61 L107 75 ZM13 73 Q10 82 7 89 Q41 139 61 208 L76 205 Q66 177 56 151 L56 -29 L42 -29 L42 122 Q28 94 13 73 Z" /><glyph glyph-name="uni4F46" unicode="&#x4f46;" d="M100 193 L229 193 L229 43 L100 43 L100 193 ZM113 180 L113 124 L215 124 L215 180 L113 180 ZM113 112 L113 56 L215 56 L215 112 L113 112 ZM13 76 Q10 85 6 92 Q43 140 64 207 L78 203 Q67 172 53 143 L53 -29 L39 -29 L39 117 Q27 94 13 76 ZM77 0 L249 0 L249 -13 L77 -13 L77 0 Z" /><glyph glyph-name="uni4F4D" unicode="&#x4f4d;" d="M212 131 L226 126 Q201 54 178 -4 L250 -4 L250 -17 L74 -17 L74 -4 L163 -4 Q188 57 212 131 ZM13 75 Q10 83 6 90 Q41 140 62 210 L76 205 Q74 199 69 188 Q61 164 56 154 L56 -30 L42 -30 L42 124 Q29 98 13 75 ZM81 163 L243 163 L243 150 L81 150 L81 163 ZM129 20 Q118 64 97 126 L110 131 Q127 80 144 24 L129 20 ZM147 205 L160 210 Q162 206 165 198 Q173 180 177 169 L164 164 Q158 181 147 205 Z" /><glyph glyph-name="uni4F4E" unicode="&#x4f4e;" d="M86 -7 Q93 1 93 14 L93 189 Q163 191 238 198 L243 186 Q209 183 177 180 Q177 153 180 112 L247 112 L247 99 L181 99 Q185 35 207 1 Q216 -10 225 -11 Q232 -11 235 0 Q235 1 236 7 Q238 22 239 31 Q248 28 251 28 Q250 15 248 0 Q247 -4 247 -6 Q243 -25 226 -25 Q210 -25 195 -3 Q173 27 167 99 L106 99 L106 4 Q143 24 153 30 Q154 28 155 20 Q155 22 156 17 Q126 1 108 -10 Q105 -12 97 -17 Q96 -19 95 -19 L86 -7 ZM10 80 Q7 92 5 95 Q43 144 66 210 L79 205 Q67 175 54 148 L54 -29 L40 -29 L40 123 Q27 99 10 80 ZM166 112 Q165 132 163 180 Q133 177 106 177 L106 112 L166 112 ZM143 -3 L153 3 Q166 -8 178 -20 L168 -29 Q153 -12 143 -3 Z" /><glyph glyph-name="uni4F53" unicode="&#x4f53;" d="M70 13 Q69 15 63 19 Q60 22 59 23 Q116 74 137 145 L76 145 L76 157 L148 157 L148 209 L162 209 L162 157 L239 157 L239 145 L174 145 Q198 72 250 28 Q246 25 240 17 Q185 67 162 145 L162 35 L204 35 L204 22 L162 22 L162 -29 L148 -29 L148 22 L107 22 L107 35 L148 35 L148 145 Q127 65 70 13 ZM12 77 Q10 81 6 89 Q5 91 5 91 Q41 141 63 209 L76 206 Q66 173 52 145 L52 -29 L39 -29 L39 119 Q26 95 12 77 Z" /><glyph glyph-name="uni4F55" unicode="&#x4f55;" d="M96 137 L175 137 L175 36 L96 36 L96 137 ZM87 189 L249 189 L249 176 L227 176 L227 7 Q228 -25 195 -25 Q183 -26 159 -26 Q159 -24 158 -21 Q158 -15 156 -11 Q170 -12 191 -12 Q215 -13 214 8 L214 176 L87 176 L87 189 ZM13 80 Q10 87 6 94 Q42 140 66 208 L80 205 Q79 202 76 196 Q68 177 58 154 L58 -29 L44 -29 L44 128 Q30 103 13 80 ZM109 125 L109 49 L162 49 L162 125 L109 125 Z" /><glyph glyph-name="uni4F5C" unicode="&#x4f5c;" d="M86 101 Q81 106 75 110 Q111 153 129 210 L143 207 Q141 203 139 197 Q134 186 127 170 L249 170 L249 157 L158 157 L158 109 L236 109 L236 96 L158 96 L158 46 L242 46 L242 33 L158 33 L158 -29 L144 -29 L144 157 L121 157 Q108 128 86 101 ZM14 74 Q13 78 8 84 Q7 87 6 88 Q40 136 65 210 L78 206 Q67 176 55 149 L55 -29 L42 -29 L42 121 Q29 96 14 74 Z" /><glyph glyph-name="uni4F60" unicode="&#x4f60;" d="M13 73 Q12 76 10 81 Q9 85 7 89 Q47 146 66 210 L80 205 Q71 175 57 148 L57 -29 L44 -29 L44 121 Q29 93 13 73 ZM214 116 L231 157 L121 157 Q109 133 94 110 Q89 114 82 118 Q111 161 129 208 L143 204 Q142 201 139 196 Q136 187 127 170 L245 170 L245 156 L228 112 Q225 113 219 114 Q216 116 214 116 ZM159 133 L173 133 L173 4 Q174 -25 142 -26 Q125 -26 115 -26 Q114 -18 112 -12 Q124 -12 139 -12 Q160 -13 159 5 L159 133 ZM82 16 Q103 54 119 97 L131 93 Q112 42 95 9 Q89 13 82 16 ZM236 12 Q213 64 198 92 L210 98 Q226 69 249 18 L236 12 Z" /><glyph glyph-name="uni4F7F" unicode="&#x4f7f;" d="M76 175 L154 175 L154 209 L167 209 L167 175 L248 175 L248 163 L167 163 L167 133 L235 133 L235 59 L222 59 L222 69 L166 69 Q163 31 147 11 Q175 -7 246 -14 Q241 -22 239 -27 Q171 -19 138 1 Q122 -12 73 -30 Q71 -26 67 -21 Q66 -19 65 -18 Q112 -2 126 10 Q109 25 94 49 L106 56 Q117 36 136 19 Q149 35 153 69 L86 69 L86 133 L154 133 L154 163 L76 163 L76 175 ZM13 77 Q12 81 8 89 Q7 90 7 91 Q44 148 60 209 L74 206 Q63 173 51 145 L51 -30 L38 -30 L38 118 Q26 96 13 77 ZM167 111 Q167 95 167 81 L222 81 L222 121 L167 121 L167 111 ZM153 81 Q154 94 154 110 L154 121 L100 121 L100 81 L153 81 Z" /><glyph glyph-name="uni4F9B" unicode="&#x4f9b;" d="M189 209 L203 209 L203 154 L238 154 L238 142 L203 142 L203 65 L248 65 L248 52 L70 52 L70 65 L114 65 L114 142 L81 142 L81 154 L114 154 L114 209 L128 209 L128 154 L189 154 L189 209 ZM128 142 L128 65 L189 65 L189 142 L128 142 ZM12 80 Q11 84 6 94 Q42 144 63 208 L77 205 Q67 175 55 151 L55 -30 L41 -30 L41 125 Q32 107 12 80 ZM129 37 L141 28 Q111 -3 80 -28 Q76 -24 69 -17 Q102 7 129 37 ZM178 28 L188 37 Q211 16 248 -18 L237 -28 Q222 -12 178 28 Z" /><glyph glyph-name="uni4FB5" unicode="&#x4fb5;" d="M89 54 L89 65 L217 65 L217 53 Q195 22 170 6 Q197 -5 241 -14 Q238 -19 234 -27 Q187 -16 157 0 Q129 -15 76 -29 Q73 -23 69 -16 Q107 -7 144 6 Q119 24 102 54 L89 54 ZM87 197 L224 197 L224 119 L84 119 L84 131 L210 131 L210 152 L94 152 L94 164 L210 164 L210 185 L87 185 L87 197 ZM13 77 Q8 85 6 90 Q41 139 60 208 L73 205 Q63 173 51 144 L51 -29 L38 -29 L38 118 Q26 98 13 77 ZM69 98 L242 98 L242 64 L228 64 L228 86 L83 86 L83 63 L69 63 L69 98 ZM202 54 L118 54 Q134 28 157 13 Q180 27 202 54 Z" /><glyph glyph-name="uni4FDD" unicode="&#x4fdd;" d="M93 196 L227 196 L227 117 L93 117 L93 196 ZM75 -13 Q74 -12 72 -10 Q68 -4 65 -2 Q117 22 143 67 L70 67 L70 80 L153 80 L153 108 L166 108 L166 80 L249 80 L249 67 L177 67 Q200 23 249 1 Q244 -3 240 -10 Q187 16 166 64 L166 -29 L153 -29 L153 63 Q127 10 75 -13 ZM107 184 L107 130 L213 130 L213 184 L107 184 ZM13 77 Q13 79 10 84 Q7 89 6 90 Q41 139 60 208 L73 205 Q60 164 52 146 L52 -29 L39 -29 L39 119 Q28 98 13 77 Z" /><glyph glyph-name="uni4FE1" unicode="&#x4fe1;" d="M95 54 L231 54 L231 -29 L218 -29 L218 -14 L108 -14 L108 -29 L95 -29 L95 54 ZM108 42 L108 -2 L218 -2 L218 42 L108 42 ZM13 77 Q10 85 7 91 Q42 142 61 209 L74 205 Q65 175 52 147 L52 -29 L39 -29 L39 120 Q26 96 13 77 ZM148 205 L161 210 Q165 201 173 185 Q172 187 175 180 L164 176 L249 176 L249 163 L78 163 L78 176 L162 176 Q162 177 161 179 Q155 192 148 205 ZM92 135 L234 135 L234 123 L92 123 L92 135 ZM92 95 L234 95 L234 82 L92 82 L92 95 Z" /><glyph glyph-name="uni4FEE" unicode="&#x4fee;" d="M107 132 Q103 137 98 141 Q126 171 143 209 L155 205 Q150 195 144 184 L228 184 L228 172 Q211 145 187 126 Q212 113 249 104 Q248 102 245 96 Q244 93 243 92 Q202 103 175 119 Q148 100 103 87 Q100 92 95 98 Q136 110 164 126 Q145 141 131 162 Q121 147 107 132 ZM12 76 Q11 80 8 86 Q7 89 6 91 Q37 143 52 209 L65 207 Q59 181 49 154 L49 -29 L36 -29 L36 123 Q24 97 12 76 ZM233 45 L242 35 Q185 -8 98 -30 Q97 -25 92 -18 Q179 1 233 45 ZM73 16 L73 170 L86 170 L86 16 L73 16 ZM214 173 L137 173 Q151 151 175 134 Q198 150 214 173 ZM211 75 L220 65 Q177 32 114 10 Q111 16 106 22 Q168 42 211 75 ZM187 100 L196 90 Q160 67 114 49 Q111 55 106 61 Q153 76 187 100 Z" /><glyph glyph-name="uni500D" unicode="&#x500d;" d="M97 66 L227 66 L227 -29 L214 -29 L214 -13 L110 -13 L110 -29 L97 -29 L97 66 ZM110 54 L110 -1 L214 -1 L214 54 L110 54 ZM11 76 Q8 84 5 91 Q41 142 60 208 L74 205 Q64 172 50 144 L50 -29 L36 -29 L36 117 Q24 96 11 76 ZM74 108 L250 108 L250 95 L74 95 L74 108 ZM83 173 L241 173 L241 161 L83 161 L83 173 ZM193 111 L182 119 Q196 136 207 155 L219 148 Q212 138 198 118 Q195 113 193 111 ZM106 147 L116 155 Q128 140 143 119 L132 112 Q127 120 116 134 Q109 143 106 147 ZM146 204 L157 210 Q167 196 176 181 L164 174 Q160 181 152 194 Q148 201 146 204 Z" /><glyph glyph-name="uni505A" unicode="&#x505a;" d="M240 -25 Q213 0 200 19 Q188 0 155 -30 Q154 -29 151 -26 Q147 -21 145 -19 Q180 11 193 33 Q176 66 170 118 Q169 116 168 113 Q161 100 157 94 Q156 96 148 104 Q176 150 188 209 L201 208 Q195 183 188 162 L248 162 L248 150 L235 150 Q230 74 208 32 Q220 10 250 -13 Q244 -19 240 -25 ZM104 208 L117 208 L117 157 L157 157 L157 145 L117 145 L117 92 L146 92 L146 5 L88 5 L88 -10 L75 -10 L75 92 L104 92 L104 145 L64 145 L64 157 L104 157 L104 208 ZM12 79 Q11 81 9 87 Q6 92 5 94 Q34 140 54 209 L67 206 Q66 202 63 194 Q55 168 49 155 L49 -29 L36 -29 L36 125 Q24 100 12 79 ZM88 80 L88 17 L133 17 L133 80 L88 80 ZM200 47 Q218 81 222 150 L184 150 Q184 149 183 148 Q183 145 180 140 Q186 79 200 47 Z" /><glyph glyph-name="uni505C" unicode="&#x505c;" d="M97 151 L219 151 L219 106 L97 106 L97 151 ZM12 76 Q9 85 6 91 Q41 146 56 209 L69 206 Q62 178 51 152 L51 -29 L38 -29 L38 123 Q26 98 12 76 ZM94 50 L220 50 L220 38 L172 38 L172 0 Q173 -26 147 -25 Q141 -26 118 -26 Q118 -20 116 -12 Q124 -13 142 -13 Q160 -14 158 0 L158 38 L94 38 L94 50 ZM69 86 L246 86 L246 52 L233 52 L233 74 L82 74 L82 52 L69 52 L69 86 ZM149 207 L161 209 Q165 197 168 182 L243 182 L243 170 L76 170 L76 182 L156 182 Q153 194 149 207 ZM110 140 L110 118 L206 118 L206 140 L110 140 Z" /><glyph glyph-name="uni5077" unicode="&#x5077;" d="M95 -28 L83 -28 L83 114 L151 114 L151 -4 Q152 -27 127 -26 Q118 -27 112 -27 Q111 -25 110 -19 Q109 -16 109 -14 Q117 -14 125 -14 Q139 -15 138 -2 L138 27 L95 27 L95 -28 ZM6 91 Q45 151 62 209 L76 206 Q64 173 50 143 L50 -29 L37 -29 L37 118 Q34 113 28 103 Q18 86 12 77 Q11 79 9 84 Q7 89 6 91 ZM241 124 Q186 152 157 191 Q121 145 73 119 Q70 125 65 130 Q124 161 154 211 L168 209 Q167 207 165 204 Q164 203 164 202 Q198 157 249 136 Q247 133 243 127 Q242 125 241 124 ZM214 118 L226 118 L226 0 Q227 -25 199 -26 Q188 -26 178 -26 Q178 -20 176 -13 Q179 -13 186 -13 Q194 -14 198 -14 Q214 -15 214 2 L214 118 ZM95 103 L95 76 L138 76 L138 103 L95 103 ZM95 65 L95 38 L138 38 L138 65 L95 65 ZM177 105 L189 105 L189 16 L177 16 L177 105 ZM117 148 L196 148 L196 136 L117 136 L117 148 Z" /><glyph glyph-name="uni50A8" unicode="&#x50a8;" d="M161 209 L174 209 L174 177 L208 177 L208 166 L174 166 L174 126 L185 126 Q210 152 230 189 L242 183 Q224 153 202 126 L249 126 L249 115 L191 115 Q178 100 160 87 L230 87 L230 -28 L217 -28 L217 -11 L156 -11 L156 -28 L143 -28 L143 74 Q131 65 115 56 Q112 60 108 66 Q146 88 174 115 L117 115 L117 126 L161 126 L161 166 L125 166 L125 177 L161 177 L161 209 ZM12 79 Q11 81 7 89 Q6 92 5 93 Q36 140 52 210 L65 208 Q60 186 48 151 L48 -29 L35 -29 L35 122 Q25 101 12 79 ZM96 10 Q103 16 119 28 Q122 30 123 31 Q125 24 126 18 Q119 14 104 2 Q98 -1 95 -3 Q89 -8 85 -12 L77 -3 Q83 3 83 14 L83 115 L61 115 L61 127 L96 127 L96 10 ZM156 75 L156 42 L217 42 L217 75 L156 75 ZM156 31 L156 0 L217 0 L217 31 L156 31 ZM99 151 Q97 156 92 164 Q83 182 77 192 L88 197 Q98 179 110 157 L99 151 Z" /><glyph glyph-name="uni50CF" unicode="&#x50cf;" d="M76 136 Q72 140 66 146 Q106 174 128 210 L141 207 Q135 198 129 189 L200 189 L200 178 L177 152 L232 152 L232 103 L154 103 Q151 99 147 94 Q162 82 170 67 Q196 80 223 98 L230 88 Q224 84 212 77 Q204 72 199 69 Q210 23 246 0 Q240 -3 236 -9 Q200 17 188 63 Q187 62 184 61 Q182 60 174 56 Q180 39 180 12 Q181 -24 142 -25 Q133 -25 121 -25 Q121 -19 119 -12 Q128 -13 141 -13 Q168 -14 167 13 Q167 27 166 37 Q135 3 74 -18 Q73 -17 70 -13 Q67 -10 66 -8 Q130 13 163 50 Q160 59 155 68 Q123 33 74 17 Q71 24 66 28 Q119 46 149 76 Q145 82 139 87 Q123 71 74 52 Q73 54 70 58 Q67 62 66 63 Q120 82 139 103 L88 103 L88 145 Q82 141 76 136 ZM12 77 Q7 87 5 90 Q38 138 60 208 L72 205 Q66 185 52 151 Q51 149 51 148 L51 -28 L38 -28 L38 121 Q27 98 12 77 ZM184 178 L120 178 Q108 165 95 152 L161 152 L184 178 ZM219 142 L169 142 Q166 126 161 114 L219 114 L219 142 ZM100 142 L100 114 L147 114 Q155 126 156 142 L100 142 Z" /><glyph glyph-name="uni514D" unicode="&#x514d;" d="M16 116 Q14 119 9 124 Q8 125 7 126 Q58 164 87 211 L100 205 Q93 195 85 184 L186 184 L186 171 L154 139 L218 139 L218 62 L144 62 L144 6 Q143 -11 166 -10 L207 -10 Q229 -11 231 6 Q232 11 234 25 Q235 34 236 39 Q242 36 249 35 Q248 21 244 2 Q238 -24 210 -23 L162 -23 Q130 -23 130 4 L130 62 L124 62 Q106 4 18 -30 Q16 -27 11 -19 Q9 -18 9 -17 Q89 10 109 62 L37 62 L37 133 Q25 123 16 116 ZM204 127 L135 127 Q134 98 128 74 L204 74 L204 127 ZM50 127 L50 74 L114 74 Q121 98 121 127 L50 127 ZM169 172 L76 172 Q62 156 44 139 L136 139 L169 172 Z" /><glyph glyph-name="uni5168" unicode="&#x5168;" d="M48 115 L207 115 L207 102 L135 102 L135 57 L217 57 L217 44 L135 44 L135 -3 L239 -3 L239 -16 L17 -16 L17 -3 L121 -3 L121 44 L39 44 L39 57 L121 57 L121 102 L48 102 L48 115 ZM239 107 Q165 143 129 193 Q83 139 16 105 Q11 111 6 116 Q88 159 126 212 L141 209 Q139 206 136 203 Q177 151 249 120 Q246 115 239 107 Z" /><glyph glyph-name="uni516C" unicode="&#x516c;" d="M220 -29 Q217 -25 211 -18 Q205 -10 202 -6 Q136 -8 61 -12 Q48 -14 36 -15 L29 0 Q40 3 47 11 Q84 53 115 108 L130 100 Q91 42 56 0 Q83 1 133 3 Q170 4 191 5 Q182 17 163 39 Q154 50 150 55 L161 64 Q169 55 185 36 Q216 0 233 -19 L220 -29 ZM151 197 L165 202 Q191 135 249 100 Q243 94 238 87 Q175 131 151 197 ZM18 81 Q13 87 7 93 Q63 134 91 198 L104 192 Q73 127 18 81 Z" /><glyph glyph-name="uni516D" unicode="&#x516d;" d="M9 139 L247 139 L247 125 L9 125 L9 139 ZM105 199 L118 206 Q133 185 150 156 L137 148 Q125 169 105 199 ZM87 93 L101 88 Q64 20 25 -23 Q23 -22 20 -19 Q14 -14 12 -13 Q55 34 87 93 ZM153 87 L166 94 Q177 79 198 48 Q229 5 241 -11 L227 -19 Q185 44 153 87 Z" /><glyph glyph-name="uni5171" unicode="&#x5171;" d="M169 207 L183 207 L183 158 L238 158 L238 145 L183 145 L183 70 L248 70 L248 58 L8 58 L8 70 L72 70 L72 145 L18 145 L18 158 L72 158 L72 207 L86 207 L86 158 L169 158 L169 207 ZM86 145 L86 70 L169 70 L169 145 L86 145 ZM93 37 L103 26 Q61 -3 20 -26 Q16 -19 10 -14 Q54 8 93 37 ZM151 26 L160 37 Q209 5 240 -14 L231 -25 Q214 -13 180 8 Q160 20 151 26 Z" /><glyph glyph-name="uni5173" unicode="&#x5173;" d="M19 -29 Q18 -28 16 -25 Q13 -21 10 -17 Q107 14 116 78 L13 78 L13 91 L118 91 Q121 112 121 143 L28 143 L28 156 L145 156 Q172 189 186 209 L199 202 Q181 180 162 156 L229 156 L229 143 L135 143 Q135 116 132 91 L244 91 L244 78 L137 78 Q160 6 246 -14 Q241 -20 238 -27 Q147 0 127 69 Q114 4 19 -29 ZM56 201 L67 209 Q76 200 92 180 Q99 172 102 168 L90 160 Q86 165 76 177 Q62 194 56 201 Z" /><glyph glyph-name="uni5176" unicode="&#x5176;" d="M13 176 L52 176 L52 209 L66 209 L66 176 L190 176 L190 209 L203 209 L203 176 L243 176 L243 164 L203 164 L203 43 L249 43 L249 31 L8 31 L8 43 L52 43 L52 164 L13 164 L13 176 ZM66 76 L66 43 L190 43 L190 76 L66 76 ZM66 120 L66 88 L190 88 L190 120 L66 120 ZM66 164 L66 132 L190 132 L190 164 L66 164 ZM94 20 L103 8 Q44 -19 16 -30 Q13 -22 8 -17 Q59 0 94 20 ZM153 8 L160 20 Q165 18 177 13 Q228 -7 248 -16 L240 -29 Q211 -14 153 8 Z" /><glyph glyph-name="uni5177" unicode="&#x5177;" d="M7 37 L44 37 L44 198 L212 198 L212 37 L249 37 L249 25 L7 25 L7 37 ZM57 146 L57 117 L199 117 L199 146 L57 146 ZM57 66 L57 37 L199 37 L199 66 L57 66 ZM57 106 L57 77 L199 77 L199 106 L57 106 ZM57 186 L57 157 L199 157 L199 186 L57 186 ZM93 14 L102 2 Q92 -1 71 -10 Q34 -25 19 -31 Q17 -27 11 -18 Q67 1 93 14 ZM154 1 L161 13 Q177 7 212 -3 Q236 -12 245 -15 L238 -28 Q193 -10 154 1 Z" /><glyph glyph-name="uni5185" unicode="&#x5185;" d="M122 209 L136 209 Q136 184 136 165 L227 165 L227 4 Q228 -23 197 -24 Q178 -24 161 -24 Q160 -21 159 -14 Q158 -11 158 -9 Q171 -10 194 -10 Q214 -10 213 7 L213 152 L135 152 Q135 148 135 143 Q134 115 127 96 L134 103 Q173 71 200 45 L189 34 Q160 63 126 93 Q115 62 62 30 Q61 33 56 38 Q54 41 53 42 Q125 78 121 143 Q121 148 121 152 L42 152 L42 -27 L28 -27 L28 165 L122 165 Q122 184 122 209 Z" /><glyph glyph-name="uni518D" unicode="&#x518d;" d="M7 52 L40 52 L40 150 L121 150 L121 183 L16 183 L16 195 L240 195 L240 183 L135 183 L135 150 L216 150 L216 52 L249 52 L249 40 L216 40 L216 0 Q218 -25 187 -25 Q173 -26 155 -26 Q155 -24 154 -20 Q153 -14 152 -12 Q163 -12 185 -12 Q204 -13 202 1 L202 40 L53 40 L53 -29 L40 -29 L40 40 L7 40 L7 52 ZM53 90 L53 52 L121 52 L121 90 L53 90 ZM135 90 L135 52 L202 52 L202 90 L135 90 ZM53 138 L53 102 L121 102 L121 138 L53 138 ZM202 138 L135 138 L135 102 L202 102 L202 138 Z" /><glyph glyph-name="uni51B3" unicode="&#x51b3;" d="M138 209 L152 209 Q152 183 152 164 L219 164 L219 84 L249 84 L249 72 L155 72 Q180 9 247 -12 Q244 -15 240 -21 Q238 -24 237 -25 Q166 4 144 66 Q133 12 60 -29 Q55 -23 49 -17 Q122 21 133 72 L70 72 L70 84 L135 84 Q138 102 138 151 L84 151 L84 164 L138 164 Q138 182 138 209 ZM205 151 L152 151 Q152 115 150 84 L205 84 L205 151 ZM8 0 Q35 63 49 103 Q52 102 56 100 Q61 97 63 96 Q48 61 22 -8 L8 0 ZM57 136 Q40 156 13 183 L23 192 Q56 159 69 145 L57 136 Z" /><glyph glyph-name="uni51B5" unicode="&#x51b5;" d="M122 87 L85 87 L85 197 L228 197 L228 87 L184 87 L184 7 Q183 -10 199 -9 L214 -9 Q229 -10 232 4 Q234 12 236 34 Q244 31 249 29 Q249 27 248 23 Q247 5 245 0 Q241 -22 216 -22 L196 -22 Q170 -23 170 6 L170 87 L135 87 Q135 38 120 15 Q106 -7 61 -30 Q57 -23 52 -18 Q96 2 108 22 Q122 41 122 87 ZM99 184 L99 100 L214 100 L214 184 L99 184 ZM7 -6 Q30 34 49 90 Q54 87 63 82 Q52 58 22 -14 L7 -6 ZM51 136 Q47 140 40 148 Q21 170 10 182 L20 190 Q49 162 62 145 L51 136 Z" /><glyph glyph-name="uni51C6" unicode="&#x51c6;" d="M66 100 Q65 101 62 104 Q57 108 55 110 Q91 149 117 209 L130 205 Q120 183 109 164 L246 164 L246 152 L181 152 L181 109 L243 109 L243 97 L181 97 L181 55 L243 55 L243 43 L181 43 L181 0 L248 0 L248 -10 L103 -10 L103 -29 L90 -29 L90 132 Q78 115 66 100 ZM103 43 L103 0 L167 0 L167 43 L103 43 ZM103 97 L103 55 L167 55 L167 97 L103 97 ZM103 152 L103 109 L167 109 L167 152 L103 152 ZM11 -13 Q32 40 45 84 Q51 81 59 79 Q42 30 26 -19 L11 -13 ZM45 134 Q29 166 15 189 L26 195 Q42 168 57 141 L45 134 ZM156 202 L168 209 Q171 204 178 193 Q187 179 190 173 L178 166 Q167 187 156 202 Z" /><glyph glyph-name="uni51FA" unicode="&#x51fa;" d="M33 100 L33 184 L47 184 L47 113 L121 113 L121 207 L134 207 L134 113 L209 113 L209 184 L222 184 L222 100 L134 100 L134 -3 L216 -3 L216 67 L229 67 L229 -25 L216 -25 L216 -16 L26 -16 L26 67 L40 67 L40 -3 L121 -3 L121 100 L33 100 Z" /><glyph glyph-name="uni5206" unicode="&#x5206;" d="M39 99 L200 99 Q199 52 196 19 Q195 -22 152 -22 Q129 -23 114 -23 Q114 -16 112 -8 Q116 -8 126 -8 Q141 -9 151 -9 Q181 -11 182 21 Q185 51 185 87 L101 87 Q100 3 23 -30 Q22 -28 17 -22 Q15 -19 14 -18 Q86 8 87 87 L39 87 L39 99 ZM148 205 L161 210 Q188 143 248 111 Q242 104 237 98 Q175 138 148 205 ZM17 98 Q16 100 12 104 Q9 108 7 109 Q63 147 95 206 L108 200 Q71 137 17 98 Z" /><glyph glyph-name="uni5207" unicode="&#x5207;" d="M97 193 L237 193 Q235 116 230 20 Q229 -22 188 -21 Q167 -22 154 -22 Q153 -13 150 -6 Q158 -7 186 -7 Q215 -8 216 19 Q218 58 221 158 Q222 174 222 180 L157 180 Q157 160 154 110 Q151 15 89 -29 Q87 -25 78 -19 Q139 24 140 109 Q143 142 143 180 L97 180 L97 193 ZM54 30 Q71 41 104 67 Q104 66 104 65 Q106 56 108 52 Q72 27 56 14 Q54 12 50 9 Q46 5 44 4 L33 16 Q40 24 40 38 L40 123 L8 120 L7 133 L40 137 L40 210 L54 210 L54 138 L104 144 L106 131 L54 125 L54 30 Z" /><glyph glyph-name="uni5212" unicode="&#x5212;" d="M14 -3 Q12 0 5 7 Q41 23 65 42 Q55 73 51 123 L13 116 L10 128 L50 135 Q48 176 48 210 L62 210 Q62 168 64 137 L148 152 L150 140 L65 125 Q67 83 76 51 Q103 75 126 111 L138 104 Q107 60 80 37 Q89 10 102 -1 Q112 -14 122 -14 Q131 -15 134 0 Q139 14 142 33 Q144 31 151 29 Q154 28 155 28 Q149 3 146 -6 Q140 -27 123 -27 Q105 -28 91 -10 Q76 6 69 28 Q45 10 14 -3 ZM220 208 L234 208 L234 4 Q235 -25 204 -25 Q196 -26 173 -26 Q173 -18 170 -12 Q185 -12 199 -12 Q221 -13 220 7 L220 208 ZM181 36 L167 36 L167 184 L181 184 L181 36 ZM82 190 L91 199 Q96 196 109 186 Q122 176 126 172 L117 162 Q96 180 82 190 Z" /><glyph glyph-name="uni5219" unicode="&#x5219;" d="M24 196 L130 196 L130 39 L116 39 L116 183 L38 183 L38 39 L24 39 L24 196 ZM71 159 L84 159 Q84 117 83 96 Q82 52 74 33 L81 39 Q94 27 132 -3 Q140 -10 144 -13 L133 -24 Q119 -10 82 21 Q76 27 73 29 Q63 1 17 -30 Q16 -29 12 -25 Q9 -21 7 -19 Q46 6 57 27 Q69 47 70 96 Q71 120 71 159 ZM220 206 L233 206 L233 6 Q234 -25 203 -25 Q187 -25 170 -25 Q170 -19 168 -11 Q175 -12 199 -12 Q222 -14 220 8 L220 206 ZM182 35 L168 35 L168 184 L182 184 L182 35 Z" /><glyph glyph-name="uni521B" unicode="&#x521b;" d="M34 122 L133 122 Q133 97 131 71 Q129 40 96 41 Q82 40 70 40 Q70 43 69 47 Q68 52 67 54 Q71 54 80 54 Q90 53 95 53 Q116 52 118 73 Q119 78 119 91 Q120 104 120 110 L47 110 L47 9 Q46 -9 69 -8 L106 -8 Q129 -8 133 5 Q136 17 138 34 Q145 30 152 29 Q151 15 145 0 Q140 -21 109 -21 L66 -21 Q33 -22 34 8 L34 122 ZM221 209 L235 209 L235 3 Q235 -23 207 -24 Q192 -25 176 -25 Q175 -17 173 -11 Q188 -11 205 -11 Q221 -11 221 4 L221 209 ZM6 124 Q56 158 84 211 L98 208 Q97 207 95 203 Q93 200 92 198 Q117 176 153 142 L142 132 Q120 156 86 187 Q58 145 15 112 Q14 113 12 116 Q9 121 6 124 ZM168 183 L181 183 L181 29 L168 29 L168 183 Z" /><glyph glyph-name="uni5229" unicode="&#x5229;" d="M9 131 L67 131 L67 179 Q52 177 24 175 Q18 175 16 175 Q14 185 13 187 Q96 194 129 199 L133 187 Q109 184 81 181 L81 131 L139 131 L139 119 L81 119 L81 87 L88 94 Q116 71 140 49 L130 40 Q126 44 111 57 Q89 77 81 84 L81 -29 L67 -29 L67 95 Q50 52 14 13 Q13 14 12 18 Q7 27 6 29 Q47 66 67 119 L9 119 L9 131 ZM220 208 L234 208 L234 3 Q234 -23 207 -24 Q205 -24 191 -24 Q176 -25 173 -25 Q172 -19 170 -12 Q169 -11 169 -10 Q175 -11 205 -11 Q220 -11 220 4 L220 208 ZM157 181 L171 181 L171 28 L157 28 L157 181 Z" /><glyph glyph-name="uni5230" unicode="&#x5230;" d="M134 97 Q130 106 125 113 Q106 112 73 110 Q56 109 48 109 Q46 109 42 108 Q28 107 23 105 L15 119 Q24 125 28 131 Q53 162 62 182 L11 182 L11 195 L150 195 L150 182 L79 182 Q60 152 37 121 Q49 122 78 123 Q106 125 118 125 Q114 131 106 143 Q101 152 98 156 L109 161 Q125 139 147 104 L134 97 ZM73 98 L87 98 L87 66 L144 66 L144 54 L87 54 L87 2 Q119 5 150 10 Q150 4 150 -1 Q125 -4 72 -11 Q32 -16 11 -19 L8 -5 Q27 -3 73 0 L73 54 L14 54 L14 66 L73 66 L73 98 ZM223 208 L236 208 L236 3 Q237 -23 209 -24 Q207 -24 196 -24 Q180 -25 176 -25 Q176 -22 175 -18 Q175 -12 174 -10 Q180 -11 207 -11 Q223 -11 223 4 L223 208 ZM169 183 L183 183 L183 29 L169 29 L169 183 Z" /><glyph glyph-name="uni5236" unicode="&#x5236;" d="M7 119 L80 119 L80 157 L37 157 Q32 144 23 130 Q23 130 22 131 Q16 135 12 136 Q31 166 38 198 L51 196 Q50 193 48 187 Q45 175 42 169 L80 169 L80 208 L93 208 L93 169 L147 169 L147 157 L93 157 L93 119 L158 119 L158 106 L93 106 L93 73 L148 73 L148 15 Q149 -6 125 -7 Q118 -7 107 -7 Q106 -5 105 0 Q104 3 104 4 Q109 3 122 3 Q136 2 135 16 L135 61 L93 61 L93 -30 L80 -30 L80 61 L39 61 L39 -11 L26 -11 L26 73 L80 73 L80 106 L7 106 L7 119 ZM222 208 L236 208 L236 4 Q237 -26 208 -25 Q191 -25 177 -25 Q177 -23 176 -18 Q175 -13 174 -11 Q179 -11 189 -12 Q199 -12 204 -12 Q223 -13 222 5 L222 208 ZM187 35 L174 35 L174 184 L187 184 L187 35 Z" /><glyph glyph-name="uni524D" unicode="&#x524d;" d="M39 -30 L26 -30 L26 130 L127 130 L127 0 Q128 -24 101 -24 Q87 -24 72 -24 Q72 -17 70 -11 Q77 -12 99 -12 Q114 -13 113 0 L113 30 L39 30 L39 -30 ZM61 202 L71 210 Q86 196 100 179 L89 172 L153 172 Q171 191 185 209 L197 202 Q185 187 170 172 L248 172 L248 159 L8 159 L8 172 L88 172 Q82 179 70 192 Q64 199 61 202 ZM217 138 L230 138 L230 5 Q231 -24 201 -24 Q185 -24 171 -24 Q171 -22 170 -17 Q170 -13 169 -10 Q176 -11 196 -11 Q218 -12 217 8 L217 138 ZM39 74 L39 42 L113 42 L113 74 L39 74 ZM39 118 L39 86 L113 86 L113 118 L39 118 ZM163 126 L176 126 L176 19 L163 19 L163 126 Z" /><glyph glyph-name="uni529B" unicode="&#x529b;" d="M103 209 L117 209 Q117 171 116 152 L229 152 Q229 144 228 126 Q227 61 225 32 Q224 -22 176 -20 Q148 -21 134 -21 Q133 -17 132 -12 Q131 -8 131 -5 Q149 -6 174 -6 Q211 -9 211 36 Q211 43 212 58 Q214 114 214 139 L115 139 Q114 136 114 135 Q113 22 21 -27 Q20 -26 17 -23 Q12 -17 10 -16 Q99 33 100 131 Q100 134 100 139 L18 139 L18 152 L101 152 Q103 190 103 209 Z" /><glyph glyph-name="uni529E" unicode="&#x529e;" d="M97 210 L111 210 Q111 181 110 163 L201 163 Q200 116 196 29 Q196 -22 148 -20 Q122 -20 110 -20 Q109 -15 108 -10 Q107 -7 107 -5 Q113 -5 127 -5 Q141 -6 148 -6 Q182 -9 182 28 Q184 76 186 149 L109 149 Q111 21 20 -27 Q19 -26 17 -24 Q12 -17 10 -16 Q60 15 75 47 Q92 78 95 149 L19 149 L19 163 L95 163 Q95 168 96 178 Q97 204 97 210 ZM41 119 L55 114 Q41 78 22 44 Q21 45 18 46 Q10 50 8 51 Q25 77 41 119 ZM207 111 L219 117 Q223 110 230 97 Q244 72 251 58 L238 52 Q223 81 207 111 Z" /><glyph glyph-name="uni52A0" unicode="&#x52a0;" d="M150 176 L239 176 L239 -23 L225 -23 L225 1 L164 1 L164 -23 L150 -23 L150 176 ZM164 163 L164 14 L225 14 L225 163 L164 163 ZM48 209 L62 209 Q62 188 62 164 L119 164 Q119 87 115 13 Q114 -22 82 -23 Q70 -23 57 -23 Q57 -16 55 -8 Q66 -8 79 -8 Q102 -10 102 14 Q102 18 102 27 Q105 112 105 151 L61 151 Q61 143 61 137 Q59 23 17 -28 Q11 -23 4 -20 Q46 31 47 138 Q47 144 47 151 L12 151 L12 164 L48 164 Q48 187 48 209 Z" /><glyph glyph-name="uni52A1" unicode="&#x52a1;" d="M241 86 Q173 93 130 113 Q83 93 14 82 Q11 89 6 95 Q74 105 115 121 Q86 139 65 166 Q47 147 22 126 Q21 127 18 130 Q16 133 12 136 Q58 171 86 211 L99 206 Q92 196 84 187 L216 187 L216 173 Q178 138 145 121 Q181 104 248 100 Q247 99 246 96 Q245 94 241 86 ZM26 67 L97 67 Q99 78 100 93 L113 93 Q113 78 111 67 L214 67 Q214 55 212 33 Q211 24 211 19 Q210 -26 166 -24 Q151 -25 129 -25 Q129 -23 128 -20 Q127 -13 126 -10 Q137 -11 164 -11 Q196 -13 197 19 Q199 35 199 54 L109 54 Q103 -4 19 -31 Q13 -22 9 -19 Q90 5 95 54 L26 54 L26 67 ZM198 175 L74 175 Q101 144 130 128 Q165 144 198 175 Z" /><glyph glyph-name="uni52A8" unicode="&#x52a8;" d="M162 210 L175 210 Q175 187 175 157 L241 157 Q241 153 241 145 Q239 41 237 15 Q235 -22 201 -23 Q186 -23 170 -23 Q168 -14 165 -7 Q171 -7 182 -8 Q193 -8 199 -8 Q222 -9 223 15 Q227 88 227 144 L174 144 Q174 132 173 119 Q173 25 119 -29 Q117 -27 111 -23 Q108 -21 107 -20 Q158 28 159 120 Q160 124 160 132 Q161 140 161 144 L122 144 L122 157 L161 157 Q161 165 161 182 Q162 200 162 210 ZM108 0 Q105 5 102 11 Q80 10 47 7 Q36 6 30 5 Q25 4 18 3 Q19 3 14 2 L8 14 Q16 20 21 32 Q35 61 52 104 L8 104 L8 118 L123 118 L123 104 L67 104 Q48 58 28 17 Q61 19 97 23 Q93 32 84 52 Q79 61 77 66 L89 71 Q100 51 119 10 Q120 7 121 5 L108 0 ZM19 188 L113 188 L113 175 L19 175 L19 188 Z" /><glyph glyph-name="uni52B1" unicode="&#x52b1;" d="M175 209 L188 209 Q188 189 188 157 L238 157 Q237 73 234 16 Q235 -25 202 -23 Q191 -23 180 -23 Q180 -15 178 -9 Q181 -9 187 -9 Q196 -10 201 -10 Q222 -11 221 15 Q222 38 224 105 Q225 134 225 144 L187 144 Q187 124 186 109 Q187 16 145 -29 Q143 -28 137 -23 Q134 -21 133 -20 Q173 20 173 105 Q173 109 173 120 Q174 136 174 144 L153 144 L153 157 L174 157 Q174 166 175 185 Q175 202 175 209 ZM52 146 L140 146 L140 134 L87 134 Q87 110 86 92 L134 92 Q134 84 133 68 Q132 28 131 13 Q130 -24 100 -21 Q94 -22 84 -22 Q84 -13 82 -8 Q89 -8 98 -8 Q117 -11 118 12 Q118 15 118 19 Q120 59 120 80 L86 80 Q83 9 52 -27 Q48 -23 42 -19 Q62 9 67 37 Q74 63 74 134 L52 134 L52 146 ZM40 181 L40 102 Q40 50 35 25 Q31 0 17 -26 Q16 -25 14 -24 Q7 -19 6 -18 Q19 6 22 28 Q26 48 26 103 L26 194 L144 194 L144 181 L40 181 Z" /><glyph glyph-name="uni5305" unicode="&#x5305;" d="M42 132 L148 132 L148 62 L56 62 L56 13 Q55 -8 81 -7 L199 -7 Q227 -8 229 9 Q233 26 234 45 Q236 44 240 43 Q246 41 248 40 Q246 23 242 4 Q238 -21 202 -21 L78 -21 Q41 -22 42 12 L42 132 ZM68 211 L83 207 Q77 193 71 181 L217 181 Q217 175 216 163 Q215 98 213 63 Q212 21 172 23 Q159 22 141 22 Q141 30 138 37 Q142 37 152 37 Q164 36 171 36 Q198 35 199 63 Q202 114 202 168 L64 168 Q46 134 15 99 Q11 105 6 111 Q47 154 68 211 ZM56 119 L56 74 L135 74 L135 119 L56 119 Z" /><glyph glyph-name="uni5316" unicode="&#x5316;" d="M84 44 Q79 52 76 56 Q109 73 137 91 L137 205 L151 205 L151 101 Q190 130 224 175 L237 167 Q199 120 151 84 L151 15 Q149 -8 175 -6 L203 -6 Q227 -7 230 9 Q232 18 236 53 Q240 50 249 48 Q248 24 243 5 Q239 -20 204 -20 L171 -20 Q136 -21 137 13 L137 74 Q112 58 84 44 ZM15 71 Q13 76 8 82 Q7 84 6 85 Q50 137 77 207 L91 203 Q76 169 60 140 L60 -29 L47 -29 L47 116 Q32 92 15 71 Z" /><glyph glyph-name="uni533A" unicode="&#x533a;" d="M27 192 L236 192 L236 179 L41 179 L41 -1 L240 -1 L240 -14 L27 -14 L27 192 ZM69 148 L78 157 Q110 130 143 98 Q171 129 195 162 L207 154 Q183 120 153 89 Q199 48 219 28 L207 17 Q176 49 143 79 Q109 44 70 14 Q69 16 65 20 Q61 24 59 26 Q92 47 134 88 Q124 97 105 115 Q80 138 69 148 Z" /><glyph glyph-name="uni534E" unicode="&#x534e;" d="M89 111 Q86 117 82 123 Q115 133 141 145 L141 207 L155 207 L155 151 Q193 170 224 193 L233 183 Q197 157 155 136 L155 117 Q153 94 178 96 L204 96 Q226 95 229 113 Q231 118 232 133 Q233 137 233 138 Q236 137 242 135 Q245 134 246 134 Q244 117 241 106 Q236 82 207 83 L176 83 Q139 81 141 115 L141 130 Q137 128 128 125 Q117 121 89 111 ZM121 77 L135 77 L135 44 L246 44 L246 31 L135 31 L135 -30 L121 -30 L121 31 L10 31 L10 44 L121 44 L121 77 ZM16 121 Q14 126 8 133 Q50 161 84 210 L97 204 Q82 183 67 167 L67 76 L53 76 L53 152 Q35 135 16 121 Z" /><glyph glyph-name="uni534F" unicode="&#x534f;" d="M133 209 L147 209 Q146 181 146 158 L207 158 Q207 94 203 17 Q204 -24 168 -23 Q152 -23 141 -23 Q140 -16 139 -10 Q139 -11 138 -8 Q147 -9 166 -9 Q189 -11 189 16 Q193 89 193 145 L145 145 Q145 136 144 122 Q144 113 144 110 Q141 14 80 -29 Q76 -24 68 -19 Q126 19 130 108 Q131 113 131 126 Q132 139 132 145 L90 145 L90 158 L132 158 Q133 177 133 209 ZM34 209 L48 209 L48 136 L76 136 L76 123 L48 123 L48 -29 L34 -29 L34 123 L6 123 L6 136 L34 136 L34 209 ZM91 112 L103 109 Q92 73 77 44 Q69 47 64 49 Q80 80 91 112 ZM212 107 L225 113 Q229 105 236 90 Q247 67 252 54 L239 48 Q225 82 212 107 Z" /><glyph glyph-name="uni5355" unicode="&#x5355;" d="M8 34 L121 34 L121 65 L33 65 L33 172 L154 172 Q156 175 161 181 Q168 190 183 211 L195 204 Q182 186 170 172 L223 172 L223 65 L135 65 L135 34 L248 34 L248 21 L135 21 L135 -31 L121 -31 L121 21 L8 21 L8 34 ZM135 113 L135 78 L210 78 L210 113 L135 113 ZM46 113 L46 78 L121 78 L121 113 L46 113 ZM210 159 L135 159 L135 125 L210 125 L210 159 ZM46 159 L46 125 L121 125 L121 159 L46 159 ZM60 203 L71 211 Q74 207 83 198 Q97 184 100 180 L88 172 Q74 191 60 203 Z" /><glyph glyph-name="uni5373" unicode="&#x5373;" d="M124 -4 Q122 -1 115 7 Q108 17 104 22 Q60 0 41 -8 Q39 -9 36 -12 Q30 -16 27 -18 L17 -6 Q25 1 24 12 L24 193 L118 193 L118 77 L38 77 L38 3 Q45 6 66 17 Q87 28 96 32 Q93 36 88 43 Q80 52 77 56 L88 63 Q119 25 135 2 L124 -4 ZM152 189 L234 189 L234 41 Q236 12 205 12 Q193 12 180 12 Q179 18 177 26 Q189 25 200 25 Q222 24 221 44 L221 176 L165 176 L165 -29 L152 -29 L152 189 ZM38 89 L104 89 L104 129 L38 129 L38 89 ZM38 181 L38 141 L104 141 L104 181 L38 181 Z" /><glyph glyph-name="uni538B" unicode="&#x538b;" d="M57 -1 L145 -1 L145 91 L76 91 L76 104 L145 104 L145 160 L159 160 L159 104 L237 104 L237 91 L159 91 L159 -1 L247 -1 L247 -15 L57 -15 L57 -1 ZM51 111 Q51 54 45 28 Q39 1 20 -26 Q19 -25 15 -23 Q8 -18 7 -17 Q26 8 31 32 Q37 56 37 106 L37 192 L246 192 L246 178 L51 178 L51 111 ZM186 60 L197 68 Q206 59 222 41 Q228 34 231 31 L219 22 Q203 42 186 60 Z" /><glyph glyph-name="uni539F" unicode="&#x539f;" d="M46 105 Q46 51 41 27 Q35 0 17 -29 Q15 -26 10 -23 Q7 -21 6 -20 Q22 3 27 29 Q33 55 33 106 L33 194 L246 194 L246 182 L153 182 L143 150 L226 150 L226 56 L162 56 L162 0 Q162 -25 135 -26 Q121 -26 106 -26 Q106 -23 104 -17 Q103 -14 103 -13 Q119 -13 132 -13 Q150 -13 149 0 L149 56 L78 56 L78 150 L129 150 L138 182 L46 182 L46 105 ZM91 137 L91 109 L213 109 L213 137 L91 137 ZM91 97 L91 68 L213 68 L213 97 L91 97 ZM101 40 L112 31 Q89 6 59 -18 Q58 -17 55 -13 Q52 -10 50 -8 Q74 8 101 40 ZM238 -16 Q227 -5 205 14 Q194 25 188 30 L197 39 Q217 22 248 -7 L238 -16 Z" /><glyph glyph-name="uni53BB" unicode="&#x53bb;" d="M121 210 L135 210 L135 164 L227 164 L227 151 L135 151 L135 91 L248 91 L248 78 L113 78 L124 74 Q97 40 57 -1 Q93 0 171 1 Q160 0 195 1 Q174 23 155 44 L166 52 Q186 31 221 -4 Q214 2 234 -18 L222 -27 Q219 -24 213 -18 Q208 -12 206 -10 Q119 -12 61 -15 Q52 -15 38 -17 L30 -2 Q42 2 51 11 Q82 42 108 78 L8 78 L8 91 L121 91 L121 151 L28 151 L28 164 L121 164 L121 210 Z" /><glyph glyph-name="uni53C2" unicode="&#x53c2;" d="M7 66 Q57 87 83 112 L13 112 L13 123 L95 123 Q100 129 108 140 Q111 143 112 145 L125 140 Q119 132 112 123 L243 123 L243 112 L169 112 Q195 80 248 62 Q243 56 240 50 Q186 71 153 112 L102 112 Q74 80 15 55 Q14 57 11 61 Q8 65 7 66 ZM212 137 Q206 143 197 149 Q127 149 59 147 Q44 147 39 146 L34 160 Q47 165 57 171 Q84 188 112 212 L126 204 Q87 176 60 159 Q118 161 182 161 Q156 179 148 185 L158 194 Q193 170 222 148 L212 137 ZM209 40 L218 30 Q132 -13 35 -31 Q33 -25 29 -19 Q131 0 209 40 ZM176 67 L185 57 Q113 20 45 6 Q43 12 39 18 Q115 36 176 67 ZM149 95 L158 86 Q111 61 50 44 Q47 50 43 56 Q98 70 149 95 Z" /><glyph glyph-name="uni53CA" unicode="&#x53ca;" d="M6 -15 Q72 43 70 179 L21 179 L21 193 L196 193 L196 177 L169 125 L218 125 L218 111 Q195 56 163 25 Q189 3 247 -12 Q244 -16 240 -23 Q239 -25 238 -26 Q181 -7 152 16 Q124 -6 68 -30 Q67 -28 64 -23 Q61 -19 59 -16 Q113 2 141 25 Q105 59 81 124 Q74 32 18 -26 Q15 -21 6 -15 ZM154 125 L182 179 L85 179 Q85 174 84 165 Q84 156 83 151 Q112 71 152 35 Q182 62 202 111 L154 111 L154 125 Z" /><glyph glyph-name="uni53CD" unicode="&#x53cd;" d="M4 -19 Q41 22 38 115 L38 193 Q123 194 228 203 L232 190 Q152 183 52 180 L52 132 L221 132 L221 118 Q199 59 158 24 Q191 1 249 -13 Q245 -21 240 -28 Q181 -9 146 15 Q109 -9 54 -30 Q53 -28 50 -24 Q46 -18 45 -16 Q101 0 135 24 Q97 59 78 119 L52 119 L52 115 Q55 21 16 -28 Q13 -25 4 -19 ZM207 119 L92 119 Q111 63 146 33 Q187 67 207 119 Z" /><glyph glyph-name="uni53D1" unicode="&#x53d1;" d="M33 153 L93 153 Q100 180 104 210 L119 208 Q117 200 114 183 Q110 163 108 153 L247 153 L247 140 L104 140 Q99 121 93 103 L218 103 L218 91 Q200 46 164 17 Q189 0 246 -13 Q243 -17 239 -25 Q238 -26 238 -27 Q184 -12 152 8 Q124 -8 59 -30 Q58 -26 53 -20 Q52 -17 51 -16 Q115 0 141 17 Q106 46 91 91 L88 91 Q63 29 16 -18 Q14 -15 9 -11 Q6 -8 5 -7 Q68 52 90 140 L19 140 L19 156 Q30 179 37 201 L51 197 Q50 193 47 186 Q38 163 33 153 ZM204 91 L104 91 Q119 51 153 25 Q188 52 204 91 ZM164 196 L172 206 Q194 192 215 177 L206 166 Q178 187 164 196 Z" /><glyph glyph-name="uni53D6" unicode="&#x53d6;" d="M8 9 L6 23 Q18 25 28 26 L28 185 L12 185 L12 197 L124 197 L124 185 L109 185 L109 38 Q122 41 134 42 Q134 36 134 30 Q130 30 123 28 Q114 27 109 26 L109 -29 L96 -29 L96 24 Q54 18 8 9 ZM131 174 L131 186 L237 186 L237 173 Q224 85 195 41 Q215 11 249 -13 Q245 -17 239 -25 Q201 8 186 29 Q167 3 128 -28 Q127 -27 124 -23 Q120 -19 118 -17 Q157 10 179 41 Q149 88 140 174 L131 174 ZM223 174 L154 174 Q161 98 187 54 Q213 96 223 174 ZM41 28 Q69 33 96 36 L96 77 L41 77 L41 28 ZM41 185 L41 143 L96 143 L96 185 L41 185 ZM41 131 L41 89 L96 89 L96 131 L41 131 Z" /><glyph glyph-name="uni53D7" unicode="&#x53d7;" d="M46 70 L46 83 L199 83 L199 69 Q176 32 142 11 Q182 -5 247 -12 Q243 -20 240 -27 Q168 -16 128 3 Q87 -17 17 -30 Q14 -24 9 -17 Q78 -5 114 12 Q85 31 62 70 L46 70 ZM16 127 L167 127 Q185 153 199 177 L213 171 Q200 151 182 127 L240 127 L240 81 L226 81 L226 114 L29 114 L29 81 L16 81 L16 127 ZM184 70 L78 70 Q100 37 128 19 Q163 40 184 70 ZM228 189 Q120 184 28 182 Q28 184 27 189 Q26 193 25 195 Q143 196 225 203 L228 189 ZM112 171 L125 176 Q128 170 133 158 Q139 146 142 140 L129 134 Q127 139 123 148 Q121 154 112 171 ZM41 166 L52 172 Q64 157 74 139 L62 133 Q55 146 41 166 Z" /><glyph glyph-name="uni53D8" unicode="&#x53d8;" d="M36 67 L36 80 L202 80 L202 65 Q178 32 142 10 Q182 -6 246 -13 Q245 -16 243 -20 Q240 -25 239 -27 Q171 -18 127 2 Q84 -17 18 -30 Q15 -24 10 -17 Q74 -5 114 10 Q85 30 61 67 L36 67 ZM116 207 L130 211 Q136 198 142 180 L131 177 L244 177 L244 164 L164 164 L164 97 L151 97 L151 164 L105 164 L105 96 L92 96 L92 164 L11 164 L11 177 L129 177 Q123 192 116 207 ZM186 67 L78 67 Q99 36 128 18 Q160 34 186 67 ZM187 135 L197 144 Q210 133 235 107 Q242 100 246 96 L235 86 Q219 104 187 135 ZM55 144 L66 135 Q47 113 20 87 Q15 93 9 97 Q32 116 55 144 Z" /><glyph glyph-name="uni53EA" unicode="&#x53ea;" d="M40 194 L218 194 L218 72 L40 72 L40 194 ZM54 180 L54 85 L204 85 L204 180 L54 180 ZM89 55 L102 47 Q67 8 20 -29 Q12 -21 8 -18 Q55 15 89 55 ZM236 -28 Q214 -7 174 27 Q160 39 152 46 L163 56 Q176 44 201 22 Q232 -4 247 -17 L236 -28 Z" /><glyph glyph-name="uni53EF" unicode="&#x53ef;" d="M35 134 L139 134 L139 36 L49 36 L49 16 L35 16 L35 134 ZM8 190 L249 190 L249 177 L207 177 L207 5 Q208 -24 174 -24 Q159 -25 136 -25 Q136 -23 135 -20 Q134 -14 133 -10 Q155 -11 170 -11 Q194 -12 193 9 L193 177 L8 177 L8 190 ZM49 122 L49 49 L126 49 L126 122 L49 122 Z" /><glyph glyph-name="uni53F0" unicode="&#x53f0;" d="M215 78 L215 -29 L201 -29 L201 -13 L55 -13 L55 -29 L41 -29 L41 78 L215 78 ZM55 65 L55 0 L201 0 L201 65 L55 65 ZM237 94 Q228 105 217 115 Q121 114 45 109 Q32 109 21 106 L14 121 Q26 127 33 133 Q79 172 111 211 L125 204 Q91 166 42 123 Q81 124 173 127 Q194 128 205 128 Q199 135 185 148 Q172 161 165 167 L176 175 Q193 160 225 128 Q242 112 250 104 L237 94 Z" /><glyph glyph-name="uni53F8" unicode="&#x53f8;" d="M35 99 L165 99 L165 16 L49 16 L49 0 L35 0 L35 99 ZM49 87 L49 29 L152 29 L152 87 L49 87 ZM10 148 L195 148 L195 135 L10 135 L10 148 ZM24 184 L24 197 L235 197 L235 8 Q235 -27 202 -26 Q183 -26 159 -26 Q159 -23 157 -16 Q156 -13 156 -11 Q171 -12 198 -12 Q222 -12 221 8 L221 184 L24 184 Z" /><glyph glyph-name="uni5408" unicode="&#x5408;" d="M43 75 L212 75 L212 -29 L198 -29 L198 -13 L57 -13 L57 -29 L43 -29 L43 75 ZM57 62 L57 0 L198 0 L198 62 L57 62 ZM239 105 Q165 141 129 189 Q89 141 17 102 Q16 104 13 109 Q10 113 8 115 Q86 153 128 211 L143 208 Q140 204 137 199 Q179 147 248 119 Q244 114 239 105 ZM58 124 L198 124 L198 111 L58 111 L58 124 Z" /><glyph glyph-name="uni540C" unicode="&#x540c;" d="M38 -26 L24 -26 L24 196 L232 196 L232 4 Q234 -24 202 -24 Q185 -25 167 -25 Q166 -18 164 -10 Q178 -11 197 -11 Q220 -12 218 6 L218 183 L38 183 L38 -26 ZM78 100 L178 100 L178 24 L78 24 L78 100 ZM91 88 L91 37 L165 37 L165 88 L91 88 ZM57 148 L198 148 L198 135 L57 135 L57 148 Z" /><glyph glyph-name="uni540D" unicode="&#x540d;" d="M110 210 L124 205 Q114 193 103 182 L224 182 L224 168 Q171 109 89 77 L224 77 L224 -30 L210 -30 L210 -13 L71 -13 L71 -30 L57 -30 L57 64 Q51 62 37 57 Q22 52 14 49 Q11 56 7 62 Q137 96 207 169 L90 169 Q84 163 76 156 Q94 141 114 122 L102 112 Q93 122 77 137 Q70 144 66 148 Q45 132 20 116 Q16 122 11 127 Q73 163 110 210 ZM71 63 L71 0 L210 0 L210 63 L71 63 Z" /><glyph glyph-name="uni540E" unicode="&#x540e;" d="M79 77 L224 77 L224 -27 L210 -27 L210 -11 L93 -11 L93 -27 L79 -27 L79 77 ZM51 115 Q51 63 45 35 Q39 7 19 -27 Q18 -26 15 -24 Q9 -20 7 -18 Q25 9 31 37 Q37 64 37 115 L37 188 Q133 190 227 202 L233 188 Q138 178 51 174 L51 135 L247 135 L247 122 L51 122 L51 115 ZM93 64 L93 0 L210 0 L210 64 L93 64 Z" /><glyph glyph-name="uni542B" unicode="&#x542b;" d="M42 61 L214 61 L214 -28 L201 -28 L201 -14 L55 -14 L55 -29 L42 -29 L42 61 ZM55 48 L55 -2 L201 -2 L201 48 L55 48 ZM240 115 Q166 144 128 191 Q92 145 15 112 Q14 113 13 115 Q9 121 7 124 Q92 159 128 212 L142 208 Q139 205 136 200 Q178 151 248 128 Q246 125 242 119 Q241 116 240 115 ZM50 102 L50 114 L198 114 L198 102 L159 67 Q157 69 154 71 Q150 74 148 75 L180 102 L50 102 ZM112 152 L122 160 Q125 156 132 149 Q140 139 144 134 L133 127 Q123 141 112 152 Z" /><glyph glyph-name="uni544A" unicode="&#x544a;" d="M43 66 L215 66 L215 -29 L201 -29 L201 -13 L57 -13 L57 -29 L43 -29 L43 66 ZM57 54 L57 0 L201 0 L201 54 L57 54 ZM126 211 L140 211 L140 170 L230 170 L230 157 L140 157 L140 111 L248 111 L248 98 L9 98 L9 111 L126 111 L126 157 L56 157 Q46 138 33 122 Q32 123 30 124 Q24 128 21 130 Q47 161 62 203 L76 199 Q73 192 67 178 Q64 173 63 170 L126 170 L126 211 Z" /><glyph glyph-name="uni5458" unicode="&#x5458;" d="M47 198 L209 198 L209 135 L47 135 L47 198 ZM60 186 L60 147 L196 147 L196 186 L60 186 ZM33 108 L223 108 L223 22 L210 22 L210 95 L46 95 L46 20 L33 20 L33 108 ZM239 -26 Q211 -12 159 10 Q137 19 127 24 Q111 -8 16 -31 Q13 -24 9 -17 Q126 2 122 55 Q123 63 123 82 L137 82 Q137 66 135 54 Q135 49 133 41 Q132 37 132 35 Q184 12 247 -13 L239 -26 Z" /><glyph glyph-name="uni548C" unicode="&#x548c;" d="M134 180 L238 180 L238 -22 L224 -22 L224 1 L147 1 L147 -22 L134 -22 L134 180 ZM147 167 L147 13 L224 13 L224 167 L147 167 ZM10 134 L57 134 L57 178 Q36 177 15 175 Q14 183 12 188 Q62 191 108 196 L112 183 Q105 183 91 181 Q77 180 70 179 L70 134 L116 134 L116 122 L70 122 L70 86 L77 92 Q86 85 102 69 Q111 61 115 57 L105 47 Q88 66 70 82 L70 -28 L57 -28 L57 97 Q42 54 13 18 Q11 23 6 33 Q40 74 56 122 L10 122 L10 134 Z" /><glyph glyph-name="uni54C1" unicode="&#x54c1;" d="M45 199 L211 199 L211 113 L45 113 L45 199 ZM146 80 L236 80 L236 -29 L223 -29 L223 -13 L160 -13 L160 -29 L146 -29 L146 80 ZM20 80 L109 80 L109 -29 L96 -29 L96 -13 L33 -13 L33 -29 L20 -29 L20 80 ZM58 186 L58 126 L198 126 L198 186 L58 186 ZM160 67 L160 0 L223 0 L223 67 L160 67 ZM33 67 L33 0 L96 0 L96 67 L33 67 Z" /><glyph glyph-name="uni54CD" unicode="&#x54cd;" d="M19 177 L74 177 L74 10 L61 10 L61 29 L32 29 L32 6 L19 6 L19 177 ZM100 174 L144 174 Q145 178 147 186 Q151 202 153 210 L166 208 Q165 204 163 197 Q159 182 156 174 L233 174 L233 0 Q234 -24 209 -26 Q197 -26 182 -26 Q182 -24 181 -20 Q180 -15 179 -13 Q187 -14 205 -14 Q222 -15 221 1 L221 162 L112 162 L112 -29 L100 -29 L100 174 ZM136 126 L197 126 L197 28 L136 28 L136 126 ZM32 165 L32 41 L61 41 L61 165 L32 165 ZM148 114 L148 40 L185 40 L185 114 L148 114 Z" /><glyph glyph-name="uni54D2" unicode="&#x54d2;" d="M16 184 L73 184 L73 26 L29 26 L29 3 L16 3 L16 184 ZM142 152 L185 152 Q187 176 187 206 L200 206 Q200 188 198 152 L247 152 L247 140 L197 140 Q196 117 192 99 L198 103 Q224 69 249 32 L237 24 Q223 46 194 87 Q191 91 190 93 Q181 56 145 19 Q140 25 134 29 Q183 72 184 140 L142 140 L142 152 ZM29 172 L29 38 L60 38 L60 172 L29 172 ZM193 -7 Q221 -9 250 -7 Q247 -13 245 -21 Q212 -21 191 -20 Q140 -21 116 11 Q102 0 82 -24 L73 -14 Q79 -8 89 1 Q104 16 110 22 L110 113 L85 113 L85 125 L123 125 L123 21 Q142 -8 193 -7 ZM116 156 Q107 179 95 201 L107 207 Q108 204 112 198 Q123 175 129 162 L116 156 Z" /><glyph glyph-name="uni5546" unicode="&#x5546;" d="M67 161 L78 168 Q81 164 87 157 Q98 142 101 137 L89 130 L149 130 Q152 134 157 141 Q163 149 175 168 L187 162 Q177 145 165 130 L228 130 L228 1 Q229 -24 200 -24 Q187 -24 170 -24 Q170 -22 169 -20 Q169 -14 167 -10 Q179 -11 197 -11 Q216 -12 215 3 L215 118 L40 118 L40 -29 L27 -29 L27 130 L88 130 Q85 136 73 153 Q69 158 67 161 ZM175 6 L80 6 L80 71 L175 71 L175 6 ZM117 207 L130 211 Q131 208 133 201 Q138 188 141 181 L248 181 L248 169 L8 169 L8 181 L125 181 Q122 193 117 207 ZM93 59 L93 18 L163 18 L163 59 L93 59 ZM102 111 L112 102 Q80 78 57 63 Q56 66 52 71 Q50 73 49 74 Q80 92 102 111 ZM143 102 L152 111 Q180 95 206 76 L198 65 Q174 83 143 102 Z" /><glyph glyph-name="uni56DE" unicode="&#x56de;" d="M22 195 L234 195 L234 -28 L221 -28 L221 -11 L35 -11 L35 -28 L22 -28 L22 195 ZM35 183 L35 0 L221 0 L221 183 L35 183 ZM78 138 L178 138 L178 47 L78 47 L78 138 ZM91 126 L91 59 L165 59 L165 126 L91 126 Z" /><glyph glyph-name="uni56E0" unicode="&#x56e0;" d="M24 196 L232 196 L232 -29 L218 -29 L218 -13 L37 -13 L37 -29 L24 -29 L24 196 ZM37 183 L37 0 L218 0 L218 183 L37 183 ZM121 168 L135 168 L135 126 L197 126 L197 114 L134 114 Q134 103 131 91 Q172 58 203 32 L192 21 Q175 37 144 65 Q133 74 128 79 Q115 41 59 14 Q57 17 52 25 Q50 26 50 27 Q121 54 121 114 L59 114 L59 126 L121 126 L121 168 Z" /><glyph glyph-name="uni56E2" unicode="&#x56e2;" d="M22 197 L235 197 L235 -29 L221 -29 L221 -17 L35 -17 L35 -29 L22 -29 L22 197 ZM35 185 L35 -5 L221 -5 L221 185 L35 185 ZM53 136 L150 136 L150 172 L163 172 L163 136 L207 136 L207 123 L163 123 L163 41 Q165 12 132 12 Q116 12 105 12 Q105 14 104 19 Q103 23 102 25 Q118 25 130 25 Q151 24 150 42 L150 120 Q121 69 55 29 Q51 35 46 41 Q106 74 140 123 L53 123 L53 136 Z" /><glyph glyph-name="uni56F4" unicode="&#x56f4;" d="M22 196 L234 196 L234 -29 L221 -29 L221 -17 L35 -17 L35 -30 L22 -30 L22 196 ZM35 184 L35 -6 L221 -6 L221 184 L35 184 ZM56 152 L114 152 L114 174 L127 174 L127 152 L199 152 L199 141 L127 141 L127 115 L190 115 L190 104 L127 104 L127 77 L197 77 Q197 66 195 50 Q196 51 195 46 Q193 22 168 22 Q158 22 145 22 Q145 29 143 35 Q148 35 157 34 Q163 34 166 34 Q182 33 182 47 Q183 50 183 56 Q184 63 184 66 L127 66 L127 2 L114 2 L114 66 L51 66 L51 77 L114 77 L114 104 L62 104 L62 115 L114 115 L114 141 L56 141 L56 152 Z" /><glyph glyph-name="uni56FD" unicode="&#x56fd;" d="M22 197 L235 197 L235 -29 L221 -29 L221 -16 L35 -16 L35 -29 L22 -29 L22 197 ZM35 185 L35 -4 L221 -4 L221 185 L35 185 ZM61 104 L121 104 L121 143 L56 143 L56 155 L200 155 L200 143 L134 143 L134 104 L194 104 L194 92 L134 92 L134 37 L204 37 L204 26 L52 26 L52 37 L121 37 L121 92 L61 92 L61 104 ZM153 72 L162 80 Q163 79 164 78 Q180 65 188 56 L178 47 Q165 62 153 72 Z" /><glyph glyph-name="uni56FE" unicode="&#x56fe;" d="M20 200 L235 200 L235 -29 L222 -29 L222 -17 L33 -17 L33 -29 L20 -29 L20 200 ZM33 188 L33 -4 L222 -4 L222 188 L33 188 ZM57 114 Q54 119 49 123 Q80 147 102 179 L113 173 Q111 170 105 163 Q102 160 101 158 L192 158 L192 146 Q172 122 145 106 Q174 94 211 88 Q208 82 206 76 Q166 84 133 99 Q98 81 50 71 Q47 77 44 83 Q88 90 121 106 Q101 119 83 137 Q80 135 74 129 Q72 126 57 114 ZM177 147 L92 147 L91 146 Q109 125 133 112 Q159 127 177 147 ZM66 29 L70 41 Q132 32 184 22 L180 10 Q115 24 66 29 ZM92 62 L96 74 Q107 72 132 68 Q158 63 168 61 L164 50 Q128 58 92 62 Z" /><glyph glyph-name="uni5728" unicode="&#x5728;" d="M103 210 L117 208 Q111 190 104 175 L248 175 L248 162 L98 162 Q84 130 63 103 L63 -28 L49 -28 L49 87 Q30 65 16 54 Q13 59 7 65 Q60 111 83 162 L18 162 L18 175 L89 175 Q97 191 103 210 ZM154 142 L167 142 L167 92 L234 92 L234 80 L167 80 L167 2 L248 2 L248 -9 L75 -9 L75 2 L154 2 L154 80 L88 80 L88 92 L154 92 L154 142 Z" /><glyph glyph-name="uni5730" unicode="&#x5730;" d="M104 178 L118 178 L118 123 L162 139 L162 209 L175 209 L175 143 L236 165 Q236 159 235 148 Q234 101 233 91 Q232 53 205 55 Q195 55 187 55 Q187 59 186 65 Q185 67 185 68 Q194 68 202 68 Q219 66 220 90 Q222 126 222 147 L175 130 L175 23 L162 23 L162 126 L118 110 L118 16 Q115 -10 145 -7 L199 -7 Q229 -9 232 12 Q235 27 237 46 Q239 45 241 44 Q246 42 250 41 Q250 39 249 36 Q247 16 244 6 Q240 -21 203 -20 L141 -20 Q102 -22 104 12 L104 105 L83 98 L81 111 L104 119 L104 178 ZM9 0 L5 12 Q24 17 41 22 L41 126 L12 126 L12 139 L41 139 L41 209 L55 209 L55 139 L82 139 L82 126 L55 126 L55 26 Q61 28 75 33 Q84 35 89 37 Q89 36 90 31 Q91 27 91 25 Q74 19 9 0 Z" /><glyph glyph-name="uni5740" unicode="&#x5740;" d="M172 210 L185 210 L185 131 L242 131 L242 118 L185 118 L185 -1 L249 -1 L249 -14 L76 -14 L76 -1 L114 -1 L114 158 L127 158 L127 -1 L172 -1 L172 210 ZM12 7 L6 21 Q23 26 45 33 L45 130 L10 130 L10 143 L45 143 L45 209 L59 209 L59 143 L92 143 L92 130 L59 130 L59 38 Q63 40 73 43 Q88 48 96 51 Q95 47 97 37 Q56 24 12 7 Z" /><glyph glyph-name="uni5747" unicode="&#x5747;" d="M105 106 Q104 107 101 109 Q94 113 91 114 Q121 153 138 209 L152 205 Q150 200 147 190 Q141 175 138 168 L240 168 Q237 57 236 18 Q236 -24 190 -23 Q166 -23 151 -23 Q151 -19 149 -11 Q148 -9 148 -8 Q160 -9 190 -9 Q222 -11 222 20 Q222 29 223 57 Q226 144 226 155 L132 155 Q120 128 105 106 ZM13 0 L8 15 Q13 17 23 21 Q37 26 45 29 L45 133 L11 133 L11 145 L45 145 L45 208 L59 208 L59 145 L91 145 L91 133 L59 133 L59 34 Q77 42 95 48 Q95 39 96 33 Q60 21 13 0 ZM111 18 L105 32 Q124 39 184 64 Q197 70 204 73 Q204 68 206 58 Q169 44 111 18 ZM129 116 L139 123 Q146 117 158 105 Q170 94 177 87 L165 77 Q158 85 142 103 Q133 112 129 116 Z" /><glyph glyph-name="uni574F" unicode="&#x574f;" d="M97 180 L97 193 L246 193 L246 180 L180 180 Q149 80 86 12 Q84 14 80 17 Q76 21 74 22 Q137 86 165 180 L97 180 ZM10 19 L6 33 Q13 36 25 41 Q38 46 44 48 L44 135 L10 135 L10 148 L44 148 L44 207 L58 207 L58 148 L91 148 L91 135 L58 135 L58 54 Q64 56 76 62 Q86 66 91 68 Q91 61 93 55 Q59 41 10 19 ZM159 123 L173 123 L173 -29 L159 -29 L159 123 ZM185 105 L196 112 Q200 106 208 95 Q235 56 249 34 L237 26 Q211 68 185 105 Z" /><glyph glyph-name="uni575A" unicode="&#x575a;" d="M110 179 L110 191 L230 191 L230 179 Q212 139 184 117 Q206 101 247 91 Q247 90 246 89 Q242 82 240 78 Q194 92 173 108 Q148 92 110 78 Q107 85 102 91 Q139 103 161 117 Q136 140 123 179 L110 179 ZM121 73 L135 73 L135 48 L225 48 L225 36 L135 36 L135 -4 L248 -4 L248 -16 L8 -16 L8 -4 L121 -4 L121 36 L30 36 L30 48 L121 48 L121 73 ZM216 179 L137 179 Q151 143 173 125 Q198 144 216 179 ZM79 206 L92 206 L92 75 L79 75 L79 206 ZM26 196 L39 196 L39 81 L26 81 L26 196 Z" /><glyph glyph-name="uni578B" unicode="&#x578b;" d="M19 196 L144 196 L144 184 L117 184 L117 138 L153 138 L153 126 L117 126 L117 72 L104 72 L104 126 L58 126 Q56 92 25 65 Q21 71 16 74 Q43 97 46 126 L9 126 L9 138 L47 138 Q47 147 47 158 L47 184 L19 184 L19 196 ZM122 63 L135 63 L135 44 L226 44 L226 32 L135 32 L135 -6 L248 -6 L248 -18 L8 -18 L8 -6 L122 -6 L122 32 L31 32 L31 44 L122 44 L122 63 ZM232 206 L232 99 Q233 69 207 70 Q195 69 177 69 Q177 72 176 76 Q175 81 174 83 Q179 82 201 82 Q221 80 219 101 L219 206 L232 206 ZM60 158 Q60 147 59 138 L104 138 L104 184 L60 184 L60 158 ZM168 191 L181 191 L181 110 L168 110 L168 191 Z" /><glyph glyph-name="uni57DF" unicode="&#x57df;" d="M143 -29 Q138 -24 132 -19 Q162 4 183 33 Q175 60 172 124 Q172 137 171 152 L84 152 L84 164 L171 164 Q171 186 171 210 L184 210 Q184 189 184 164 L246 164 L246 152 L185 152 Q185 137 185 125 Q188 78 193 48 Q213 79 226 121 L238 116 Q221 67 197 30 Q204 7 213 -4 Q219 -13 225 -12 Q231 -13 233 -1 Q236 9 237 35 Q243 32 249 30 Q247 5 244 -7 Q240 -28 225 -27 Q213 -27 204 -14 Q194 -1 187 17 Q175 0 143 -29 ZM90 121 L148 121 L148 50 L90 50 L90 121 ZM9 3 L6 17 Q12 18 23 22 Q33 25 38 26 L38 128 L8 128 L8 140 L38 140 L38 210 L51 210 L51 140 L78 140 L78 128 L51 128 L51 30 Q65 35 78 39 Q78 29 79 26 Q40 14 9 3 ZM102 110 L102 62 L136 62 L136 110 L102 110 ZM75 0 L71 12 Q88 15 128 22 Q148 26 157 28 Q157 22 157 15 Q148 13 126 9 Q91 2 75 0 ZM225 175 Q219 182 206 193 Q202 196 200 198 L208 206 Q222 196 234 185 L225 175 Z" /><glyph glyph-name="uni57FA" unicode="&#x57fa;" d="M9 84 L59 84 L59 172 L17 172 L17 184 L59 184 L59 210 L72 210 L72 184 L184 184 L184 210 L198 210 L198 184 L240 184 L240 172 L198 172 L198 84 L247 84 L247 72 L170 72 Q199 42 248 25 Q247 23 245 19 Q242 15 241 13 Q181 37 155 72 L100 72 Q69 36 16 9 Q13 15 8 21 Q56 42 84 72 L9 72 L9 84 ZM122 59 L135 59 L135 35 L193 35 L193 24 L135 24 L135 -5 L232 -5 L232 -16 L23 -16 L23 -5 L122 -5 L122 24 L63 24 L63 35 L122 35 L122 59 ZM72 106 L72 84 L184 84 L184 106 L72 106 ZM72 139 L72 117 L184 117 L184 139 L72 139 ZM72 172 L72 150 L184 150 L184 172 L72 172 Z" /><glyph glyph-name="uni5835" unicode="&#x5835;" d="M87 123 L147 123 L147 163 L104 163 L104 174 L147 174 L147 208 L160 208 L160 174 L195 174 L195 163 L160 163 L160 123 L170 123 Q204 153 231 191 L243 184 Q215 146 189 123 L249 123 L249 111 L175 111 Q157 96 135 83 L230 83 L230 -29 L216 -29 L216 -15 L128 -15 L128 -29 L115 -29 L115 70 Q99 61 80 52 Q77 58 73 63 Q121 85 155 111 L87 111 L87 123 ZM9 0 L7 12 Q10 13 17 14 Q22 15 42 19 L42 134 L9 134 L9 146 L42 146 L42 209 L55 209 L55 146 L85 146 L85 134 L55 134 L55 22 Q74 25 91 30 Q91 23 91 16 Q69 12 24 2 Q14 0 9 0 ZM128 71 L128 38 L216 38 L216 71 L128 71 ZM128 27 L128 -4 L216 -4 L216 27 L128 27 Z" /><glyph glyph-name="uni585E" unicode="&#x585e;" d="M239 15 Q185 31 157 68 L99 68 Q70 32 16 13 Q15 15 11 20 Q9 23 8 24 Q59 41 84 68 L14 68 L14 79 L84 79 L84 101 L31 101 L31 112 L84 112 L84 134 L44 134 L44 145 L84 145 L84 163 L98 163 L98 145 L158 145 L158 163 L172 163 L172 145 L213 145 L213 134 L172 134 L172 112 L226 112 L226 101 L172 101 L172 79 L243 79 L243 68 L172 68 Q199 39 247 27 Q245 24 241 18 Q240 16 239 15 ZM121 54 L135 54 L135 35 L187 35 L187 24 L135 24 L135 -6 L228 -6 L228 -17 L28 -17 L28 -6 L121 -6 L121 24 L69 24 L69 35 L121 35 L121 54 ZM119 209 L132 211 Q135 196 138 185 L239 185 L239 144 L226 144 L226 174 L29 174 L29 142 L16 142 L16 185 L124 185 Q123 194 119 209 ZM98 101 L98 79 L158 79 L158 101 L98 101 ZM98 134 L98 112 L158 112 L158 134 L98 134 Z" /><glyph glyph-name="uni5904" unicode="&#x5904;" d="M4 75 Q37 137 51 208 L66 206 Q60 182 53 159 L121 159 L121 144 Q113 79 82 35 Q108 5 142 -1 Q184 -10 250 -5 Q249 -8 247 -14 Q246 -18 245 -21 Q165 -22 141 -15 Q101 -8 74 24 Q55 -1 16 -30 Q11 -24 6 -19 Q44 7 66 35 Q45 65 35 108 Q27 87 15 66 Q8 73 4 75 ZM107 146 L49 146 Q46 137 43 129 Q53 78 74 47 Q101 88 107 146 ZM161 208 L174 208 L174 129 L182 137 Q212 116 244 92 L234 80 Q207 102 174 125 L174 9 L161 9 L161 208 Z" /><glyph glyph-name="uni590D" unicode="&#x590d;" d="M44 156 L220 156 L220 77 L44 77 L44 156 ZM241 -27 Q178 -17 136 -2 Q92 -19 29 -30 Q26 -24 22 -18 Q77 -9 119 3 Q93 14 67 36 Q42 15 16 1 Q13 6 8 12 Q56 36 86 73 L100 70 Q92 61 86 53 L220 53 L220 40 Q192 19 154 3 Q194 -7 247 -14 Q247 -15 245 -17 Q242 -24 241 -27 ZM57 111 L57 88 L207 88 L207 111 L57 111 ZM16 131 Q12 136 7 142 Q42 168 67 211 L81 208 Q75 199 70 191 L245 191 L245 179 L61 179 Q42 152 16 131 ZM57 145 L57 122 L207 122 L207 145 L57 145 ZM201 42 L79 42 Q108 19 136 9 Q168 20 201 42 Z" /><glyph glyph-name="uni591A" unicode="&#x591a;" d="M157 115 L169 108 Q157 98 145 89 L238 89 L238 75 Q166 -5 22 -30 Q21 -28 19 -24 Q17 -19 16 -17 Q151 4 221 77 L127 77 Q116 68 104 62 Q112 56 128 45 Q138 38 143 34 L133 24 Q112 42 92 55 Q67 41 37 29 Q29 42 29 42 Q102 69 157 115 ZM127 213 L142 209 Q129 197 114 186 L227 186 L227 173 Q157 108 18 73 Q17 76 14 83 Q12 85 12 86 Q139 116 208 173 L98 173 Q92 169 84 164 Q105 152 125 137 L116 127 Q109 132 97 140 Q82 151 73 157 Q65 152 46 142 Q37 138 32 135 Q29 141 24 147 Q84 172 127 213 Z" /><glyph glyph-name="uni5927" unicode="&#x5927;" d="M20 -28 Q18 -26 15 -23 Q11 -18 9 -16 Q114 34 119 127 L10 127 L10 141 L120 141 Q123 174 122 209 L136 209 Q136 164 135 141 L246 141 L246 127 L135 127 Q150 30 248 -11 Q239 -21 238 -24 Q144 19 128 104 Q117 19 20 -28 Z" /><glyph glyph-name="uni5931" unicode="&#x5931;" d="M19 -29 Q15 -23 9 -16 Q107 14 119 77 L10 77 L10 90 L122 90 Q126 111 127 147 L57 147 Q47 128 33 110 Q29 112 20 118 Q52 157 65 199 L78 195 Q72 177 63 160 L127 160 Q127 166 127 179 Q128 198 128 210 L143 210 Q143 202 142 185 Q142 168 141 160 L233 160 L233 147 L140 147 Q139 116 136 90 L247 90 L247 77 L139 77 Q158 9 247 -12 Q239 -22 238 -26 Q147 1 129 67 Q115 3 19 -29 Z" /><glyph glyph-name="uni5956" unicode="&#x5956;" d="M122 76 L136 76 Q135 66 133 57 L245 57 L245 45 L138 45 Q163 -3 246 -14 Q242 -20 238 -27 Q152 -13 128 37 Q116 -9 15 -31 Q14 -28 10 -21 Q9 -18 8 -17 Q107 0 116 45 L12 45 L12 57 L120 57 Q122 66 122 76 ZM110 133 Q105 138 99 142 Q136 172 157 210 L171 206 Q169 203 164 196 Q158 185 154 180 L234 180 L234 168 Q202 103 111 81 Q108 89 104 93 Q189 113 220 168 L144 168 Q141 164 136 159 Q144 154 158 141 Q165 136 168 133 L157 124 Q151 130 136 143 Q131 148 128 150 Q119 141 110 133 ZM8 108 Q13 110 25 116 Q56 129 72 137 L72 209 L86 209 L86 72 L72 72 L72 124 Q44 111 13 94 L8 108 ZM16 179 L26 187 Q53 162 63 151 L52 142 Q34 161 16 179 Z" /><glyph glyph-name="uni5982" unicode="&#x5982;" d="M143 180 L236 180 L236 -18 L222 -18 L222 0 L157 0 L157 -21 L143 -21 L143 180 ZM125 2 L114 -8 Q112 -6 108 -3 Q97 7 76 25 Q60 0 17 -29 Q11 -21 7 -17 Q50 11 65 34 Q56 42 38 57 Q27 66 22 70 Q33 106 41 144 L9 144 L9 158 L44 158 Q49 182 53 209 L68 207 Q64 183 58 158 L114 158 L114 145 Q109 76 84 37 Q94 30 112 13 Q121 6 125 2 ZM157 167 L157 13 L222 13 L222 167 L157 167 ZM101 144 L55 144 Q46 101 37 74 Q55 61 73 46 Q92 78 101 144 Z" /><glyph glyph-name="uni59D3" unicode="&#x59d3;" d="M101 11 L91 1 Q87 5 77 13 Q69 22 64 26 Q51 3 17 -24 Q15 -23 11 -19 Q8 -15 6 -14 Q37 10 53 35 Q52 36 50 38 Q37 50 16 68 Q26 103 33 144 L9 144 L9 157 L36 157 Q37 166 40 183 Q42 201 43 209 L57 208 Q54 181 49 157 L95 157 L95 144 Q88 70 70 38 Q81 29 98 14 Q100 12 101 11 ZM102 -8 L172 -8 L172 62 L112 62 L112 74 L172 74 L172 142 L131 142 Q124 120 115 98 L102 103 Q123 152 131 193 L144 190 Q140 171 135 155 L172 155 L172 209 L186 209 L186 155 L244 155 L244 142 L186 142 L186 74 L243 74 L243 62 L186 62 L186 -8 L249 -8 L249 -20 L102 -20 L102 -8 ZM81 144 L46 144 Q39 102 30 71 Q45 59 60 47 Q77 81 81 144 Z" /><glyph glyph-name="uni59D4" unicode="&#x59d4;" d="M230 -28 Q218 -24 194 -16 Q158 -4 141 0 Q93 -22 18 -29 Q16 -23 13 -15 Q83 -9 122 6 Q112 9 92 15 Q66 24 52 28 Q57 33 66 46 Q71 52 73 55 L8 55 L8 67 L82 67 Q88 75 97 90 Q99 93 100 95 L113 90 Q111 86 106 79 Q101 71 98 67 L248 67 L248 55 L196 55 Q183 28 156 8 Q197 -3 236 -15 L230 -28 ZM15 153 L121 153 L121 185 Q107 185 78 184 Q49 184 35 183 Q35 184 34 187 Q33 193 32 195 Q128 197 218 201 L221 189 Q208 189 181 187 Q150 186 134 185 L134 153 L241 153 L241 141 L144 141 Q186 110 248 100 Q245 94 242 87 Q171 102 134 136 L134 90 L121 90 L121 136 Q83 101 15 83 Q14 86 11 93 Q9 95 9 96 Q67 108 111 141 L15 141 L15 153 ZM139 14 Q166 30 181 55 L89 55 Q82 45 73 34 Q87 29 115 21 Q131 16 139 14 Z" /><glyph glyph-name="uni5A92" unicode="&#x5a92;" d="M87 -22 Q84 -16 79 -10 Q122 9 152 46 L88 46 L88 58 L161 58 L161 87 L113 87 L113 167 L88 167 L88 179 L113 179 L113 208 L126 208 L126 179 L209 179 L209 208 L222 208 L222 179 L248 179 L248 167 L222 167 L222 87 L174 87 L174 58 L249 58 L249 46 L183 46 Q210 10 253 -5 Q249 -12 245 -17 Q195 7 174 42 L174 -30 L161 -30 L161 42 Q134 3 87 -22 ZM9 144 L9 156 L31 156 Q35 181 38 209 L52 208 Q49 181 44 156 L84 156 L84 144 Q80 80 61 39 Q76 26 89 14 L79 3 L55 27 Q44 5 14 -25 Q12 -22 7 -17 Q6 -16 5 -15 Q30 8 45 36 Q30 51 14 66 Q24 108 29 144 L9 144 ZM28 69 Q40 59 51 48 Q68 86 71 144 L42 144 Q34 97 28 69 ZM126 167 L126 139 L209 139 L209 167 L126 167 ZM126 127 L126 99 L209 99 L209 127 L126 127 Z" /><glyph glyph-name="uni5B58" unicode="&#x5b58;" d="M95 212 L110 208 Q104 195 100 183 L248 183 L248 170 L94 170 Q79 137 60 108 L60 -29 L46 -29 L46 88 Q32 70 15 50 Q11 56 5 62 Q51 108 79 170 L14 170 L14 183 L84 183 Q90 197 95 212 ZM163 86 L215 124 L95 124 L95 137 L232 137 L232 122 L176 81 L176 68 L249 68 L249 56 L176 56 L176 0 Q178 -26 148 -26 Q136 -27 117 -27 Q117 -25 116 -22 Q115 -16 114 -12 Q130 -13 145 -13 Q164 -14 163 0 L163 56 L76 56 L76 68 L163 68 L163 86 Z" /><glyph glyph-name="uni5B66" unicode="&#x5b66;" d="M126 67 L180 98 L56 98 L56 111 L197 111 L197 95 L140 61 L140 51 L248 51 L248 38 L140 38 L140 1 Q141 -28 111 -28 Q96 -28 78 -28 Q78 -26 77 -23 Q76 -16 75 -12 Q90 -13 107 -13 Q128 -15 126 4 L126 38 L8 38 L8 51 L126 51 L126 67 ZM17 155 L240 155 L240 108 L226 108 L226 142 L31 142 L31 108 L17 108 L17 155 ZM184 158 L172 167 Q191 186 206 206 L218 197 Q213 191 202 179 Q190 165 184 158 ZM105 204 L117 210 Q131 192 144 171 L131 164 Q118 186 105 204 ZM37 197 L48 204 Q66 184 77 169 L65 160 Q55 175 37 197 Z" /><glyph glyph-name="uni5B89" unicode="&#x5b89;" d="M25 -29 Q24 -27 22 -23 Q19 -17 17 -15 Q83 -5 122 19 Q105 27 67 44 Q57 49 51 51 Q56 58 67 75 Q73 85 76 90 L7 90 L7 103 L84 103 Q87 108 92 118 Q102 138 108 148 L121 143 Q119 140 116 133 Q111 123 99 103 L249 103 L249 90 L197 90 Q182 49 149 22 Q158 18 174 11 Q193 3 231 -14 L223 -27 Q215 -23 199 -16 Q158 3 136 12 Q95 -14 25 -29 ZM70 56 Q82 51 108 40 Q126 32 135 28 Q168 54 182 90 L91 90 Q81 72 70 56 ZM114 205 L126 211 Q130 206 137 195 Q144 184 147 179 L136 173 L236 173 L236 131 L222 131 L222 160 L35 160 L35 131 L21 131 L21 173 L133 173 Q130 178 124 189 Q117 200 114 205 Z" /><glyph glyph-name="uni5B8C" unicode="&#x5b8c;" d="M10 -17 Q54 -2 68 12 Q82 27 83 63 L14 63 L14 75 L243 75 L243 63 L161 63 L161 10 Q159 -10 183 -8 L208 -8 Q229 -9 231 5 Q233 17 235 33 Q239 31 248 28 Q248 15 244 1 Q242 -22 208 -21 L182 -21 Q146 -22 147 7 L147 63 L97 63 Q102 -4 18 -29 Q17 -27 12 -20 Q11 -18 10 -17 ZM115 207 L128 211 Q135 196 141 182 L131 179 L236 179 L236 138 L222 138 L222 166 L34 166 L34 138 L20 138 L20 179 L127 179 Q126 181 124 187 Q118 201 115 207 ZM44 127 L214 127 L214 115 L44 115 L44 127 Z" /><glyph glyph-name="uni5B98" unicode="&#x5b98;" d="M205 137 L205 77 L65 77 L65 48 L214 48 L214 -28 L201 -28 L201 -14 L65 -14 L65 -30 L51 -30 L51 137 L205 137 ZM201 36 L65 36 L65 -2 L201 -2 L201 36 ZM65 125 L65 89 L191 89 L191 125 L65 125 ZM115 206 L128 211 Q136 196 141 181 L131 177 L239 177 L239 135 L225 135 L225 165 L31 165 L31 135 L17 135 L17 177 L128 177 Q122 192 115 206 Z" /><glyph glyph-name="uni5B9A" unicode="&#x5b9a;" d="M17 -29 Q16 -28 13 -24 Q9 -20 7 -18 Q49 18 55 86 L70 84 Q66 60 60 41 Q88 -2 127 -6 L127 109 L12 109 L12 121 L244 121 L244 109 L141 109 L141 62 L228 62 L228 49 L141 49 L141 -7 Q192 -9 248 -7 Q245 -15 243 -22 Q164 -22 135 -21 Q85 -19 55 26 Q43 -4 17 -29 ZM118 207 L133 210 Q134 207 136 200 Q139 187 140 180 L236 180 L236 137 L223 137 L223 167 L34 167 L34 138 L21 138 L21 180 L125 180 Q122 194 118 207 Z" /><glyph glyph-name="uni5B9E" unicode="&#x5b9e;" d="M17 -30 Q16 -26 11 -20 Q10 -17 9 -16 Q108 3 128 42 L11 42 L11 55 L134 55 Q144 82 144 146 L158 146 Q158 83 149 55 L246 55 L246 42 L144 42 Q143 41 142 38 Q140 34 138 32 Q149 27 169 18 Q215 -1 242 -13 L234 -26 Q208 -13 166 5 Q143 16 130 22 Q101 -11 17 -30 ZM114 205 L126 210 Q127 209 128 206 Q138 191 143 180 L132 175 L240 175 L240 133 L226 133 L226 162 L30 162 L30 133 L16 133 L16 175 L130 175 Q127 180 122 190 Q117 200 114 205 ZM86 69 Q64 83 38 95 L45 106 Q67 96 94 81 L86 69 ZM109 106 Q87 119 62 133 L69 143 Q84 135 109 122 Q114 119 117 118 L109 106 Z" /><glyph glyph-name="uni5BA3" unicode="&#x5ba3;" d="M46 109 L210 109 L210 19 L46 19 L46 109 ZM59 59 L59 31 L197 31 L197 59 L59 59 ZM59 98 L59 70 L197 70 L197 98 L59 98 ZM18 181 L125 181 Q122 192 117 209 L130 212 Q131 208 134 200 Q138 186 140 181 L239 181 L239 139 L225 139 L225 170 L31 170 L31 139 L18 139 L18 181 ZM9 -7 L249 -7 L249 -18 L9 -18 L9 -7 ZM50 145 L206 145 L206 134 L50 134 L50 145 Z" /><glyph glyph-name="uni5BB6" unicode="&#x5bb6;" d="M20 21 Q15 29 12 34 Q74 51 112 86 Q108 94 102 100 Q63 76 17 63 Q16 65 12 70 Q10 74 9 76 Q73 92 115 125 L41 125 L41 137 L215 137 L215 125 L134 125 Q124 116 112 108 Q125 93 136 72 Q181 92 213 110 L221 99 Q199 87 173 75 Q191 21 246 2 Q242 -3 237 -9 Q181 13 162 69 Q152 65 141 60 Q148 40 148 20 Q149 -26 112 -26 Q98 -26 82 -26 Q81 -23 80 -17 Q78 -14 78 -12 Q85 -12 96 -13 Q105 -13 109 -13 Q136 -15 135 19 Q135 32 132 44 Q90 0 18 -22 Q15 -16 10 -9 Q82 9 128 57 Q127 59 125 64 Q122 72 119 76 Q84 43 20 21 ZM116 207 L129 212 Q133 206 139 191 Q142 185 143 182 L132 178 L240 178 L240 141 L226 141 L226 166 L29 166 L29 141 L16 141 L16 178 L130 178 Q128 183 123 193 Q119 202 116 207 Z" /><glyph glyph-name="uni5BB9" unicode="&#x5bb9;" d="M49 56 L206 56 L206 -29 L193 -29 L193 -16 L63 -16 L63 -29 L49 -29 L49 56 ZM63 43 L63 -3 L193 -3 L193 43 L63 43 ZM118 208 L132 211 Q135 195 138 180 L237 180 L237 140 L223 140 L223 168 L33 168 L33 140 L19 140 L19 180 L124 180 Q123 188 119 205 Q118 207 118 208 ZM242 43 Q166 70 128 113 Q86 70 14 40 Q12 45 6 51 Q85 83 129 132 L143 129 Q140 125 137 122 Q178 78 249 55 Q244 48 242 43 ZM92 151 L101 140 Q62 118 27 100 Q21 109 18 112 Q63 132 92 151 ZM228 102 Q192 122 154 140 L161 151 Q174 145 199 133 Q223 121 236 114 L228 102 Z" /><glyph glyph-name="uni5BBD" unicode="&#x5bbd;" d="M163 158 L176 158 L176 137 L245 137 L245 125 L176 125 L176 106 L163 106 L163 125 L93 125 L93 106 L80 106 L80 125 L12 125 L12 137 L80 137 L80 158 L93 158 L93 137 L163 137 L163 158 ZM41 94 L211 94 L211 18 L198 18 L198 82 L55 82 L55 16 L41 16 L41 94 ZM118 207 L131 210 Q135 199 138 184 L238 184 L238 150 L225 150 L225 172 L31 172 L31 150 L17 150 L17 184 L124 184 Q121 193 118 207 ZM131 47 L145 47 L145 9 Q143 -11 167 -9 L201 -9 Q228 -10 229 3 Q232 12 233 27 Q239 24 247 22 Q246 15 243 0 Q238 -23 207 -22 L163 -22 Q130 -22 131 6 L131 47 ZM10 -17 Q74 -4 94 12 Q116 28 117 69 L131 69 Q137 -11 18 -30 Q17 -29 16 -26 Q14 -23 10 -17 Z" /><glyph glyph-name="uni5BF9" unicode="&#x5bf9;" d="M27 144 Q40 125 70 81 Q86 120 92 168 L13 168 L13 182 L106 182 L106 167 Q97 106 79 67 Q86 58 99 38 Q112 19 118 9 L105 1 Q100 8 90 24 Q78 43 72 52 Q52 15 16 -20 Q11 -14 5 -8 Q40 22 63 66 Q49 88 22 127 Q17 134 15 137 L27 144 ZM122 154 L205 154 L205 208 L219 208 L219 154 L250 154 L250 141 L219 141 L219 11 Q220 -25 185 -24 Q175 -25 152 -25 Q152 -16 149 -9 Q156 -10 182 -10 Q207 -12 205 13 L205 141 L122 141 L122 154 ZM127 106 L138 112 Q154 90 171 59 L158 52 Q146 76 127 106 Z" /><glyph glyph-name="uni5BFC" unicode="&#x5bfc;" d="M209 134 L49 134 L49 120 Q47 97 71 99 L201 99 Q225 98 229 116 Q229 117 230 119 Q232 131 233 138 Q234 137 237 136 Q240 135 246 133 Q244 122 241 110 Q235 86 204 87 L67 87 Q34 85 36 118 L36 198 L209 198 L209 134 ZM49 185 L49 147 L196 147 L196 185 L49 185 ZM182 74 L195 74 L195 56 L249 56 L249 44 L195 44 L195 6 Q196 -24 163 -25 Q145 -25 129 -25 Q129 -23 128 -17 Q126 -13 126 -10 Q138 -11 158 -11 Q183 -12 182 10 L182 44 L7 44 L7 56 L182 56 L182 74 ZM50 31 L60 40 Q92 13 103 2 L92 -6 Q82 3 58 24 Q52 29 50 31 Z" /><glyph glyph-name="uni5C06" unicode="&#x5c06;" d="M90 138 Q89 139 86 143 Q82 147 81 148 Q123 174 153 211 L165 205 Q163 203 159 198 Q154 191 142 180 L239 180 L239 167 Q192 110 91 87 Q90 90 84 99 Q177 119 222 167 L129 167 Q125 164 120 161 Q124 158 130 153 Q145 142 153 135 L142 126 Q133 135 114 151 Q115 150 111 153 Q102 146 90 138 ZM199 106 L213 106 L213 75 L250 75 L250 62 L213 62 L213 2 Q214 -24 183 -25 Q177 -25 167 -26 Q158 -26 154 -26 Q154 -24 153 -21 Q152 -15 151 -11 Q165 -12 180 -12 Q200 -13 199 5 L199 62 L82 62 L82 75 L199 75 L199 106 ZM5 42 Q37 72 56 92 L56 209 L69 209 L69 -30 L56 -30 L56 73 Q35 52 13 29 L5 42 ZM7 164 L18 170 Q20 166 25 157 Q42 128 49 114 L37 108 Q23 135 7 164 ZM108 46 L118 54 Q125 47 143 29 Q151 21 155 17 L144 8 Q124 30 108 46 Z" /><glyph glyph-name="uni5C0F" unicode="&#x5c0f;" d="M63 152 L78 147 Q54 81 23 23 Q16 28 8 31 Q40 82 63 152 ZM176 145 L189 151 Q208 117 249 34 L234 27 Q207 87 176 145 ZM123 207 L138 207 L138 4 Q139 -25 107 -26 Q91 -26 73 -26 Q72 -19 69 -11 Q85 -11 101 -11 Q125 -13 123 8 L123 207 Z" /><glyph glyph-name="uni5C55" unicode="&#x5c55;" d="M239 -23 Q150 -3 123 57 L93 57 L93 -11 L142 4 Q142 -1 142 -8 Q111 -18 99 -23 Q98 -23 96 -24 Q85 -28 83 -30 L74 -18 Q80 -13 80 0 L80 57 L44 57 Q41 6 18 -28 Q17 -27 13 -24 Q8 -20 7 -19 Q23 5 28 28 Q33 51 33 101 L33 198 L231 198 L231 146 L46 146 L46 111 Q46 81 45 69 L102 69 L102 101 L61 101 L61 113 L102 113 L102 135 L115 135 L115 113 L172 113 L172 135 L185 135 L185 113 L232 113 L232 101 L185 101 L185 69 L244 69 L244 57 L137 57 Q152 32 167 21 Q207 39 219 46 L226 35 Q199 21 178 13 Q200 -1 247 -11 Q245 -14 241 -20 Q240 -22 239 -23 ZM46 186 L46 158 L218 158 L218 186 L46 186 ZM115 101 L115 69 L172 69 L172 101 L115 101 Z" /><glyph glyph-name="uni5C5E" unicode="&#x5c5e;" d="M94 -3 L92 7 Q100 8 118 8 Q135 9 144 9 L144 35 L78 35 L78 -29 L65 -29 L65 45 L144 45 L144 64 L77 64 L77 105 L144 105 L144 124 Q129 124 101 123 Q76 123 65 123 L63 133 Q163 135 232 138 L234 127 Q195 125 156 125 L156 105 L224 105 L224 64 L156 64 L156 45 L240 45 L240 -1 Q242 -27 215 -27 Q204 -27 189 -27 Q189 -26 188 -22 Q187 -18 186 -16 Q194 -16 211 -16 Q229 -18 227 0 L227 35 L156 35 L156 10 Q162 10 174 11 Q185 11 191 12 Q190 13 189 16 Q186 20 185 24 L195 28 Q204 12 210 -1 L200 -6 Q199 -4 197 0 Q196 1 196 2 Q184 1 159 0 Q118 -1 94 -3 ZM36 197 L235 197 L235 153 L49 153 L49 111 Q49 54 43 28 Q37 1 17 -29 Q10 -22 6 -20 Q24 5 30 31 Q36 56 36 109 L36 197 ZM49 187 L49 163 L223 163 L223 187 L49 187 ZM212 95 L156 95 L156 74 L212 74 L212 95 ZM89 95 L89 74 L144 74 L144 95 L89 95 Z" /><glyph glyph-name="uni5DE1" unicode="&#x5de1;" d="M108 -7 Q168 -9 248 -7 Q247 -10 245 -16 Q244 -20 243 -22 Q184 -22 158 -22 Q127 -22 105 -21 Q68 -20 46 8 Q32 -3 14 -25 L5 -14 Q19 0 40 19 L40 110 L8 110 L8 122 L54 122 L54 19 Q72 -7 108 -7 ZM116 201 L129 196 Q106 147 84 106 Q105 71 131 20 L118 12 Q92 67 70 106 Q96 155 116 201 ZM168 199 L182 194 Q167 159 137 106 Q161 67 184 22 L170 14 Q146 65 123 105 Q157 170 168 199 ZM222 199 L236 193 Q233 188 229 178 Q206 132 191 106 Q206 80 238 23 L225 15 Q201 64 177 106 Q206 160 222 199 ZM59 154 Q38 184 26 199 L36 206 Q53 188 71 163 L59 154 Z" /><glyph glyph-name="uni5DE5" unicode="&#x5de5;" d="M10 1 L121 1 L121 173 L24 173 L24 187 L232 187 L232 173 L135 173 L135 1 L246 1 L246 -11 L10 -11 L10 1 Z" /><glyph glyph-name="uni5DF1" unicode="&#x5df1;" d="M47 94 L47 21 Q45 -8 79 -6 L196 -6 Q223 -7 228 9 Q231 24 234 47 Q242 44 249 42 Q247 31 244 13 Q242 7 242 5 Q235 -21 199 -20 L73 -20 Q32 -21 33 18 L33 108 L204 108 L204 181 L28 181 L28 194 L218 194 L218 94 L47 94 Z" /><glyph glyph-name="uni5DF2" unicode="&#x5df2;" d="M32 145 L46 145 L46 105 L204 105 L204 180 L26 180 L26 193 L218 193 L218 92 L46 92 L46 24 Q44 -6 77 -4 L192 -4 Q225 -6 229 21 Q230 26 232 37 Q233 46 234 51 Q242 48 247 46 Q245 31 242 17 Q236 -19 196 -17 L74 -17 Q31 -18 32 21 L32 145 Z" /><glyph glyph-name="uni5E03" unicode="&#x5e03;" d="M70 -10 L57 -10 L57 90 Q39 68 18 45 Q12 53 8 57 Q57 106 86 161 L16 161 L16 174 L92 174 Q101 192 107 211 L122 209 Q120 204 116 194 Q111 180 108 174 L247 174 L247 161 L101 161 Q86 132 68 105 L133 105 L133 144 L147 144 L147 105 L225 105 L225 24 Q225 -3 197 -4 Q183 -4 167 -4 Q167 -1 166 6 Q167 1 165 8 Q168 8 175 8 Q185 7 191 7 Q212 6 211 27 L211 92 L147 92 L147 -29 L133 -29 L133 92 L70 92 L70 -10 Z" /><glyph glyph-name="uni5E08" unicode="&#x5e08;" d="M125 5 L112 5 L112 138 L168 138 L168 181 L103 181 L103 193 L250 193 L250 181 L181 181 L181 138 L238 138 L238 35 Q239 8 213 8 Q202 8 194 8 Q194 14 192 22 Q194 22 199 22 Q207 21 210 21 Q226 20 225 36 L225 126 L181 126 L181 -29 L168 -29 L168 126 L125 126 L125 5 ZM68 209 L81 209 L81 109 Q85 12 29 -31 Q24 -25 18 -21 Q48 4 58 30 Q68 56 68 108 L68 209 ZM21 188 L34 188 L34 42 L21 42 L21 188 Z" /><glyph glyph-name="uni5E72" unicode="&#x5e72;" d="M27 191 L229 191 L229 177 L135 177 L135 100 L249 100 L249 86 L135 86 L135 -30 L121 -30 L121 86 L7 86 L7 100 L121 100 L121 177 L27 177 L27 191 Z" /><glyph glyph-name="uni5E73" unicode="&#x5e73;" d="M21 198 L236 198 L236 184 L135 184 L135 74 L247 74 L247 60 L135 60 L135 -30 L121 -30 L121 60 L9 60 L9 74 L121 74 L121 184 L21 184 L21 198 ZM173 93 L161 102 Q192 137 209 162 L221 154 Q211 140 188 111 Q178 99 173 93 ZM35 154 L46 162 Q69 133 91 103 L78 94 Q57 126 35 154 Z" /><glyph glyph-name="uni5E76" unicode="&#x5e76;" d="M18 164 L151 164 Q170 188 185 211 L197 204 Q179 180 167 164 L237 164 L237 150 L184 150 L184 83 L248 83 L248 70 L184 70 L184 -29 L170 -29 L170 70 L88 70 Q91 5 29 -30 Q25 -24 19 -19 Q78 12 74 70 L8 70 L8 83 L74 83 L74 150 L18 150 L18 164 ZM89 150 L89 83 L170 83 L170 150 L89 150 ZM62 202 L72 210 Q88 194 103 176 L92 168 Q86 174 76 186 Q67 197 62 202 Z" /><glyph glyph-name="uni5E7F" unicode="&#x5e7f;" d="M125 204 L138 210 Q149 193 158 175 L146 169 L246 169 L246 156 L57 156 L57 108 Q57 58 49 30 Q42 2 20 -27 Q18 -26 14 -22 Q9 -19 7 -17 Q28 8 35 34 Q42 59 42 109 L42 169 L144 169 Q135 189 125 204 Z" /><glyph glyph-name="uni5E94" unicode="&#x5e94;" d="M127 207 L140 211 Q141 207 146 195 Q151 180 153 174 L244 174 L244 161 L48 161 L48 111 Q48 55 42 27 Q36 0 17 -28 Q14 -26 6 -20 Q24 7 29 31 Q35 56 35 106 L35 174 L139 174 Q133 192 127 207 ZM211 132 L225 128 Q199 38 184 0 L247 0 L247 -13 L53 -13 L53 0 L170 0 Q197 74 211 132 ZM68 122 L81 125 Q95 80 108 28 L95 25 Q82 76 68 122 ZM128 134 L141 136 Q146 114 155 72 Q160 51 162 40 L148 37 Q137 94 128 134 Z" /><glyph glyph-name="uni5E9F" unicode="&#x5e9f;" d="M131 157 L144 155 Q142 146 138 129 Q136 120 135 116 L245 116 L245 105 L132 105 Q128 90 122 76 L222 76 L222 65 Q204 31 176 9 Q205 -7 244 -15 Q241 -23 237 -28 Q195 -18 165 1 Q135 -16 93 -29 Q92 -28 91 -26 Q87 -20 85 -17 Q120 -8 154 9 Q130 30 116 61 Q96 17 58 -21 Q53 -15 48 -11 Q98 36 119 105 L64 105 L64 114 Q68 123 74 138 Q77 146 79 150 L91 147 Q87 137 79 119 Q78 117 78 116 L122 116 Q128 136 131 157 ZM131 206 L142 211 Q143 209 146 204 Q150 199 158 185 L148 179 L248 179 L248 167 L46 167 L46 106 Q48 15 16 -29 Q11 -24 5 -21 Q22 4 27 30 Q33 56 33 107 L33 179 L146 179 Q144 182 141 188 Q134 201 131 206 ZM208 65 L127 65 Q141 37 166 17 Q193 37 208 65 ZM178 148 L186 158 Q189 156 194 153 Q206 147 222 135 L214 125 Q196 138 178 148 Z" /><glyph glyph-name="uni5EA6" unicode="&#x5ea6;" d="M240 -27 Q181 -17 145 0 Q114 -16 52 -30 Q51 -29 50 -26 Q48 -23 44 -17 Q90 -9 131 7 Q102 25 81 53 L65 53 L65 65 L215 65 L215 52 Q186 21 159 6 Q197 -7 246 -13 Q245 -15 243 -19 Q241 -25 240 -27 ZM184 161 L197 161 L197 139 L243 139 L243 127 L197 127 L197 89 L94 89 L94 127 L57 127 L57 139 L94 139 L94 161 L107 161 L107 139 L184 139 L184 161 ZM131 208 L144 211 Q148 198 151 182 L246 182 L246 170 L46 170 L46 98 Q46 49 40 24 Q35 -1 17 -29 Q12 -25 6 -20 Q23 6 27 28 Q32 49 32 100 L32 182 L137 182 Q136 187 134 195 Q132 204 131 208 ZM198 53 L97 53 Q122 26 145 14 Q175 29 198 53 ZM107 127 L107 100 L184 100 L184 127 L107 127 Z" /><glyph glyph-name="uni5EA7" unicode="&#x5ea7;" d="M47 -6 L141 -6 L141 36 L64 36 L64 48 L141 48 L141 153 L154 153 L154 48 L231 48 L231 36 L154 36 L154 -6 L248 -6 L248 -18 L47 -18 L47 -6 ZM45 110 Q45 56 40 29 Q35 2 18 -26 Q17 -25 13 -21 Q9 -18 7 -16 Q22 8 26 32 Q31 55 31 105 L31 177 L141 177 Q140 181 134 197 Q131 205 130 208 L143 211 Q145 207 149 196 Q153 185 155 180 L143 177 L247 177 L247 165 L45 165 L45 110 ZM173 73 Q167 78 162 82 Q190 107 200 144 L214 141 Q210 129 204 118 Q230 94 242 81 L232 71 Q216 90 199 107 Q189 89 173 73 ZM63 69 Q58 74 53 77 Q81 103 92 144 L105 141 Q101 129 96 118 Q115 99 131 83 L120 74 Q117 77 112 83 Q107 89 91 106 Q77 83 63 69 Z" /><glyph glyph-name="uni5F02" unicode="&#x5f02;" d="M210 134 L49 134 L49 120 Q48 98 71 99 L204 99 Q225 98 228 114 Q229 116 230 121 Q232 132 233 138 Q235 138 238 136 Q243 135 246 134 Q243 118 240 108 Q235 86 206 87 L67 87 Q35 85 36 119 L36 198 L210 198 L210 134 ZM49 186 L49 146 L197 146 L197 186 L49 186 ZM8 44 L70 44 Q70 48 70 56 Q71 67 71 74 L85 74 Q85 69 84 59 Q84 49 83 44 L173 44 L173 74 L187 74 L187 44 L247 44 L247 32 L187 32 L187 -30 L173 -30 L173 32 L82 32 Q79 -9 28 -30 Q21 -21 17 -18 Q68 1 68 32 L8 32 L8 44 Z" /><glyph glyph-name="uni5F03" unicode="&#x5f03;" d="M113 206 L126 211 Q128 207 131 199 Q138 183 141 178 L131 175 L246 175 L246 162 L120 162 Q89 135 62 114 Q99 114 183 116 Q169 130 155 142 L166 150 Q177 140 204 116 Q220 102 227 95 L215 86 Q213 88 209 92 Q206 95 196 105 Q117 104 62 101 Q60 101 55 100 Q46 100 43 98 L36 114 Q47 119 55 125 Q78 141 100 162 L10 162 L10 175 L126 175 Q125 178 121 186 Q115 200 113 206 ZM170 87 L185 87 L185 56 L248 56 L248 43 L185 43 L185 -29 L170 -29 L170 43 L85 43 Q83 -4 28 -30 Q27 -28 23 -24 Q20 -20 18 -18 Q69 5 71 43 L8 43 L8 56 L72 56 Q73 69 73 87 L87 87 Q87 69 86 56 L170 56 L170 87 Z" /><glyph glyph-name="uni5F0F" unicode="&#x5f0f;" d="M145 210 L159 210 Q159 183 159 158 L248 158 L248 145 L160 145 Q161 112 165 86 Q172 35 186 10 Q198 -15 214 -14 Q225 -14 230 1 Q235 20 236 33 Q237 32 240 31 Q243 30 249 28 Q246 9 242 -3 Q235 -29 214 -28 Q190 -29 173 5 Q158 34 151 84 Q148 114 146 145 L8 145 L8 158 L146 158 Q145 183 145 210 ZM12 -8 L8 4 Q20 5 50 9 Q61 10 66 11 L66 87 L17 87 L17 100 L129 100 L129 87 L80 87 L80 13 Q108 16 140 21 Q140 18 140 8 Q110 4 43 -4 Q21 -7 12 -8 ZM182 195 L192 204 Q212 188 226 175 L216 165 Q199 182 182 195 Z" /><glyph glyph-name="uni5F15" unicode="&#x5f15;" d="M38 80 L143 80 Q142 44 138 15 Q136 -26 91 -24 Q72 -25 48 -25 Q47 -17 44 -9 Q68 -10 90 -10 Q123 -12 124 17 Q126 27 128 60 Q128 65 128 67 L22 67 L35 138 L127 138 L127 185 L21 185 L21 198 L141 198 L141 125 L46 125 L38 80 ZM211 209 L225 209 L225 -29 L211 -29 L211 209 Z" /><glyph glyph-name="uni5F20" unicode="&#x5f20;" d="M122 207 L135 207 L135 103 L247 103 L247 91 L175 91 Q193 24 248 -5 Q242 -11 237 -17 Q176 23 163 91 L135 91 L135 -5 Q137 -4 142 -1 Q163 9 173 15 Q174 13 175 8 Q176 4 176 1 Q158 -6 137 -19 Q130 -24 124 -28 L115 -17 Q122 -10 122 1 L122 91 L95 91 L95 103 L122 103 L122 207 ZM13 194 L87 194 L87 123 L31 123 L26 77 L86 77 Q85 67 84 46 Q82 20 81 10 Q80 -24 43 -24 Q30 -24 16 -24 Q15 -20 14 -15 Q13 -12 13 -10 Q22 -11 41 -11 Q67 -11 68 10 Q70 22 71 53 Q72 61 72 65 L12 65 L19 135 L74 135 L74 181 L13 181 L13 194 ZM159 122 Q157 125 150 132 Q196 163 227 192 L236 183 Q210 158 159 122 Z" /><glyph glyph-name="uni5F52" unicode="&#x5f52;" d="M109 189 L233 189 L233 -20 L220 -20 L220 -3 L101 -3 L101 7 L220 7 L220 91 L115 91 L115 103 L220 103 L220 176 L109 176 L109 189 ZM75 209 L89 209 L89 120 Q89 56 80 27 Q71 -1 41 -29 Q36 -24 30 -20 Q59 6 66 32 Q75 58 75 119 L75 209 ZM23 184 L37 184 L37 34 L23 34 L23 184 Z" /><glyph glyph-name="uni5F53" unicode="&#x5f53;" d="M31 57 L215 57 L215 106 L24 106 L24 119 L121 119 L121 209 L135 209 L135 119 L229 119 L229 -30 L215 -30 L215 -16 L16 -16 L16 -3 L215 -3 L215 45 L31 45 L31 57 ZM165 144 Q189 166 214 195 L225 187 Q206 163 176 135 L165 144 ZM33 188 L43 196 Q55 185 79 158 Q87 151 90 147 L78 137 Q76 139 73 143 Q47 174 33 188 Z" /><glyph glyph-name="uni5F62" unicode="&#x5f62;" d="M9 102 L43 102 L43 179 L17 179 L17 192 L148 192 L148 179 L117 179 L117 102 L156 102 L156 90 L117 90 L117 -28 L104 -28 L104 90 L57 90 Q59 9 16 -28 Q13 -26 5 -18 Q28 4 35 25 Q43 46 43 90 L9 90 L9 102 ZM57 179 L57 102 L104 102 L104 179 L57 179 ZM136 -17 Q196 8 238 62 L249 54 Q207 0 145 -29 Q142 -26 136 -17 ZM151 70 Q203 98 232 133 L243 124 Q211 88 160 59 Q154 67 151 70 ZM148 146 Q197 170 228 206 L238 197 Q206 161 157 134 Q155 139 148 146 Z" /><glyph glyph-name="uni5F71" unicode="&#x5f71;" d="M21 199 L139 199 L139 129 L21 129 L21 199 ZM25 78 L136 78 L136 35 L89 35 L89 -4 Q90 -27 66 -28 Q53 -28 45 -28 Q44 -26 43 -20 Q42 -17 42 -16 Q52 -16 61 -16 Q78 -17 77 -3 L77 35 L25 35 L25 78 ZM37 68 L37 45 L124 45 L124 68 L37 68 ZM33 188 L33 169 L127 169 L127 188 L33 188 ZM149 -30 Q143 -22 140 -19 Q200 11 238 65 L249 57 Q212 4 149 -30 ZM33 158 L33 139 L127 139 L127 158 L33 158 ZM71 122 L83 125 Q87 116 90 107 L156 107 L156 97 L7 97 L7 107 L77 107 Q76 109 75 112 Q72 118 71 122 ZM167 60 Q166 61 163 65 Q159 69 157 71 Q200 99 231 141 L242 132 Q208 89 167 60 ZM164 134 Q158 141 154 144 Q194 169 221 205 L232 197 Q203 160 164 134 ZM17 -19 L8 -10 Q29 6 45 24 L55 16 Q47 7 30 -7 Q22 -15 17 -19 ZM105 16 L113 25 Q120 20 132 9 Q140 3 144 0 L135 -8 Q127 -1 113 10 Q108 14 105 16 Z" /><glyph glyph-name="uni5F81" unicode="&#x5f81;" d="M102 190 L244 190 L244 178 L186 178 L186 95 L239 95 L239 82 L186 82 L186 -4 L248 -4 L248 -17 L83 -17 L83 -4 L109 -4 L109 123 L123 123 L123 -4 L172 -4 L172 178 L102 178 L102 190 ZM15 48 Q9 57 7 61 Q42 90 72 142 L85 136 Q73 115 60 99 L60 -29 L47 -29 L47 81 Q32 65 15 48 ZM22 135 Q20 139 14 148 Q51 174 74 207 L86 199 Q61 164 22 135 Z" /><glyph glyph-name="uni5F8B" unicode="&#x5f8b;" d="M80 64 L148 64 L148 93 L90 93 L90 104 L148 104 L148 132 L82 132 L82 143 L148 143 L148 171 L93 171 L93 183 L148 183 L148 209 L162 209 L162 183 L225 183 L225 143 L249 143 L249 132 L225 132 L225 93 L162 93 L162 64 L233 64 L233 52 L162 52 L162 23 L246 23 L246 11 L162 11 L162 -29 L148 -29 L148 11 L68 11 L68 23 L148 23 L148 52 L80 52 L80 64 ZM14 52 Q13 55 7 64 Q40 96 65 143 L77 136 Q74 131 68 121 Q59 107 55 100 L55 -29 L41 -29 L41 82 Q33 71 14 52 ZM211 171 L162 171 L162 143 L211 143 L211 171 ZM162 132 L162 104 L211 104 L211 132 L162 132 ZM19 131 Q15 139 11 143 Q44 170 65 209 L77 202 Q52 161 19 131 Z" /><glyph glyph-name="uni5F97" unicode="&#x5f97;" d="M104 199 L229 199 L229 111 L104 111 L104 199 ZM90 87 L244 87 L244 75 L213 75 L213 50 L249 50 L249 38 L213 38 L213 1 Q214 -26 184 -25 Q180 -25 170 -25 Q157 -26 151 -26 Q150 -18 147 -12 Q154 -12 167 -13 Q177 -13 181 -13 Q201 -14 200 1 L200 38 L80 38 L80 50 L200 50 L200 75 L90 75 L90 87 ZM13 53 Q12 55 10 60 Q8 64 7 66 Q44 103 68 147 L80 141 Q68 121 56 103 L56 -29 L43 -29 L43 86 Q28 68 13 53 ZM117 187 L117 161 L216 161 L216 187 L117 187 ZM117 149 L117 123 L216 123 L216 149 L117 149 ZM18 133 Q15 139 11 144 Q46 172 70 210 L82 203 Q55 164 18 133 ZM102 23 L112 31 Q127 18 140 3 L129 -5 Q113 12 102 23 Z" /></font>
</defs>
</svg>
