<?xml version="1.0" standalone="no"?><!DOCTYPE svg PUBLIC "-//W3C//DTD SVG 1.1//EN" "http://www.w3.org/Graphics/SVG/1.1/DTD/svg11.dtd" ><svg xmlns="http://www.w3.org/2000/svg"><metadata></metadata><defs><font id="fonteditor" horiz-adv-x="256"><font-face font-family="e¹kckcÑ{OS" font-weight="400" font-stretch="normal" units-per-em="256" panose-1="2 0 0 0 0 0 0 0 0 0" ascent="227" descent="-86" x-height="0" bbox="7 -43 249 215" underline-thickness="0" underline-position="0" unicode-range="U+0028-ff1a" /><missing-glyph horiz-adv-x="256"  /><glyph glyph-name="parenleft" unicode="(" d="M83 -43 L65 -43 Q14 4 13 86 Q15 165 65 215 L83 215 Q33 159 34 86 Q33 13 83 -43 Z" /><glyph glyph-name="parenright" unicode=")" d="M10 215 L28 215 Q79 166 81 86 Q80 5 28 -43 L10 -43 Q60 13 59 86 Q60 161 10 215 Z" /><glyph glyph-name="hyphen" unicode="-" d="M8 82 L8 98 L144 98 L144 82 L8 82 Z" /><glyph glyph-name="period" unicode="." d="M10 -7 L10 21 L39 21 L39 -7 L10 -7 Z" /><glyph glyph-name="zero" unicode="0" d="M85 -5 Q135 -6 135 90 Q136 189 84 188 Q35 187 35 90 Q35 -5 85 -5 ZM86 -20 Q12 -18 11 90 Q11 200 85 203 Q159 202 159 90 Q158 -19 86 -20 Z" /><glyph glyph-name="one" unicode="1" d="M72 -17 L72 159 Q49 134 8 121 L8 135 Q54 157 72 199 L94 199 L94 -17 L72 -17 Z" /><glyph glyph-name="two" unicode="2" d="M152 -17 L9 -17 L9 -2 Q30 40 80 77 Q132 114 129 144 Q128 187 85 188 Q46 186 32 144 L10 144 Q28 202 85 203 Q149 200 153 144 Q156 106 95 63 Q49 32 32 -2 L152 -2 L152 -17 Z" /><glyph glyph-name="three" unicode="3" d="M12 18 L12 38 Q37 -6 81 -5 Q133 -5 133 43 Q133 87 75 87 L60 87 L60 103 L72 103 Q124 104 125 146 Q124 187 82 188 Q43 188 34 144 L13 144 Q22 203 82 203 Q146 201 148 146 Q148 110 113 97 Q155 84 156 43 Q157 -20 82 -20 Q36 -20 12 18 Z" /><glyph glyph-name="four" unicode="4" d="M112 -17 L112 34 L8 34 L8 49 L112 199 L134 199 L134 49 L163 49 L163 34 L134 34 L134 -17 L112 -17 ZM112 167 L30 49 L112 49 L112 167 Z" /><glyph glyph-name="five" unicode="5" d="M11 17 L11 37 Q37 -5 80 -4 Q132 -3 133 50 Q133 102 78 103 L19 103 L19 198 L151 198 L151 183 L42 183 L42 118 L84 118 Q155 116 157 52 Q155 -18 85 -20 Q36 -21 11 17 Z" /><glyph glyph-name="six" unicode="6" d="M90 -4 Q137 -3 138 50 Q136 105 91 107 Q41 103 37 55 Q39 -2 90 -4 ZM160 151 L138 151 Q128 188 93 188 Q36 187 35 93 Q55 122 95 122 Q158 118 162 52 Q158 -16 91 -20 Q12 -21 13 83 Q13 204 94 204 Q145 203 160 151 Z" /><glyph glyph-name="seven" unicode="7" d="M127 182 L8 182 L8 197 L151 197 L151 182 Q79 84 67 -15 L44 -15 Q53 74 127 182 Z" /><glyph glyph-name="eight" unicode="8" d="M88 -5 Q138 -4 139 38 Q139 80 87 87 Q36 81 35 39 Q37 -3 88 -5 ZM88 103 Q134 111 134 146 Q132 186 88 188 Q44 185 41 146 Q42 110 88 103 ZM88 -20 Q14 -18 12 40 Q15 83 56 96 Q19 112 17 145 Q22 199 87 203 Q152 199 158 144 Q157 110 118 96 Q161 83 163 39 Q161 -18 88 -20 Z" /><glyph glyph-name="nine" unicode="9" d="M83 75 Q132 79 136 128 Q134 186 84 188 Q37 186 35 132 Q37 77 83 75 ZM15 13 L15 31 Q40 -5 80 -5 Q139 -6 138 89 Q119 59 79 60 Q14 64 11 129 Q15 200 82 203 Q162 204 160 99 Q162 -26 82 -20 Q38 -20 15 13 Z" /><glyph glyph-name="colon" unicode=":" d="M12 109 L12 139 L41 139 L41 109 L12 109 ZM12 -6 L12 22 L41 22 L41 -6 L12 -6 Z" /><glyph glyph-name="C" unicode="c" d="M200 137 L177 137 Q164 185 112 187 Q40 180 35 89 Q39 0 117 -5 Q174 -5 203 54 L203 30 Q176 -21 111 -20 Q17 -14 12 89 Q17 197 112 202 Q181 200 200 137 Z" /><glyph glyph-name="D" unicode="d" d="M40 -1 L92 -1 Q177 -4 175 91 Q175 184 92 184 L40 184 L40 -1 ZM18 -16 L18 199 L94 199 Q198 198 199 91 Q202 -20 93 -16 L18 -16 Z" /><glyph glyph-name="G" unicode="g" d="M212 137 L187 137 Q170 187 114 187 Q40 182 35 89 Q40 1 119 -5 Q170 -5 190 25 L190 81 L116 81 L116 97 L212 97 L212 18 Q184 -20 120 -20 Q17 -15 12 90 Q16 197 115 202 Q189 203 212 137 Z" /><glyph glyph-name="a" unicode="a" d="M125 -5 L125 65 L81 65 Q30 65 31 29 Q30 -6 77 -5 L125 -5 ZM82 80 L125 80 Q126 127 83 126 Q44 127 34 91 L12 91 Q26 142 83 141 Q145 141 145 86 L145 -20 L75 -20 Q11 -20 10 27 Q11 80 82 80 Z" /><glyph glyph-name="e" unicode="e" d="M163 53 L39 53 Q42 -4 98 -5 Q139 -6 161 28 L161 8 Q139 -21 93 -21 Q18 -18 15 58 Q18 138 90 141 Q163 141 163 53 ZM39 68 L140 68 Q138 123 90 125 Q44 124 39 68 Z" /><glyph glyph-name="h" unicode="h" d="M17 -16 L17 213 L40 213 L40 141 L84 141 Q147 141 147 84 L147 -16 L125 -16 L125 79 Q127 127 76 125 L40 125 L40 -16 L17 -16 Z" /><glyph glyph-name="i" unicode="i" d="M16 -17 L16 137 L39 137 L39 -17 L16 -17 ZM16 176 L16 199 L39 199 L39 176 L16 176 Z" /><glyph glyph-name="k" unicode="k" d="M19 -15 L19 213 L42 213 L42 62 L123 138 L153 138 L88 78 L159 -15 L132 -15 L72 65 L42 37 L42 -15 L19 -15 Z" /><glyph glyph-name="m" unicode="m" d="M16 -17 L16 140 L179 140 Q233 140 233 92 L233 -17 L210 -17 L210 90 Q211 126 173 125 L136 125 L136 -17 L113 -17 L113 96 Q113 125 82 125 L39 125 L39 -17 L16 -17 Z" /><glyph glyph-name="n" unicode="n" d="M16 -17 L16 140 L86 140 Q146 141 146 84 L146 -17 L123 -17 L123 82 Q124 126 83 125 L38 125 L38 -17 L16 -17 Z" /><glyph glyph-name="s" unicode="s" d="M12 10 L12 30 Q40 -7 79 -6 Q121 -7 120 22 Q121 47 80 52 Q14 63 17 97 Q21 138 75 140 Q128 139 138 95 L116 95 Q110 125 77 125 Q42 124 41 97 Q39 74 85 69 Q144 60 144 23 Q144 -21 80 -21 Q39 -22 12 10 Z" /><glyph glyph-name="z" unicode="z" d="M7 -16 L7 -1 L112 122 L10 122 L10 137 L141 137 L141 122 L34 -1 L144 -1 L144 -16 L7 -16 Z" /><glyph glyph-name="quotedblleft" unicode="&#x201c;" d="M198 118 L198 147 Q198 191 237 210 L237 199 Q211 181 212 151 L230 151 L230 118 L198 118 ZM143 118 L143 147 Q143 191 182 210 L182 199 Q156 180 157 151 L176 151 L176 118 L143 118 Z" /><glyph glyph-name="quotedblright" unicode="&#x201d;" d="M19 118 L19 130 Q46 148 45 178 L26 178 L26 210 L58 210 L58 182 Q58 139 19 118 ZM74 118 L74 130 Q100 149 99 178 L81 178 L81 210 L113 210 L113 182 Q113 139 74 118 Z" /><glyph glyph-name="uni3001" unicode="&#x3001;" d="M30 39 L30 55 Q73 31 102 0 L102 -23 Q60 18 30 39 Z" /><glyph glyph-name="uni3002" unicode="&#x3002;" d="M66 -21 Q29 -18 26 15 Q29 53 66 56 Q104 54 106 15 Q105 -20 66 -21 ZM66 -10 Q92 -9 93 17 Q92 43 66 44 Q41 42 39 17 Q40 -9 66 -10 Z" /><glyph glyph-name="uni300A" unicode="&#x300a;" d="M149 -24 L101 90 L149 206 L166 206 L118 90 L167 -24 L149 -24 ZM186 -24 L138 90 L186 206 L203 206 L155 90 L204 -24 L186 -24 Z" /><glyph glyph-name="uni300B" unicode="&#x300b;" d="M90 -24 L139 90 L91 206 L108 206 L156 90 L108 -24 L90 -24 ZM53 -24 L102 90 L54 206 L71 206 L119 90 L71 -24 L53 -24 Z" /><glyph glyph-name="uni4E00" unicode="&#x4e00;" d="M11 94 L11 109 L246 109 L246 94 L11 94 Z" /><glyph glyph-name="uni4E03" unicode="&#x4e03;" d="M13 125 L13 140 L91 140 L91 204 L114 204 L114 140 L242 140 L242 125 L114 125 L114 17 Q114 0 131 0 L205 0 Q220 0 220 14 L220 27 L237 27 L237 13 Q238 -14 207 -14 L121 -14 Q91 -14 91 15 L91 125 L13 125 Z" /><glyph glyph-name="uni4E07" unicode="&#x4e07;" d="M145 -18 L145 -4 L170 -4 Q191 -5 190 15 L190 110 L93 110 Q93 30 14 -25 L14 -10 Q50 24 61 54 Q72 83 72 139 L72 172 L16 172 L16 187 L241 187 L241 172 L95 172 L95 148 Q95 144 95 136 Q94 128 94 124 L213 124 L213 17 Q214 -19 174 -18 L145 -18 Z" /><glyph glyph-name="uni4E09" unicode="&#x4e09;" d="M29 168 L29 183 L227 183 L227 168 L29 168 ZM40 84 L40 99 L217 99 L217 84 L40 84 ZM14 -7 L14 6 L242 6 L242 -7 L14 -7 Z" /><glyph glyph-name="uni4E0A" unicode="&#x4e0a;" d="M13 -11 L13 2 L108 2 L108 202 L131 202 L131 131 L224 131 L224 116 L131 116 L131 2 L243 2 L243 -11 L13 -11 Z" /><glyph glyph-name="uni4E0B" unicode="&#x4e0b;" d="M13 173 L13 188 L243 188 L243 173 L132 173 L132 -23 L109 -23 L109 173 L13 173 ZM228 61 Q186 90 143 107 L143 123 Q193 107 228 85 L228 61 Z" /><glyph glyph-name="uni4E0D" unicode="&#x4e0d;" d="M18 172 L18 186 L241 186 L241 172 L156 172 Q147 153 129 126 L138 126 L138 -25 L116 -25 L116 110 Q88 73 12 28 L12 42 Q98 101 130 172 L18 172 ZM242 34 Q203 69 157 96 L157 113 Q207 89 242 59 L242 34 Z" /><glyph glyph-name="uni4E0E" unicode="&#x4e0e;" d="M150 -21 L150 -6 L180 -6 Q207 -7 206 20 L206 98 L48 98 L48 113 Q54 152 55 206 L77 206 Q77 201 76 191 Q76 181 75 176 L243 176 L243 161 L74 161 Q71 131 67 113 L228 113 L228 20 Q229 -22 184 -21 L150 -21 ZM11 42 L11 56 L184 56 L184 42 L11 42 Z" /><glyph glyph-name="uni4E13" unicode="&#x4e13;" d="M27 168 L27 182 L95 182 L101 206 L125 206 Q124 202 121 195 Q119 186 117 182 L230 182 L230 168 L112 168 Q106 148 98 130 L245 130 L245 116 L91 116 Q82 98 72 82 L222 82 L222 68 Q193 33 156 8 Q177 2 200 -6 L200 -26 Q130 3 53 22 L53 36 Q111 24 139 14 Q171 38 194 68 L54 68 L54 82 Q56 86 60 94 Q63 100 71 116 L13 116 L13 130 L77 130 Q81 139 88 159 Q90 165 91 168 L27 168 Z" /><glyph glyph-name="uni4E16" unicode="&#x4e16;" d="M14 147 L14 162 L42 162 L42 193 L63 193 L63 162 L108 162 L108 203 L129 203 L129 162 L190 162 L190 203 L210 203 L210 162 L243 162 L243 147 L210 147 L210 76 Q211 41 180 42 L108 42 L108 147 L63 147 L63 20 Q62 -1 86 0 L237 0 L237 -15 L79 -15 Q41 -16 42 17 L42 147 L14 147 ZM175 56 Q191 55 190 72 L190 147 L129 147 L129 56 L175 56 Z" /><glyph glyph-name="uni4E1A" unicode="&#x4e1a;" d="M12 -10 L12 3 L86 3 L86 202 L107 202 L107 3 L148 3 L148 202 L169 202 L169 3 L244 3 L244 -10 L12 -10 ZM194 58 Q210 111 214 164 L234 164 Q227 102 212 58 L194 58 ZM44 58 Q27 108 22 164 L42 164 Q47 106 61 58 L44 58 Z" /><glyph glyph-name="uni4E1C" unicode="&#x4e1c;" d="M15 162 L15 177 L78 177 Q84 191 88 204 L112 204 Q107 191 101 177 L242 177 L242 162 L94 162 Q78 129 51 97 L122 97 L122 143 L144 143 L144 97 L230 97 L230 82 L144 82 L144 8 Q144 -22 114 -22 L85 -22 L85 -7 L106 -7 Q122 -8 122 6 L122 82 L31 82 L31 97 Q59 133 72 162 L15 162 ZM14 -13 L14 0 Q55 25 65 67 L87 67 Q74 9 14 -13 ZM243 -13 Q183 9 172 67 L193 67 Q203 25 243 0 L243 -13 Z" /><glyph glyph-name="uni4E24" unicode="&#x4e24;" d="M13 176 L13 190 L243 190 L243 176 L167 176 L167 141 L229 141 L229 10 Q231 -22 195 -21 L177 -21 L177 -6 L192 -6 Q210 -7 209 10 L209 127 L167 127 Q168 71 204 30 L204 14 Q171 40 157 79 Q146 43 111 14 L111 30 Q113 32 116 37 Q123 46 126 51 Q107 66 98 87 Q86 45 52 14 L52 31 Q85 71 86 127 L47 127 L47 -22 L27 -22 L27 141 L86 141 L86 176 L13 176 ZM130 64 L130 57 Q146 84 147 127 L106 127 Q108 89 130 64 ZM105 153 Q105 147 105 141 L148 141 L148 176 L105 176 L105 153 Z" /><glyph glyph-name="uni4E25" unicode="&#x4e25;" d="M17 177 L17 192 L242 192 L242 177 L169 177 L169 106 L241 106 L241 92 L54 92 L54 68 Q58 0 10 -25 L10 -9 Q34 11 32 58 L32 106 L92 106 L92 177 L17 177 ZM112 177 L112 106 L150 106 L150 177 L112 177 ZM49 121 Q40 137 36 162 L55 162 Q57 139 67 121 L49 121 ZM193 121 Q203 139 205 162 L223 162 Q221 137 210 121 L193 121 Z" /><glyph glyph-name="uni4E2A" unicode="&#x4e2a;" d="M246 113 Q170 137 128 186 Q86 137 10 113 L10 126 Q81 153 116 208 L139 208 Q176 152 246 126 L246 113 ZM117 -25 L117 131 L139 131 L139 -25 L117 -25 Z" /><glyph glyph-name="uni4E2D" unicode="&#x4e2d;" d="M26 45 L26 162 L117 162 L117 206 L139 206 L139 162 L230 162 L230 77 Q231 44 200 45 L139 45 L139 -26 L117 -26 L117 45 L26 45 ZM47 60 L117 60 L117 148 L47 148 L47 60 ZM209 148 L139 148 L139 60 L194 60 Q210 59 209 76 L209 148 Z" /><glyph glyph-name="uni4E30" unicode="&#x4e30;" d="M21 163 L21 178 L116 178 L116 205 L139 205 L139 178 L234 178 L234 163 L139 163 L139 113 L219 113 L219 98 L139 98 L139 46 L242 46 L242 31 L139 31 L139 -25 L116 -25 L116 31 L14 31 L14 46 L116 46 L116 98 L36 98 L36 113 L116 113 L116 163 L21 163 Z" /><glyph glyph-name="uni4E39" unicode="&#x4e39;" d="M12 77 L12 92 L52 92 L52 194 L208 194 L208 92 L244 92 L244 77 L208 77 L208 10 Q209 -21 176 -20 L156 -20 L156 -5 L170 -5 Q187 -6 186 9 L186 77 L73 77 Q73 7 28 -25 L28 -9 Q53 22 52 77 L12 77 ZM74 92 L186 92 L186 180 L74 180 L74 92 ZM130 110 Q120 140 109 159 L128 159 Q142 138 151 110 L130 110 Z" /><glyph glyph-name="uni4E3A" unicode="&#x4e3a;" d="M18 -26 L18 -11 Q108 55 108 146 L21 146 L21 161 L59 161 Q53 182 43 201 L61 201 Q72 181 78 161 L108 161 Q108 163 108 168 Q109 174 109 177 L109 206 L131 206 L131 187 Q131 173 130 161 L231 161 L231 16 Q232 -20 194 -19 L166 -19 L166 -4 L187 -4 Q211 -5 209 15 L209 146 L130 146 Q128 37 18 -26 ZM156 46 Q150 76 137 100 L156 100 Q169 76 176 46 L156 46 Z" /><glyph glyph-name="uni4E3B" unicode="&#x4e3b;" d="M23 156 L23 171 L116 171 L116 205 L139 205 L139 171 L233 171 L233 156 L139 156 L139 91 L223 91 L223 77 L139 77 L139 1 L243 1 L243 -12 L13 -12 L13 1 L116 1 L116 77 L33 77 L33 91 L116 91 L116 156 L23 156 Z" /><glyph glyph-name="uni4E3D" unicode="&#x4e3d;" d="M13 177 L13 191 L243 191 L243 177 L13 177 ZM69 45 Q67 69 56 103 L70 103 Q80 78 86 45 L69 45 ZM26 -26 L26 150 L116 150 L116 8 Q118 -23 85 -21 L71 -21 L71 -7 L82 -7 Q99 -8 98 8 L98 135 L44 135 L44 -26 L26 -26 ZM140 -26 L140 150 L230 150 L230 7 Q232 -22 199 -21 L185 -21 L185 -7 L197 -7 Q213 -8 212 8 L212 135 L158 135 L158 -26 L140 -26 ZM183 45 Q181 70 170 103 L184 103 Q194 78 200 45 L183 45 Z" /><glyph glyph-name="uni4E49" unicode="&#x4e49;" d="M243 -24 Q164 3 128 33 Q92 3 13 -24 L13 -9 Q77 14 114 44 Q62 91 40 189 L63 189 Q83 97 128 56 Q173 97 193 189 L216 189 Q193 91 142 44 Q179 14 243 -9 L243 -24 ZM124 143 Q119 172 107 204 L125 204 Q138 175 144 143 L124 143 Z" /><glyph glyph-name="uni4E4B" unicode="&#x4e4b;" d="M13 -18 L13 -5 Q38 3 54 20 L189 146 L28 146 L28 161 L119 161 Q116 182 108 204 L126 204 Q135 183 139 161 L221 161 L221 146 L83 19 Q93 -1 126 0 L242 0 L242 -15 L123 -15 Q84 -15 69 8 Q42 -13 13 -18 Z" /><glyph glyph-name="uni4E50" unicode="&#x4e50;" d="M61 84 Q30 83 31 116 L31 188 L145 188 Q182 187 222 197 L222 181 Q190 173 151 173 L51 173 L51 120 Q51 98 70 99 L120 99 L120 152 L142 152 L142 99 L232 99 L232 84 L142 84 L142 7 Q142 -22 113 -22 L88 -22 L88 -7 L104 -7 Q120 -8 120 6 L120 84 L61 84 ZM14 -11 L14 1 Q56 27 64 67 L85 67 Q72 9 14 -11 ZM244 -11 Q185 11 174 67 L195 67 Q204 26 244 1 L244 -11 Z" /><glyph glyph-name="uni4E5D" unicode="&#x4e5d;" d="M14 -25 L14 -10 Q54 28 67 62 Q80 95 80 157 L18 157 L18 173 L80 173 L80 205 L103 205 L103 173 L183 173 L183 19 Q181 -5 206 -3 Q228 -5 227 17 L227 25 L244 25 L244 16 Q245 -19 210 -18 L199 -18 Q158 -20 160 17 L160 157 L102 157 Q102 87 84 52 Q67 16 14 -25 Z" /><glyph glyph-name="uni4E5F" unicode="&#x4e5f;" d="M81 -16 Q43 -16 43 20 L43 153 L13 153 L13 168 L43 168 L43 193 L65 193 L65 168 L120 168 L120 206 L140 206 L140 168 L222 168 L222 85 Q223 48 186 49 L171 49 L171 64 L184 64 Q202 63 201 82 L201 153 L140 153 L140 26 L120 26 L120 153 L65 153 L65 19 Q64 -2 88 -1 L205 -1 Q223 -2 223 17 L223 26 L240 26 L240 14 Q241 -17 206 -16 L81 -16 Z" /><glyph glyph-name="uni4E7E" unicode="&#x4e7e;" d="M14 172 L14 186 L57 186 L57 205 L75 205 L75 186 L117 186 L117 172 L75 172 L75 148 L111 148 L111 85 Q111 58 81 58 L75 58 L75 33 L118 33 L118 19 L75 19 L75 -24 L57 -24 L57 19 L12 19 L12 33 L57 33 L57 58 L21 58 L21 148 L57 148 L57 172 L14 172 ZM148 -18 Q118 -15 133 12 L199 110 L133 110 L133 124 L223 124 L223 110 L152 6 Q148 2 150 -1 Q152 -4 158 -4 L211 -4 Q226 -4 225 8 L225 21 L241 21 L241 4 Q241 -18 216 -18 L148 -18 ZM118 123 L118 137 Q144 160 150 204 L170 204 Q167 190 164 179 L242 179 L242 165 L158 165 Q148 141 118 123 ZM38 72 L77 72 Q93 72 93 86 L93 98 L38 98 L38 72 ZM38 135 L38 111 L93 111 L93 135 L38 135 Z" /><glyph glyph-name="uni4E86" unicode="&#x4e86;" d="M83 -20 L83 -5 L101 -5 Q124 -6 123 15 L123 125 Q164 142 197 173 L20 173 L20 189 L231 189 L231 174 Q193 138 145 119 L145 16 Q146 -20 107 -20 L83 -20 Z" /><glyph glyph-name="uni4E89" unicode="&#x4e89;" d="M16 150 L16 162 Q66 176 80 206 L102 206 Q98 194 90 186 L189 186 L189 172 Q175 156 163 146 L214 146 L214 100 L245 100 L245 86 L214 86 L214 69 Q215 38 182 39 L134 39 L134 8 Q134 -22 103 -22 L74 -22 L74 -7 L94 -7 Q112 -8 112 9 L112 39 L37 39 L37 52 L112 52 L112 86 L13 86 L13 100 L112 100 L112 132 L44 132 L44 146 L140 146 Q154 157 164 172 L75 172 Q55 157 16 150 ZM176 52 Q194 52 194 70 L194 86 L134 86 L134 52 L176 52 ZM194 132 L134 132 L134 100 L194 100 L194 132 Z" /><glyph glyph-name="uni4E8B" unicode="&#x4e8b;" d="M14 179 L14 191 L117 191 L117 207 L139 207 L139 191 L242 191 L242 179 L139 179 L139 163 L215 163 L215 143 Q216 118 189 119 L139 119 L139 101 L219 101 L219 67 L244 67 L244 55 L219 55 L219 47 Q220 18 193 19 L139 19 L139 9 Q140 -22 109 -21 L82 -21 L82 -8 L101 -8 Q118 -9 117 6 L117 19 L27 19 L27 31 L117 31 L117 55 L13 55 L13 67 L117 67 L117 89 L28 89 L28 101 L117 101 L117 119 L41 119 L41 163 L117 163 L117 179 L14 179 ZM186 31 Q199 30 199 46 L199 55 L139 55 L139 31 L186 31 ZM199 89 L139 89 L139 67 L199 67 L199 89 ZM61 130 L117 130 L117 151 L61 151 L61 130 ZM195 151 L139 151 L139 130 L183 130 Q196 129 195 142 L195 151 Z" /><glyph glyph-name="uni4E8C" unicode="&#x4e8c;" d="M32 159 L32 174 L223 174 L223 159 L32 159 ZM15 0 L15 15 L241 15 L241 0 L15 0 Z" /><glyph glyph-name="uni4E8E" unicode="&#x4e8e;" d="M31 174 L31 189 L226 189 L226 174 L143 174 L143 105 L244 105 L244 90 L143 90 L143 7 Q143 -22 114 -22 L83 -22 L83 -7 L105 -7 Q120 -7 120 7 L120 90 L12 90 L12 105 L120 105 L120 174 L31 174 Z" /><glyph glyph-name="uni4E94" unicode="&#x4e94;" d="M20 176 L20 191 L234 191 L234 176 L118 176 L111 113 L210 113 L210 1 L244 1 L244 -12 L12 -12 L12 1 L76 1 L87 98 L31 98 L31 113 L89 113 L96 176 L20 176 ZM189 98 L109 98 L98 1 L189 1 L189 98 Z" /><glyph glyph-name="uni4EA4" unicode="&#x4ea4;" d="M242 -25 Q165 -6 128 17 Q90 -6 13 -25 L13 -11 Q76 6 112 28 Q81 52 58 100 L82 100 Q99 64 128 40 Q155 62 174 100 L197 100 Q177 54 144 28 Q180 5 242 -11 L242 -25 ZM15 167 L15 182 L116 182 L116 205 L140 205 L140 182 L241 182 L241 167 L15 167 ZM243 98 Q170 108 153 153 L177 153 Q192 122 243 111 L243 98 ZM13 98 L13 111 Q63 122 79 153 L103 153 Q86 108 13 98 Z" /><glyph glyph-name="uni4EB2" unicode="&#x4eb2;" d="M12 109 L12 122 L75 122 Q68 137 64 155 L86 155 Q87 141 95 122 L160 122 Q167 136 170 155 L191 155 Q189 137 180 122 L243 122 L243 109 L141 109 L141 76 L231 76 L231 62 L141 62 L141 5 Q142 -22 111 -21 L87 -21 L87 -7 L104 -7 Q119 -8 119 6 L119 62 L25 62 L25 76 L119 76 L119 109 L12 109 ZM24 169 L24 183 L116 183 L116 205 L140 205 L140 183 L232 183 L232 169 L24 169 ZM15 -7 L15 3 Q54 19 64 48 L85 48 Q71 3 15 -7 ZM241 -7 Q184 4 171 48 L192 48 Q202 19 241 3 L241 -7 Z" /><glyph glyph-name="uni4EBA" unicode="&#x4eba;" d="M243 -24 Q148 40 128 121 Q108 40 13 -24 L13 -9 Q117 72 116 184 L116 202 L139 202 L139 184 Q138 73 243 -9 L243 -24 Z" /><glyph glyph-name="uni4EC5" unicode="&#x4ec5;" d="M244 -24 Q187 1 161 26 Q136 2 80 -24 L80 -10 Q122 11 149 39 Q113 78 98 159 L118 159 Q131 92 161 53 Q198 95 209 173 L89 173 L89 188 L230 188 L230 174 Q216 84 174 39 Q201 10 244 -10 L244 -24 ZM11 111 L11 124 Q52 152 63 205 L84 205 Q73 167 62 152 L62 -25 L41 -25 L41 130 Q29 120 11 111 Z" /><glyph glyph-name="uni4EE3" unicode="&#x4ee3;" d="M81 130 L81 144 L133 144 Q131 172 131 205 L153 205 Q153 194 154 175 Q154 154 155 144 L242 144 L242 130 L156 130 Q159 85 167 51 Q180 -8 210 -9 Q228 -9 228 12 L244 12 Q244 -25 211 -24 Q164 -25 145 52 Q137 84 134 130 L81 130 ZM42 -25 L42 129 Q30 119 10 110 L10 123 Q53 149 62 204 L85 204 Q76 170 63 151 L63 -25 L42 -25 ZM202 158 Q199 179 188 201 L205 201 Q216 178 221 158 L202 158 Z" /><glyph glyph-name="uni4EE5" unicode="&#x4ee5;" d="M246 -25 Q199 10 179 52 Q159 11 107 -24 L107 -8 Q185 49 182 199 L203 199 Q200 115 189 80 Q208 27 246 -8 L246 -25 ZM29 -11 L29 197 L49 197 L49 17 Q79 28 106 47 L106 30 Q75 5 29 -11 ZM112 130 Q107 160 95 191 L112 191 Q125 165 132 130 L112 130 Z" /><glyph glyph-name="uni4EEC" unicode="&#x4eec;" d="M181 -22 L181 -7 L198 -7 Q214 -8 213 7 L213 172 L156 172 L156 186 L234 186 L234 8 Q235 -23 205 -22 L181 -22 ZM40 -25 L40 130 Q27 119 9 110 L9 123 Q48 151 59 205 L80 205 Q73 174 60 154 L60 -25 L40 -25 ZM95 -23 L95 153 L115 153 L115 -23 L95 -23 ZM118 163 Q114 184 103 203 L121 203 Q131 187 138 163 L118 163 Z" /><glyph glyph-name="uni4F0A" unicode="&#x4f0a;" d="M75 117 L75 131 L127 131 Q127 141 127 153 L127 176 L91 176 L91 190 L224 190 L224 131 L246 131 L246 117 L224 117 L224 90 Q225 58 189 59 L139 59 Q129 10 77 -26 L77 -10 Q110 19 120 59 L81 59 L81 72 L122 72 Q126 92 126 117 L75 117 ZM39 -25 L39 126 Q27 117 10 110 L10 123 Q50 148 61 205 L82 205 Q71 163 59 147 L59 -25 L39 -25 ZM186 72 Q204 72 204 91 L204 117 L147 117 Q145 87 142 72 L186 72 ZM204 176 L148 176 L148 158 Q148 140 147 131 L204 131 L204 176 Z" /><glyph glyph-name="uni4F18" unicode="&#x4f18;" d="M78 139 L78 153 L129 153 Q129 154 129 156 Q130 160 130 162 L130 205 L150 205 L150 171 Q150 161 150 153 L240 153 L240 139 L149 139 Q147 33 78 -25 L78 -7 Q127 49 129 139 L78 139 ZM42 -25 L42 129 Q28 119 10 110 L10 123 Q51 149 62 205 L83 205 Q76 171 62 152 L62 -25 L42 -25 ZM191 -16 Q159 -17 160 10 L160 121 L180 121 L180 12 Q179 -4 196 -3 L211 -3 Q227 -4 227 10 L227 20 L242 20 L242 9 Q243 -17 214 -16 L191 -16 ZM189 164 Q188 178 180 200 L197 200 Q206 182 209 164 L189 164 Z" /><glyph glyph-name="uni4F1A" unicode="&#x4f1a;" d="M20 64 L20 78 L236 78 L236 64 L111 64 Q95 31 63 2 Q145 2 189 6 Q185 18 172 42 L190 42 Q208 15 219 -20 L198 -20 L195 -6 Q135 -12 63 -12 L42 -12 L42 2 Q73 33 86 64 L20 64 ZM246 111 Q170 137 128 185 Q86 137 10 111 L10 124 Q80 153 117 208 L138 208 Q177 152 246 124 L246 111 ZM63 113 L63 127 L191 127 L191 113 L63 113 Z" /><glyph glyph-name="uni4F1F" unicode="&#x4f1f;" d="M82 169 L82 183 L140 183 L140 206 L161 206 L161 183 L233 183 L233 169 L161 169 L161 135 L223 135 L223 122 L161 122 L161 86 L235 86 L235 34 Q236 3 206 4 L185 4 L185 17 L200 17 Q215 17 215 34 L215 72 L161 72 L161 -25 L140 -25 L140 72 L75 72 L75 86 L140 86 L140 122 L89 122 L89 135 L140 135 L140 169 L82 169 ZM41 -25 L41 129 Q29 119 10 110 L10 123 Q50 149 59 205 L80 205 Q70 167 61 153 L61 -25 L41 -25 Z" /><glyph glyph-name="uni4F20" unicode="&#x4f20;" d="M90 167 L90 181 L136 181 L140 205 L162 205 Q160 192 157 181 L236 181 L236 167 L155 167 Q149 145 143 126 L245 126 L245 112 L139 112 Q136 104 129 89 Q126 82 125 78 L229 78 L229 65 Q210 33 178 9 Q200 2 222 -7 L222 -28 Q165 1 99 18 L99 33 Q103 32 111 30 Q146 21 163 15 Q188 36 204 65 L106 65 L106 78 Q113 96 119 112 L79 112 L79 126 L123 126 Q129 145 133 167 L90 167 ZM42 -25 L42 130 Q30 119 10 110 L10 123 Q51 150 60 205 L81 205 Q74 172 62 154 L62 -25 L42 -25 Z" /><glyph glyph-name="uni4F46" unicode="&#x4f46;" d="M98 43 L98 190 L228 190 L228 74 Q229 42 195 43 L98 43 ZM39 -25 L39 127 Q28 118 10 110 L10 123 Q51 150 60 205 L81 205 Q73 170 59 149 L59 -25 L39 -25 ZM118 57 L190 57 Q208 56 207 75 L207 112 L118 112 L118 57 ZM118 176 L118 125 L207 125 L207 176 L118 176 ZM80 -11 L80 2 L245 2 L245 -11 L80 -11 Z" /><glyph glyph-name="uni4F4D" unicode="&#x4f4d;" d="M77 -14 L77 0 L131 0 Q110 59 104 137 L125 137 Q129 58 148 0 L174 0 Q193 68 197 137 L217 137 Q211 50 191 0 L246 0 L246 -14 L77 -14 ZM45 -25 L45 128 Q32 116 12 109 L12 122 Q55 149 64 205 L84 205 Q77 172 66 153 L66 -25 L45 -25 ZM83 159 L83 173 L152 173 L152 203 L175 203 L175 173 L240 173 L240 159 L83 159 Z" /><glyph glyph-name="uni4F4E" unicode="&#x4f4e;" d="M220 -21 Q175 -25 164 97 L113 97 L113 12 Q130 19 157 36 L157 20 L150 15 Q159 -1 164 -23 L145 -23 Q142 -6 137 5 Q122 -2 93 -15 L93 188 L185 188 Q218 188 238 196 L238 180 Q216 174 186 174 L180 174 Q180 140 183 111 L243 111 L243 97 L184 97 Q184 82 187 69 Q198 -6 220 -6 Q234 -7 233 17 L248 17 Q249 -22 220 -21 ZM42 -25 L42 129 Q29 117 9 110 L9 122 Q51 149 62 205 L83 205 Q73 167 62 151 L62 -25 L42 -25 ZM113 174 L113 111 L163 111 Q160 140 160 174 L113 174 Z" /><glyph glyph-name="uni4F50" unicode="&#x4f50;" d="M80 161 L80 175 L129 175 Q132 189 134 205 L156 205 Q153 189 150 175 L242 175 L242 161 L147 161 Q140 131 129 108 L233 108 L233 94 L179 94 L179 1 L245 1 L245 -11 L82 -11 L82 1 L159 1 L159 94 L123 94 Q104 56 71 24 L71 42 Q112 98 126 161 L80 161 ZM40 -25 L40 127 Q23 115 10 110 L10 123 Q50 149 61 205 L82 205 Q74 170 60 149 L60 -25 L40 -25 Z" /><glyph glyph-name="uni4F51" unicode="&#x4f51;" d="M82 163 L82 176 L132 176 Q135 189 138 204 L159 204 Q156 189 153 176 L242 176 L242 163 L150 163 Q141 132 129 108 L229 108 L229 14 Q229 -15 198 -15 L107 -15 L107 70 Q88 42 71 26 L71 45 Q115 103 129 163 L82 163 ZM127 -1 L193 -1 Q209 -1 209 14 L209 94 L127 94 L127 -1 ZM39 -25 L39 128 Q27 118 9 110 L9 123 Q49 148 61 205 L82 205 Q73 167 59 148 L59 -25 L39 -25 Z" /><glyph glyph-name="uni4F53" unicode="&#x4f53;" d="M83 154 L83 168 L148 168 L148 205 L168 205 L168 168 L235 168 L235 154 L209 154 Q209 79 240 28 L240 9 Q189 66 190 154 L168 154 L168 39 L207 39 L207 25 L168 25 L168 -24 L148 -24 L148 25 L107 25 L107 39 L148 39 L148 154 L125 154 Q125 65 74 8 L74 28 Q107 82 106 154 L83 154 ZM42 -24 L42 127 Q29 118 11 110 L11 123 Q54 149 63 205 L85 205 Q75 168 62 148 L62 -24 L42 -24 Z" /><glyph glyph-name="uni4F5C" unicode="&#x4f5c;" d="M79 122 L79 135 Q117 161 124 204 L146 204 Q143 189 137 177 L245 177 L245 164 L161 164 L161 113 L231 113 L231 99 L161 99 L161 47 L239 47 L239 33 L161 33 L161 -25 L140 -25 L140 164 L131 164 Q115 140 79 122 ZM42 -25 L42 129 Q30 118 11 109 L11 123 Q51 148 61 205 L83 205 Q75 171 63 152 L63 -25 L42 -25 Z" /><glyph glyph-name="uni4F60" unicode="&#x4f60;" d="M43 -25 L43 129 Q30 118 11 109 L11 122 Q54 147 64 205 L85 205 Q76 171 63 151 L63 -25 L43 -25 ZM120 -22 L120 -7 L136 -7 Q154 -7 153 7 L153 146 L173 146 L173 8 Q174 -23 143 -22 L120 -22 ZM81 124 L81 137 Q115 158 121 202 L141 202 Q140 200 139 195 Q136 185 135 181 L238 181 L238 133 L218 133 L218 167 L129 167 Q118 140 81 124 ZM81 4 L81 20 Q112 55 112 120 L130 120 Q132 42 81 4 ZM244 4 Q194 41 196 120 L215 120 Q214 56 244 20 L244 4 Z" /><glyph glyph-name="uni4F69" unicode="&#x4f69;" d="M244 -25 Q210 -3 213 45 L213 180 L94 180 L94 45 Q97 -3 63 -25 L63 -11 Q78 6 77 37 L77 194 L230 194 L230 37 Q229 8 244 -11 L244 -25 ZM146 -22 L146 105 L125 105 L125 5 L110 5 L110 117 L146 117 L146 143 L108 143 L108 155 L200 155 L200 143 L161 143 L161 117 L197 117 L197 26 Q198 6 180 7 L172 7 L172 19 L176 19 Q183 18 182 25 L182 105 L161 105 L161 -22 L146 -22 ZM34 -25 L34 129 Q24 120 10 111 L10 124 Q42 153 48 204 L67 204 Q61 173 52 153 L52 -25 L34 -25 Z" /><glyph glyph-name="uni4F9B" unicode="&#x4f9b;" d="M82 155 L82 169 L113 169 L113 206 L133 206 L133 169 L184 169 L184 206 L204 206 L204 169 L235 169 L235 155 L204 155 L204 77 L244 77 L244 63 L73 63 L73 77 L113 77 L113 155 L82 155 ZM41 -25 L41 128 Q29 116 11 107 L11 120 Q47 151 55 204 L76 204 Q70 174 61 155 L61 -25 L41 -25 ZM133 155 L133 77 L184 77 L184 155 L133 155 ZM78 -24 L78 -11 Q114 7 122 48 L143 48 Q136 -2 78 -24 ZM240 -24 Q183 -2 176 48 L197 48 Q203 9 240 -11 L240 -24 Z" /><glyph glyph-name="uni4FCA" unicode="&#x4fca;" d="M242 -24 Q190 -13 159 4 Q128 -12 74 -24 L74 -12 Q127 3 144 14 Q125 29 108 52 Q98 46 81 40 L81 52 Q117 70 131 103 L152 103 Q148 93 142 84 L220 84 L220 71 Q203 34 174 13 Q194 0 242 -12 L242 -24 ZM11 109 L11 122 Q56 153 64 205 L84 205 Q78 172 61 148 L61 -24 L41 -24 L41 127 Q29 117 11 109 ZM91 142 L91 157 Q121 180 137 204 L162 204 Q140 176 113 157 Q173 157 205 161 Q203 165 198 173 Q194 181 192 185 L208 185 Q227 158 236 133 L217 133 L211 149 Q163 142 91 142 ZM197 71 L132 71 Q125 64 114 56 L129 56 Q143 37 159 24 Q183 42 197 71 ZM77 91 L77 103 Q110 111 125 132 L146 132 Q128 98 77 91 ZM244 91 Q192 99 175 132 L195 132 Q211 111 244 103 L244 91 Z" /><glyph glyph-name="uni4FCF" unicode="&#x4fcf;" d="M91 -24 L91 141 L152 141 L152 206 L172 206 L172 141 L234 141 L234 5 Q235 -22 206 -21 L184 -21 L184 -7 L201 -7 Q214 -7 214 5 L214 30 L111 30 L111 -24 L91 -24 ZM9 109 L9 122 Q48 153 57 204 L78 204 Q69 168 57 151 L57 -25 L37 -25 L37 128 Q25 118 9 109 ZM111 79 L111 44 L214 44 L214 79 L111 79 ZM111 127 L111 93 L214 93 L214 127 L111 127 ZM200 152 Q208 172 211 199 L230 199 Q226 169 217 152 L200 152 ZM108 152 Q99 169 95 199 L114 199 Q116 174 125 152 L108 152 Z" /><glyph glyph-name="uni501F" unicode="&#x501f;" d="M93 -18 L93 89 L225 89 L225 11 Q227 -19 192 -18 L93 -18 ZM84 169 L84 183 L115 183 L115 204 L135 204 L135 183 L183 183 L183 204 L203 204 L203 183 L237 183 L237 169 L203 169 L203 128 L243 128 L243 114 L77 114 L77 128 L115 128 L115 169 L84 169 ZM39 -25 L39 130 Q27 119 9 110 L9 122 Q48 154 56 205 L76 205 Q71 174 59 155 L59 -25 L39 -25 ZM113 -5 L188 -5 Q206 -5 205 13 L205 30 L113 30 L113 -5 ZM113 75 L113 43 L205 43 L205 75 L113 75 ZM135 169 L135 128 L183 128 L183 169 L135 169 Z" /><glyph glyph-name="uni5065" unicode="&#x5065;" d="M122 138 L122 150 L167 150 L167 173 L134 173 L134 186 L167 186 L167 206 L185 206 L185 186 L228 186 L228 150 L244 150 L244 138 L228 138 L228 128 Q229 101 201 102 L185 102 L185 81 L232 81 L232 68 L185 68 L185 44 L236 44 L236 31 L185 31 L185 6 L167 6 L167 31 L124 31 L124 44 L167 44 L167 68 L131 68 L131 81 L167 81 L167 102 L132 102 L132 114 L167 114 L167 138 L122 138 ZM158 -15 Q119 -15 98 1 Q85 -10 61 -23 L61 -10 Q78 1 88 12 Q71 34 65 81 L80 81 Q86 47 97 27 Q103 43 103 68 L103 103 L68 103 L68 116 Q95 144 105 172 L71 172 L71 186 L125 186 L125 172 Q112 142 86 116 L120 116 L120 70 Q120 34 108 13 Q123 -2 160 -1 L242 -1 L242 -15 L158 -15 ZM34 -24 L34 129 Q25 120 10 112 L10 125 Q43 153 50 205 L70 205 Q63 169 52 152 L52 -24 L34 -24 ZM211 173 L185 173 L185 150 L211 150 L211 173 ZM198 114 Q212 113 211 128 L211 138 L185 138 L185 114 L198 114 Z" /><glyph glyph-name="uni50CF" unicode="&#x50cf;" d="M77 148 L77 160 Q112 176 124 206 L144 206 Q140 197 135 190 L202 190 L202 177 Q193 164 183 156 L232 156 L232 131 Q234 102 202 103 L155 103 Q181 90 180 54 L180 11 Q181 -22 148 -21 L130 -21 L130 -8 L144 -8 Q161 -9 161 8 L161 28 Q134 4 72 -12 L72 -1 Q126 15 161 49 Q161 59 159 66 Q131 39 75 24 L75 36 Q125 52 155 81 Q150 89 144 93 Q124 73 78 60 L78 72 Q114 84 131 103 L87 103 L87 152 Q86 152 85 151 Q82 151 77 148 ZM9 109 L9 121 Q49 152 58 204 L78 204 Q71 172 58 151 L58 -24 L39 -24 L39 129 Q26 118 9 109 ZM245 -14 Q196 9 188 70 L188 83 L209 83 Q227 83 238 89 L238 75 Q225 70 211 70 L206 70 Q212 22 245 -1 L245 -14 ZM173 144 Q172 142 171 138 Q165 122 161 115 L199 115 Q214 114 213 130 L213 144 L173 144 ZM180 177 L126 177 Q116 165 97 156 L162 156 Q175 169 180 177 ZM106 115 L141 115 Q149 127 153 144 L106 144 L106 115 Z" /><glyph glyph-name="uni5143" unicode="&#x5143;" d="M14 105 L14 120 L242 120 L242 105 L169 105 L169 18 Q167 -4 191 -2 L202 -2 Q226 -3 224 15 L224 24 L241 24 L241 12 Q242 -17 204 -16 L186 -16 Q145 -17 147 19 L147 105 L101 105 L101 95 Q106 5 15 -24 L15 -10 Q83 19 79 95 L79 105 L14 105 ZM36 176 L36 190 L220 190 L220 176 L36 176 Z" /><glyph glyph-name="uni5149" unicode="&#x5149;" d="M13 92 L13 106 L117 106 L117 206 L139 206 L139 106 L244 106 L244 92 L169 92 L169 12 Q169 -5 186 -4 L211 -4 Q227 -4 227 11 L227 21 L243 21 L243 8 Q243 -19 213 -19 L180 -19 Q148 -19 148 11 L148 92 L102 92 Q108 5 13 -24 L13 -11 Q84 19 81 92 L13 92 ZM56 129 Q42 156 37 187 L59 187 Q62 159 75 129 L56 129 ZM181 129 Q194 159 197 187 L218 187 Q212 152 199 129 L181 129 Z" /><glyph glyph-name="uni514B" unicode="&#x514b;" d="M14 168 L14 183 L117 183 L117 207 L138 207 L138 183 L242 183 L242 168 L138 168 L138 136 L215 136 L215 90 Q216 59 184 60 L164 60 L164 10 Q164 -6 181 -6 L209 -6 Q226 -6 226 8 L226 19 L242 19 L242 6 Q242 -20 212 -20 L175 -20 Q142 -21 143 9 L143 60 L106 60 Q107 -9 14 -26 L14 -13 Q85 5 86 60 L40 60 L40 136 L117 136 L117 168 L14 168 ZM61 74 L179 74 Q196 73 195 91 L195 122 L61 122 L61 74 Z" /><glyph glyph-name="uni5165" unicode="&#x5165;" d="M243 -23 Q155 36 129 122 Q104 42 13 -24 L13 -8 Q93 57 119 158 Q113 179 109 205 L131 205 Q155 56 243 -8 L243 -23 Z" /><glyph glyph-name="uni5168" unicode="&#x5168;" d="M55 107 L55 122 L200 122 L200 107 L139 107 L139 67 L214 67 L214 52 L139 52 L139 0 L236 0 L236 -13 L21 -13 L21 0 L117 0 L117 52 L42 52 L42 67 L117 67 L117 107 L55 107 ZM246 110 Q169 137 128 186 Q87 138 10 110 L10 124 Q79 152 116 208 L139 208 Q178 151 246 124 L246 110 Z" /><glyph glyph-name="uni516B" unicode="&#x516b;" d="M13 -24 L13 -7 Q42 24 52 57 Q62 89 62 149 L62 194 L85 194 L85 148 Q91 31 13 -24 ZM243 -24 Q201 10 186 46 Q171 82 171 148 L171 194 L193 194 L193 149 Q189 45 243 -7 L243 -24 Z" /><glyph glyph-name="uni516C" unicode="&#x516c;" d="M204 -22 Q202 -16 198 -4 Q197 -1 196 0 Q132 -9 58 -9 L37 -9 L37 7 Q83 55 102 110 L127 110 Q101 48 58 7 Q144 7 191 13 Q186 24 175 45 Q170 56 167 61 L185 61 Q206 27 225 -22 L204 -22 ZM243 86 Q170 121 149 195 L172 195 Q187 137 243 99 L243 86 ZM13 86 L13 99 Q69 138 83 195 L107 195 Q86 121 13 86 Z" /><glyph glyph-name="uni516D" unicode="&#x516d;" d="M14 158 L14 173 L116 173 L116 203 L139 203 L139 173 L242 173 L242 158 L14 158 ZM243 -20 Q203 13 192 41 Q179 69 179 124 L202 124 Q202 74 210 50 Q217 26 243 -3 L243 -20 ZM13 -20 L13 -3 Q39 26 46 50 Q54 74 54 124 L76 124 Q76 69 64 41 Q52 13 13 -20 Z" /><glyph glyph-name="uni5170" unicode="&#x5170;" d="M21 153 L21 168 L74 168 Q67 183 65 203 L86 203 Q88 184 94 168 L161 168 Q169 184 170 203 L191 203 Q190 183 182 168 L234 168 L234 153 L21 153 ZM13 -8 L13 5 L242 5 L242 -8 L13 -8 ZM39 76 L39 91 L217 91 L217 76 L39 76 Z" /><glyph glyph-name="uni5174" unicode="&#x5174;" d="M12 80 L12 95 L244 95 L244 80 L12 80 ZM51 112 Q45 149 26 195 L44 195 Q64 150 72 112 L51 112 ZM176 112 Q202 155 209 197 L231 197 Q218 147 194 112 L176 112 ZM129 112 Q122 153 105 195 L123 195 Q142 152 149 112 L129 112 ZM17 -22 L17 -10 Q65 14 79 58 L102 58 Q81 -2 17 -22 ZM239 -22 Q175 -2 154 58 L177 58 Q191 13 239 -10 L239 -22 Z" /><glyph glyph-name="uni5175" unicode="&#x5175;" d="M12 51 L12 65 L51 65 L51 190 L140 190 Q177 189 218 199 L218 184 Q185 176 146 176 L72 176 L72 138 L231 138 L231 124 L181 124 L181 65 L244 65 L244 51 L12 51 ZM72 124 L72 65 L160 65 L160 124 L72 124 ZM240 -25 Q173 -12 159 35 L181 35 Q191 1 240 -12 L240 -25 ZM16 -25 L16 -12 Q64 1 75 35 L97 35 Q82 -12 16 -25 Z" /><glyph glyph-name="uni5176" unicode="&#x5176;" d="M17 170 L17 184 L53 184 L53 205 L73 205 L73 184 L182 184 L182 205 L202 205 L202 184 L239 184 L239 170 L202 170 L202 49 L243 49 L243 35 L12 35 L12 49 L53 49 L53 170 L17 170 ZM73 82 L73 49 L182 49 L182 82 L73 82 ZM73 127 L73 95 L182 95 L182 127 L73 127 ZM73 170 L73 140 L182 140 L182 170 L73 170 ZM240 -26 Q175 -16 151 23 L174 23 Q193 -4 240 -14 L240 -26 ZM16 -26 L16 -14 Q63 -4 81 23 L105 23 Q81 -16 16 -26 Z" /><glyph glyph-name="uni5185" unicode="&#x5185;" d="M67 30 L67 43 Q121 77 117 150 L117 154 L52 154 L52 -23 L30 -23 L30 168 L117 168 L117 205 L138 205 L138 168 L225 168 L225 19 Q227 -22 186 -20 L168 -20 L168 -5 L184 -5 Q205 -6 204 15 L204 154 L138 154 L138 150 Q134 79 189 43 L189 30 Q146 52 128 88 Q111 51 67 30 Z" /><glyph glyph-name="uni5199" unicode="&#x5199;" d="M155 -22 L155 -8 L182 -8 Q204 -9 203 11 L203 73 L49 73 L49 87 Q56 120 58 163 L79 163 Q78 148 76 136 L219 136 L219 122 L75 122 Q72 101 68 87 L225 87 L225 13 Q226 -23 187 -22 L155 -22 ZM20 149 L20 193 L236 193 L236 149 L215 149 L215 179 L41 179 L41 149 L20 149 ZM11 28 L11 41 L183 41 L183 28 L11 28 Z" /><glyph glyph-name="uni51AF" unicode="&#x51af;" d="M165 -22 L165 -8 L193 -8 Q215 -8 215 12 L215 88 L117 88 Q87 87 88 114 L88 163 L109 163 L109 118 Q108 101 126 102 L192 102 L192 180 L78 180 L78 194 L214 194 L214 102 L237 102 L237 13 Q239 -24 199 -22 L165 -22 ZM9 -20 Q35 37 42 100 L61 100 Q53 30 32 -20 L9 -20 ZM72 38 L72 52 L201 52 L201 38 L72 38 ZM39 132 Q35 152 17 193 L35 193 Q49 169 60 132 L39 132 Z" /><glyph glyph-name="uni51E0" unicode="&#x51e0;" d="M198 -15 Q160 -16 161 18 L161 178 L84 178 L84 108 Q84 56 70 29 Q57 2 16 -24 L16 -9 Q65 28 62 96 L62 193 L184 193 L184 19 Q182 -3 205 0 Q228 -1 226 17 L226 25 L242 25 L242 11 Q243 -16 209 -15 L198 -15 Z" /><glyph glyph-name="uni51E1" unicode="&#x51e1;" d="M201 -16 Q163 -17 165 16 L165 178 L77 178 L77 108 Q77 56 64 30 Q52 3 14 -24 L14 -9 Q59 29 55 96 L55 193 L187 193 L187 18 Q185 -3 208 -1 Q229 -3 227 16 L227 23 L243 23 L243 10 Q243 -16 213 -16 L201 -16 ZM118 69 Q115 94 105 131 L122 131 Q131 106 139 69 L118 69 Z" /><glyph glyph-name="uni51E4" unicode="&#x51e4;" d="M243 -24 Q198 0 202 49 L202 178 L53 178 L53 49 Q57 0 13 -24 L13 -9 Q35 6 33 40 L33 192 L223 192 L223 40 Q221 6 243 -9 L243 -24 ZM70 -6 L70 6 Q100 22 119 40 Q95 67 82 120 L102 120 Q112 78 130 53 Q154 83 158 134 L74 134 L74 148 L178 148 L178 134 Q171 71 142 40 Q155 24 187 6 L187 -6 Q152 8 130 28 Q108 9 70 -6 Z" /><glyph glyph-name="uni51FA" unicode="&#x51fa;" d="M34 100 L34 189 L55 189 L55 115 L117 115 L117 205 L139 205 L139 115 L180 115 Q202 114 201 137 L201 189 L221 189 L221 135 Q221 100 187 100 L139 100 L139 -2 L187 -2 Q209 -3 208 18 L208 77 L228 77 L228 16 Q229 -17 194 -16 L27 -16 L27 77 L47 77 L47 -2 L117 -2 L117 100 L34 100 Z" /><glyph glyph-name="uni5206" unicode="&#x5206;" d="M144 -18 L144 -3 L163 -3 Q183 -4 182 15 L182 93 L110 93 Q108 7 23 -26 L23 -11 Q88 20 89 93 L47 93 L47 108 L202 108 L202 14 Q203 -19 169 -18 L144 -18 ZM243 95 Q164 124 147 201 L169 201 Q185 136 243 109 L243 95 ZM13 95 L13 109 Q71 136 87 201 L108 201 Q92 124 13 95 Z" /><glyph glyph-name="uni5217" unicode="&#x5217;" d="M20 180 L20 194 L146 194 L146 180 L82 180 Q78 159 71 144 L134 144 L134 130 Q119 26 19 -25 L19 -11 Q68 21 90 59 Q64 74 37 81 L37 94 Q68 89 96 76 L96 72 Q107 96 114 130 L65 130 Q51 102 15 76 L15 90 Q52 127 62 180 L20 180 ZM180 -22 L180 -8 L198 -8 Q213 -8 213 6 L213 203 L232 203 L232 8 Q233 -23 204 -22 L180 -22 ZM159 30 L159 177 L178 177 L178 30 L159 30 Z" /><glyph glyph-name="uni5218" unicode="&#x5218;" d="M12 164 L12 178 L66 178 L66 205 L89 205 L89 178 L141 178 L141 164 L126 164 Q119 81 88 42 Q106 18 141 -5 L141 -20 Q95 9 77 29 Q59 9 13 -20 L13 -5 Q44 14 67 42 Q35 82 28 164 L12 164 ZM179 -21 L179 -7 L194 -7 Q214 -8 213 11 L213 202 L232 202 L232 12 Q233 -22 199 -21 L179 -21 ZM77 56 Q102 95 106 164 L48 164 Q52 95 77 56 ZM157 29 L157 181 L176 181 L176 29 L157 29 Z" /><glyph glyph-name="uni5219" unicode="&#x5219;" d="M26 40 L26 193 L132 193 L132 40 L114 40 L114 179 L44 179 L44 40 L26 40 ZM163 26 L163 182 L182 182 L182 26 L163 26 ZM179 -21 L179 -7 L198 -7 Q214 -8 214 6 L214 203 L233 203 L233 7 Q234 -22 205 -21 L179 -21 ZM15 -24 L15 -10 Q72 24 70 83 L70 160 L88 160 L88 83 Q86 25 140 -10 L140 -24 Q95 -1 79 35 Q62 -1 15 -24 Z" /><glyph glyph-name="uni521B" unicode="&#x521b;" d="M65 -17 Q34 -18 35 12 L35 125 L127 125 L127 71 Q129 40 97 41 L83 41 L83 55 L95 55 Q108 55 108 68 L108 111 L54 111 L54 13 Q53 -4 71 -3 L111 -3 Q128 -4 127 12 L127 21 L143 21 L143 9 Q145 -19 112 -17 L65 -17 ZM181 -22 L181 -7 L198 -7 Q214 -8 213 7 L213 205 L233 205 L233 9 Q234 -23 204 -22 L181 -22 ZM148 118 Q99 143 81 180 Q61 141 12 116 L12 130 Q54 159 70 205 L91 205 Q108 159 148 132 L148 118 ZM163 29 L163 186 L181 186 L181 29 L163 29 Z" /><glyph glyph-name="uni5229" unicode="&#x5229;" d="M135 31 Q101 63 86 90 L86 -25 L66 -25 L66 87 Q47 49 11 11 L11 30 Q48 80 64 126 L13 126 L13 140 L66 140 L66 178 L18 178 L18 192 L79 192 Q108 192 133 198 L133 183 Q109 178 86 178 L86 140 L138 140 L138 126 L87 126 Q103 86 135 49 L135 31 ZM177 -20 L177 -6 L196 -6 Q212 -7 211 7 L211 204 L231 204 L231 8 Q232 -21 204 -20 L177 -20 ZM153 23 L153 182 L173 182 L173 23 L153 23 Z" /><glyph glyph-name="uni522B" unicode="&#x522b;" d="M26 116 L26 193 L133 193 L133 147 Q134 115 102 116 L26 116 ZM10 -26 L10 -12 Q54 16 54 72 L17 72 L17 85 L55 85 L55 107 L74 107 L74 85 L135 85 L135 12 Q135 -21 104 -20 L80 -20 L80 -6 L98 -6 Q116 -6 115 10 L115 72 L74 72 Q75 8 10 -26 ZM178 -21 L178 -7 L196 -7 Q213 -8 212 6 L212 204 L232 204 L232 7 Q232 -22 204 -21 L178 -21 ZM45 129 L97 129 Q115 128 114 147 L114 180 L45 180 L45 129 ZM162 26 L162 180 L182 180 L182 26 L162 26 Z" /><glyph glyph-name="uni5230" unicode="&#x5230;" d="M15 178 L15 192 L148 192 L148 178 L81 178 Q63 146 40 124 Q94 124 116 127 Q108 146 101 160 L118 160 Q133 134 144 99 L125 99 L120 114 Q80 109 20 109 L20 124 Q45 149 59 178 L15 178 ZM19 58 L19 72 L70 72 L70 98 L90 98 L90 72 L142 72 L142 58 L90 58 L90 7 Q115 10 147 16 L147 3 Q83 -12 11 -11 L11 4 Q44 4 70 6 L70 58 L19 58 ZM179 -21 L179 -7 L198 -7 Q214 -8 213 6 L213 204 L233 204 L233 7 Q234 -22 206 -21 L179 -21 ZM163 26 L163 182 L182 182 L182 26 L163 26 Z" /><glyph glyph-name="uni524D" unicode="&#x524d;" d="M28 -25 L28 137 L130 137 L130 7 Q132 -22 99 -21 L81 -21 L81 -7 L95 -7 Q111 -8 110 7 L110 31 L48 31 L48 -25 L28 -25 ZM12 162 L12 177 L70 177 Q64 189 61 205 L84 205 Q85 189 92 177 L163 177 Q169 187 172 205 L194 205 Q191 189 185 177 L243 177 L243 162 L12 162 ZM175 -21 L175 -7 L193 -7 Q208 -7 208 7 L208 142 L228 142 L228 7 Q228 -22 200 -21 L175 -21 ZM159 13 L159 132 L178 132 L178 13 L159 13 ZM48 78 L48 45 L110 45 L110 78 L48 78 ZM48 123 L48 91 L110 91 L110 123 L48 123 Z" /><glyph glyph-name="uni529B" unicode="&#x529b;" d="M13 -25 L13 -9 Q98 46 97 153 L21 153 L21 168 L98 168 Q98 174 98 179 L98 205 L120 205 L120 189 Q120 179 120 168 L228 168 L228 21 Q229 -18 184 -17 L159 -17 L159 -3 L182 -3 Q205 -3 205 18 L205 153 L119 153 Q121 34 13 -25 Z" /><glyph glyph-name="uni529E" unicode="&#x529e;" d="M16 -25 L16 -10 Q61 26 76 61 Q92 95 93 160 L22 160 L22 175 L93 175 L93 206 L116 206 L116 189 Q116 187 116 182 Q115 178 115 175 L200 175 L200 23 Q201 -18 158 -17 L134 -17 L134 -3 L156 -3 Q178 -3 178 18 L178 160 L115 160 Q120 34 16 -25 ZM12 54 Q26 86 36 131 L51 131 Q43 88 30 54 L12 54 ZM228 54 Q224 86 206 131 L222 131 Q239 89 246 54 L228 54 Z" /><glyph glyph-name="uni52A0" unicode="&#x52a0;" d="M147 -7 L147 179 L235 179 L235 21 Q236 -8 204 -7 L147 -7 ZM11 -27 L11 -7 Q50 52 48 157 L16 157 L16 171 L48 171 L48 205 L68 205 L68 171 L121 171 L121 12 Q122 -20 89 -18 L68 -18 L68 -4 L86 -4 Q101 -5 101 9 L101 157 L67 157 Q67 85 55 49 Q45 13 11 -27 ZM166 5 L199 5 Q216 4 215 22 L215 166 L166 166 L166 5 Z" /><glyph glyph-name="uni52A8" unicode="&#x52a8;" d="M120 -25 L120 -6 Q141 29 147 61 Q154 92 155 153 L123 153 L123 167 L155 167 L155 205 L175 205 L175 185 Q175 176 175 167 L237 167 L237 16 Q238 -21 204 -20 L185 -20 L185 -6 L199 -6 Q218 -7 217 11 L217 153 L175 153 Q177 33 120 -25 ZM12 110 L12 123 L124 123 L124 110 L70 110 Q57 59 34 25 Q73 25 97 28 Q90 61 81 81 L97 81 Q115 37 121 0 L103 0 L100 14 Q71 9 17 9 L17 25 Q40 64 49 110 L12 110 ZM23 173 L23 187 L114 187 L114 173 L23 173 Z" /><glyph glyph-name="uni52B1" unicode="&#x52b1;" d="M48 -24 L48 -6 Q61 16 66 38 Q70 60 70 105 L70 135 L45 135 L45 49 Q48 0 12 -24 L12 -10 Q29 8 28 39 L28 191 L143 191 L143 178 L45 178 L45 148 L141 148 L141 135 L88 135 L88 103 L131 103 L131 15 Q132 -19 99 -18 L87 -18 L87 -5 L96 -5 Q115 -6 114 12 L114 90 L87 90 Q88 16 48 -24 ZM140 -25 L140 -6 Q158 26 163 56 Q168 86 169 154 L148 154 L148 167 L169 167 L169 206 L187 206 L187 167 L235 167 L235 15 Q237 -22 202 -20 L188 -20 L188 -6 L199 -6 Q218 -7 217 10 L217 154 L187 154 Q187 78 177 45 Q169 12 140 -25 Z" /><glyph glyph-name="uni5305" unicode="&#x5305;" d="M75 -17 Q41 -18 42 13 L42 137 L151 137 L151 86 Q152 57 122 57 L63 57 L63 15 Q61 -4 83 -2 L203 -2 Q224 -3 223 13 L223 21 L240 21 L240 14 Q241 -18 207 -17 L75 -17 ZM12 131 L12 144 Q56 162 67 205 L89 205 Q88 203 87 199 Q83 188 80 183 L216 183 L216 67 Q217 35 184 35 L161 35 L161 49 L178 49 Q195 49 195 66 L195 168 L71 168 Q55 146 12 131 ZM63 123 L63 71 L116 71 Q132 70 131 85 L131 123 L63 123 Z" /><glyph glyph-name="uni5316" unicode="&#x5316;" d="M163 -17 Q130 -17 130 13 L130 66 Q109 58 84 52 L84 66 Q109 74 130 84 L130 205 L152 205 L152 96 Q194 123 216 174 L238 174 Q210 106 152 77 L152 15 Q151 -3 170 -2 L207 -2 Q223 -3 223 14 L223 24 L241 24 L241 10 Q242 -17 208 -17 L163 -17 ZM44 -24 L44 129 Q31 119 11 110 L11 123 Q54 149 63 205 L86 205 Q75 167 65 152 L65 -24 L44 -24 Z" /><glyph glyph-name="uni5341" unicode="&#x5341;" d="M13 107 L13 122 L116 122 L116 205 L139 205 L139 122 L243 122 L243 107 L139 107 L139 -25 L116 -25 L116 107 L13 107 Z" /><glyph glyph-name="uni5347" unicode="&#x5347;" d="M21 172 L21 186 L104 186 Q124 186 149 193 L149 177 Q129 172 106 172 L93 172 L93 106 L168 106 L168 205 L191 205 L191 106 L244 106 L244 92 L191 92 L191 -24 L168 -24 L168 92 L93 92 Q95 14 25 -24 L25 -10 Q75 27 71 92 L13 92 L13 106 L71 106 L71 172 L21 172 Z" /><glyph glyph-name="uni534E" unicode="&#x534e;" d="M160 89 Q129 88 130 120 L130 129 Q114 126 96 123 L96 136 Q114 139 130 143 L130 202 L151 202 L151 150 Q190 166 211 194 L233 194 Q208 152 151 135 L151 121 Q150 102 168 103 L206 103 Q223 103 223 119 L223 130 L240 130 L240 116 Q241 88 208 89 L160 89 ZM14 38 L14 53 L117 53 L117 80 L139 80 L139 53 L242 53 L242 38 L139 38 L139 -26 L117 -26 L117 38 L14 38 ZM15 134 L15 147 Q61 164 76 204 L98 204 Q88 178 73 163 L73 81 L52 81 L52 148 Q37 140 15 134 Z" /><glyph glyph-name="uni5360" unicode="&#x5360;" d="M38 -16 L38 97 L114 97 L114 204 L136 204 L136 164 L240 164 L240 149 L136 149 L136 97 L218 97 L218 16 Q220 -17 182 -16 L38 -16 ZM59 -2 L177 -2 Q198 -3 197 17 L197 82 L59 82 L59 -2 Z" /><glyph glyph-name="uni536B" unicode="&#x536b;" d="M164 57 L164 71 L184 71 Q202 71 201 89 L201 175 L117 175 L117 2 L243 2 L243 -11 L14 -11 L14 2 L95 2 L95 175 L25 175 L25 190 L223 190 L223 93 Q225 56 187 57 L164 57 Z" /><glyph glyph-name="uni5373" unicode="&#x5373;" d="M27 -13 L27 191 L121 191 L121 105 Q121 78 89 78 L47 78 L47 11 Q74 20 99 35 Q95 48 89 63 L105 63 Q121 32 130 -5 L110 -5 Q109 0 106 10 Q104 18 103 22 Q71 1 27 -13 ZM148 -26 L148 187 L232 187 L232 41 Q233 13 206 13 L185 13 L185 27 L201 27 Q213 27 213 41 L213 173 L168 173 L168 -26 L148 -26 ZM83 91 Q101 91 101 108 L101 128 L47 128 L47 91 L83 91 ZM47 177 L47 142 L101 142 L101 177 L47 177 Z" /><glyph glyph-name="uni539A" unicode="&#x539a;" d="M79 91 L79 161 L223 161 L223 118 Q224 90 197 91 L79 91 ZM12 -26 L12 -10 Q34 17 32 67 L32 192 L242 192 L242 179 L53 179 L53 80 Q56 5 12 -26 ZM58 19 L58 32 L147 32 L147 40 Q173 48 194 61 L76 61 L76 73 L225 73 L225 61 Q198 44 168 35 L168 32 L244 32 L244 19 L168 19 L168 3 Q169 -24 139 -23 L113 -23 L113 -10 L131 -10 Q148 -10 147 4 L147 19 L58 19 ZM97 103 L192 103 Q205 103 205 117 L205 121 L97 121 L97 103 ZM97 149 L97 132 L205 132 L205 149 L97 149 Z" /><glyph glyph-name="uni539F" unicode="&#x539f;" d="M80 58 L80 149 L126 149 Q131 158 132 171 L153 171 Q151 160 147 149 L225 149 L225 87 Q227 57 194 58 L164 58 L164 6 Q165 -23 134 -22 L114 -22 L114 -8 L129 -8 Q145 -9 144 6 L144 58 L80 58 ZM13 -25 L13 -8 Q36 19 34 72 L34 192 L242 192 L242 178 L55 178 L55 86 Q59 6 13 -25 ZM100 70 L189 70 Q206 69 205 88 L205 97 L100 97 L100 70 ZM100 136 L100 110 L205 110 L205 136 L100 136 ZM60 -10 L60 1 Q92 15 101 44 L121 44 Q109 2 60 -10 ZM248 -10 Q200 2 186 44 L206 44 Q215 15 248 1 L248 -10 Z" /><glyph glyph-name="uni53BB" unicode="&#x53bb;" d="M30 155 L30 170 L117 170 L117 206 L139 206 L139 170 L225 170 L225 155 L139 155 L139 97 L243 97 L243 82 L118 82 Q94 36 59 4 Q132 2 193 9 Q187 26 172 51 L191 51 Q211 17 227 -22 L206 -22 Q204 -17 200 -7 Q199 -3 199 -2 Q134 -12 59 -12 L38 -12 L38 4 Q73 39 92 82 L12 82 L12 97 L117 97 L117 155 L30 155 Z" /><glyph glyph-name="uni53C2" unicode="&#x53c2;" d="M18 113 L18 126 L101 126 Q106 134 112 143 L135 143 Q133 140 130 135 Q126 129 124 126 L241 126 L241 113 L167 113 Q189 87 242 68 L242 56 Q175 73 143 113 L113 113 Q86 77 14 56 L14 68 Q65 87 89 113 L18 113 ZM42 150 L42 164 Q76 182 97 205 L124 205 Q99 179 69 164 Q139 162 182 167 Q179 174 167 188 Q165 191 164 192 L183 192 Q203 171 216 144 L194 144 L190 154 Q146 150 68 150 L42 150 ZM25 -26 L25 -14 Q152 -1 197 43 L223 43 Q175 -15 25 -26 ZM39 13 L39 24 Q130 35 162 66 L186 66 Q150 22 39 13 ZM54 51 L54 62 Q113 71 137 92 L160 92 Q132 59 54 51 Z" /><glyph glyph-name="uni53CC" unicode="&#x53cc;" d="M243 -22 Q200 4 182 26 Q166 6 126 -22 L126 -7 Q153 15 171 39 Q140 80 130 158 L150 158 Q158 94 181 55 Q207 98 212 174 L124 174 L124 188 L232 188 L232 174 Q226 84 192 39 Q212 13 243 -7 L243 -22 ZM121 -22 Q85 0 64 25 Q50 7 10 -22 L10 -7 Q37 15 54 39 Q25 81 17 158 L37 158 Q44 92 64 56 Q87 96 91 174 L14 174 L14 188 L111 188 L111 174 Q106 83 74 38 Q92 13 121 -7 L121 -22 Z" /><glyph glyph-name="uni53D1" unicode="&#x53d1;" d="M23 147 L23 162 Q31 176 35 198 L57 198 Q50 174 43 162 L93 162 Q99 181 102 205 L124 205 Q120 181 115 162 L184 162 L184 198 L204 198 L204 162 L243 162 L243 147 L111 147 Q106 129 100 113 L220 113 L220 98 Q198 48 163 21 Q186 4 240 -11 L240 -24 Q181 -9 149 11 Q117 -8 56 -24 L56 -11 Q108 3 135 22 Q110 43 87 86 Q64 41 13 -6 L13 8 Q71 74 90 147 L23 147 ZM93 99 Q90 92 87 86 L110 86 Q126 53 150 32 Q178 56 198 99 L93 99 Z" /><glyph glyph-name="uni53D7" unicode="&#x53d7;" d="M242 -25 Q170 -14 127 5 Q91 -11 14 -25 L14 -12 Q84 2 109 15 Q82 31 56 62 L81 62 Q102 39 126 24 Q157 42 179 71 L45 71 L45 86 L205 86 L205 71 Q178 34 145 14 Q174 0 242 -11 L242 -25 ZM19 93 L19 132 L55 132 Q52 148 42 169 L60 169 Q70 150 74 132 L123 132 Q119 151 111 169 L129 169 Q137 154 142 132 L173 132 Q185 150 192 170 L212 170 Q204 148 191 132 L237 132 L237 93 L216 93 L216 118 L39 118 L39 93 L19 93 ZM27 179 L27 193 L148 193 Q190 192 227 202 L227 187 Q191 178 153 179 L27 179 Z" /><glyph glyph-name="uni53E3" unicode="&#x53e3;" d="M56 3 L183 3 Q201 3 201 23 L201 168 L56 168 L56 3 ZM34 -9 L34 183 L223 183 L223 26 Q224 -10 188 -9 L34 -9 Z" /><glyph glyph-name="uni53EA" unicode="&#x53ea;" d="M15 -23 L15 -10 Q65 13 73 58 L95 58 Q85 0 15 -23 ZM62 91 L175 91 Q196 91 196 112 L196 176 L62 176 L62 91 ZM40 77 L40 191 L218 191 L218 114 Q219 76 180 77 L40 77 ZM241 -23 Q170 0 161 58 L183 58 Q191 13 241 -10 L241 -23 Z" /><glyph glyph-name="uni53EF" unicode="&#x53ef;" d="M38 26 L38 140 L143 140 L143 57 Q144 25 111 26 L38 26 ZM11 173 L11 188 L245 188 L245 173 L209 173 L209 8 Q210 -22 176 -21 L155 -21 L155 -6 L170 -6 Q188 -7 187 10 L187 173 L11 173 ZM58 39 L106 39 Q124 39 123 56 L123 126 L58 126 L58 39 Z" /><glyph glyph-name="uni53F0" unicode="&#x53f0;" d="M41 -17 L41 84 L216 84 L216 13 Q217 -18 182 -17 L41 -17 ZM62 -3 L177 -3 Q195 -4 194 14 L194 69 L62 69 L62 -3 ZM210 100 L204 118 Q143 111 51 111 L27 111 L27 127 Q68 161 91 205 L117 205 Q89 158 49 127 Q147 127 198 132 Q189 152 175 174 L194 174 Q218 138 232 100 L210 100 Z" /><glyph glyph-name="uni53F2" unicode="&#x53f2;" d="M34 85 L34 175 L118 175 L118 205 L139 205 L139 175 L224 175 L224 116 Q225 85 191 85 L139 85 Q138 46 116 22 Q155 -2 244 -10 L244 -24 Q150 -16 102 9 Q74 -10 17 -25 L17 -11 Q68 4 87 19 Q62 37 38 66 L62 66 Q80 45 100 32 Q117 53 118 85 L34 85 ZM54 100 L118 100 L118 160 L54 160 L54 100 ZM204 160 L139 160 L139 100 L186 100 Q204 100 204 118 L204 160 Z" /><glyph glyph-name="uni53F6" unicode="&#x53f6;" d="M25 1 L25 186 L100 186 L100 30 Q101 0 71 1 L25 1 ZM112 114 L112 129 L167 129 L167 205 L189 205 L189 129 L245 129 L245 114 L189 114 L189 -25 L167 -25 L167 114 L112 114 ZM44 15 L67 15 Q82 14 81 30 L81 172 L44 172 L44 15 Z" /><glyph glyph-name="uni53F7" unicode="&#x53f7;" d="M46 127 L46 196 L210 196 L210 155 Q210 127 182 127 L46 127 ZM11 92 L11 106 L245 106 L245 92 L84 92 Q78 73 69 61 L211 61 L211 14 Q212 -22 174 -21 L117 -21 L117 -7 L168 -7 Q190 -8 189 12 L189 47 L50 47 L50 61 Q58 74 62 92 L11 92 ZM66 141 L175 141 Q190 140 189 154 L189 183 L66 183 L66 141 Z" /><glyph glyph-name="uni5408" unicode="&#x5408;" d="M44 -18 L44 80 L212 80 L212 14 Q213 -19 177 -18 L44 -18 ZM65 -4 L172 -4 Q191 -5 191 15 L191 65 L65 65 L65 -4 ZM246 110 Q169 137 128 185 Q87 137 10 110 L10 124 Q84 157 117 208 L139 208 Q172 157 246 124 L246 110 ZM58 112 L58 127 L198 127 L198 112 L58 112 Z" /><glyph glyph-name="uni540C" unicode="&#x540c;" d="M61 134 L61 148 L195 148 L195 134 L61 134 ZM26 -22 L26 193 L230 193 L230 9 Q231 -22 196 -21 L177 -21 L177 -7 L192 -7 Q210 -8 209 10 L209 179 L47 179 L47 -22 L26 -22 ZM98 38 L143 38 Q160 37 159 54 L159 91 L98 91 L98 38 ZM79 25 L79 104 L178 104 L178 52 Q179 24 147 25 L79 25 Z" /><glyph glyph-name="uni540D" unicode="&#x540d;" d="M15 56 L15 69 Q84 84 119 103 Q86 121 53 129 L53 138 Q42 132 17 123 L17 136 Q74 159 98 205 L121 205 Q120 203 117 198 Q114 193 107 183 L222 183 L222 169 Q174 102 100 78 L221 78 L221 13 Q222 -19 191 -18 L58 -18 L58 65 Q38 61 15 56 ZM78 -4 L185 -4 Q202 -5 201 12 L201 64 L78 64 L78 -4 ZM95 169 Q80 153 59 141 Q100 133 131 118 L131 110 Q167 132 195 169 L95 169 Z" /><glyph glyph-name="uni540E" unicode="&#x540e;" d="M82 -16 L82 82 L223 82 L223 14 Q224 -17 189 -16 L82 -16 ZM14 -24 L14 -9 Q39 13 37 70 L37 191 L155 191 Q196 190 231 201 L231 185 Q196 176 156 176 L59 176 L59 136 L243 136 L243 122 L59 122 L59 78 Q63 4 14 -24 ZM103 -1 L184 -1 Q204 -2 203 16 L203 68 L103 68 L103 -1 Z" /><glyph glyph-name="uni5410" unicode="&#x5410;" d="M25 0 L25 179 L97 179 L97 28 Q98 0 69 0 L25 0 ZM116 114 L116 129 L165 129 L165 204 L187 204 L187 129 L235 129 L235 114 L187 114 L187 2 L246 2 L246 -11 L105 -11 L105 2 L165 2 L165 114 L116 114 ZM45 12 L66 12 Q79 11 78 26 L78 166 L45 166 L45 12 Z" /><glyph glyph-name="uni5411" unicode="&#x5411;" d="M27 -22 L27 176 L97 176 Q97 177 98 179 Q103 194 105 205 L128 205 Q125 188 119 176 L229 176 L229 10 Q230 -22 194 -21 L175 -21 L175 -7 L190 -7 Q209 -8 208 10 L208 161 L48 161 L48 -22 L27 -22 ZM80 30 L80 123 L176 123 L176 60 Q177 29 145 30 L80 30 ZM100 44 L140 44 Q156 44 156 61 L156 110 L100 110 L100 44 Z" /><glyph glyph-name="uni5412" unicode="&#x5412;" d="M22 4 L22 186 L91 186 L91 32 Q92 3 63 4 L22 4 ZM105 175 L105 189 L186 189 Q213 189 230 195 L230 179 Q213 175 188 175 L167 175 L167 104 L243 104 L243 90 L167 90 L167 16 Q166 -5 188 -4 L204 -4 Q225 -5 224 13 L224 26 L241 26 L241 10 Q242 -19 211 -18 L180 -18 Q145 -19 146 12 L146 90 L101 90 L101 104 L146 104 L146 175 L105 175 ZM40 18 L59 18 Q74 18 73 31 L73 172 L40 172 L40 18 Z" /><glyph glyph-name="uni541B" unicode="&#x541b;" d="M61 -17 L61 43 Q48 29 15 9 L15 24 Q60 56 71 89 L27 89 L27 103 L75 103 Q79 117 80 136 L13 136 L13 149 L81 149 Q81 156 81 163 L81 181 L33 181 L33 195 L217 195 L217 149 L244 149 L244 136 L217 136 L217 121 Q218 88 182 89 L92 89 Q86 74 77 61 L218 61 L218 13 Q219 -19 186 -17 L61 -17 ZM82 -4 L182 -4 Q198 -5 197 12 L197 48 L82 48 L82 -4 ZM101 136 Q100 118 96 103 L178 103 Q196 103 196 121 L196 136 L101 136 ZM103 168 Q103 164 102 158 Q102 152 102 149 L196 149 L196 181 L103 181 L103 168 Z" /><glyph glyph-name="uni5434" unicode="&#x5434;" d="M42 127 L42 195 L215 195 L215 157 Q216 126 182 127 L42 127 ZM29 90 L29 103 L227 103 L227 90 L139 90 L139 58 L241 58 L241 44 L142 44 Q158 5 243 -13 L243 -26 Q153 -8 128 28 Q105 -7 13 -26 L13 -13 Q99 6 113 44 L14 44 L14 58 L116 58 Q117 59 117 62 L117 90 L29 90 ZM63 141 L177 141 Q195 140 194 159 L194 181 L63 181 L63 141 Z" /><glyph glyph-name="uni5468" unicode="&#x5468;" d="M13 -25 L13 -10 Q35 7 33 42 L33 195 L232 195 L232 12 Q233 -22 201 -21 L179 -21 L179 -7 L195 -7 Q212 -8 211 8 L211 182 L54 182 L54 50 Q57 -1 13 -25 ZM81 10 L81 74 L184 74 L184 41 Q185 9 154 10 L81 10 ZM75 138 L75 151 L122 151 L122 173 L142 173 L142 151 L190 151 L190 138 L142 138 L142 110 L199 110 L199 96 L66 96 L66 110 L122 110 L122 138 L75 138 ZM100 24 L150 24 Q165 23 164 39 L164 61 L100 61 L100 24 Z" /><glyph glyph-name="uni548C" unicode="&#x548c;" d="M133 -6 L133 180 L233 180 L233 24 Q234 -7 205 -6 L133 -6 ZM152 6 L199 6 Q215 5 214 22 L214 166 L152 166 L152 6 ZM17 178 L17 192 L76 192 Q94 192 119 198 L119 183 Q100 178 78 178 L76 178 L76 139 L119 139 L119 125 L77 125 Q90 89 118 57 L118 39 Q93 63 76 91 L76 -24 L57 -24 L57 85 Q43 54 12 18 L12 37 Q41 80 55 125 L15 125 L15 139 L57 139 L57 178 L17 178 Z" /><glyph glyph-name="uni54C1" unicode="&#x54c1;" d="M66 127 L171 127 Q190 126 189 148 L189 180 L66 180 L66 127 ZM46 113 L46 195 L210 195 L210 145 Q211 112 176 113 L46 113 ZM42 -3 L78 -3 Q95 -4 94 12 L94 70 L42 70 L42 -3 ZM23 -18 L23 85 L113 85 L113 10 Q114 -19 82 -18 L23 -18 ZM161 -3 L198 -3 Q215 -4 214 12 L214 70 L161 70 L161 -3 ZM142 -18 L142 85 L233 85 L233 10 Q234 -19 203 -18 L142 -18 Z" /><glyph glyph-name="uni54EA" unicode="&#x54ea;" d="M81 121 L81 134 L100 134 L100 179 L81 179 L81 193 L157 193 L157 9 Q158 -17 129 -16 L118 -16 L118 -3 L125 -3 Q141 -4 141 10 L141 62 L115 62 Q115 7 75 -26 L75 -9 Q97 15 100 62 L81 62 L81 75 L100 75 Q100 83 100 90 L100 121 L81 121 ZM20 0 L20 186 L72 186 L72 27 Q73 -1 45 0 L20 0 ZM175 -25 L175 191 L239 191 L239 178 Q238 135 222 106 Q241 79 241 52 Q242 8 201 9 L201 25 Q226 23 225 55 Q226 77 206 105 Q223 139 222 177 L191 177 L191 -25 L175 -25 ZM36 11 L44 11 Q57 11 57 25 L57 173 L36 173 L36 11 ZM116 92 Q116 84 116 75 L141 75 L141 121 L116 121 L116 92 ZM141 179 L116 179 L116 134 L141 134 L141 179 Z" /><glyph glyph-name="uni5510" unicode="&#x5510;" d="M55 102 L55 116 L131 116 L131 140 L70 140 L70 152 L131 152 L131 171 L152 171 L152 152 L219 152 L219 116 L243 116 L243 102 L219 102 L219 92 Q220 63 193 64 L152 64 L152 44 L219 44 L219 9 Q220 -21 190 -20 L72 -20 L72 44 L131 44 L131 64 L70 64 L70 77 L131 77 L131 102 L55 102 ZM13 -24 L13 -7 Q26 14 30 34 Q34 53 34 94 L34 188 L128 188 L128 206 L152 206 L152 188 L242 188 L242 174 L55 174 L55 100 Q59 10 13 -24 ZM92 -7 L183 -7 Q199 -7 199 8 L199 31 L92 31 L92 -7 ZM186 77 Q201 77 200 91 L200 102 L152 102 L152 77 L186 77 ZM200 140 L152 140 L152 116 L200 116 L200 140 Z" /><glyph glyph-name="uni552F" unicode="&#x552f;" d="M88 110 L88 125 Q121 153 127 204 L147 204 Q147 202 146 198 Q142 178 138 169 L175 169 L175 200 L195 200 L195 169 L241 169 L241 155 L195 155 L195 114 L239 114 L239 101 L195 101 L195 59 L239 59 L239 46 L195 46 L195 3 L245 3 L245 -9 L131 -9 L131 -25 L111 -25 L111 128 Q102 119 88 110 ZM23 4 L23 187 L85 187 L85 30 Q86 3 57 4 L23 4 ZM41 17 L55 17 Q68 17 68 31 L68 174 L41 174 L41 17 ZM131 46 L131 3 L175 3 L175 46 L131 46 ZM131 101 L131 59 L175 59 L175 101 L131 101 ZM132 155 L131 154 L131 114 L175 114 L175 155 L132 155 Z" /><glyph glyph-name="uni559C" unicode="&#x559c;" d="M38 -21 L38 29 L218 29 L218 4 Q219 -22 189 -21 L38 -21 ZM41 86 L41 131 L215 131 L215 112 Q216 85 186 86 L41 86 ZM18 178 L18 190 L117 190 L117 205 L138 205 L138 190 L239 190 L239 178 L138 178 L138 158 L223 158 L223 146 L33 146 L33 158 L117 158 L117 178 L18 178 ZM59 -9 L184 -9 Q197 -9 197 3 L197 18 L59 18 L59 -9 ZM13 46 L13 58 L75 58 Q70 67 67 80 L88 80 Q91 68 96 58 L160 58 Q166 68 167 80 L189 80 Q186 67 180 58 L243 58 L243 46 L13 46 ZM62 97 L181 97 Q195 96 194 111 L194 120 L62 120 L62 97 Z" /><glyph glyph-name="uni5609" unicode="&#x5609;" d="M37 94 L37 136 L219 136 L219 118 Q220 93 193 94 L37 94 ZM18 178 L18 191 L117 191 L117 206 L138 206 L138 191 L238 191 L238 178 L138 178 L138 162 L223 162 L223 150 L33 150 L33 162 L117 162 L117 178 L18 178 ZM144 -16 L144 41 L231 41 L231 7 Q232 -17 205 -16 L144 -16 ZM74 -19 L74 -7 L93 -7 Q105 -7 105 4 L105 29 L69 29 Q68 -8 14 -24 L14 -12 Q49 2 50 29 L19 29 L19 41 L51 41 L51 56 L70 56 L70 41 L124 41 L124 4 Q125 -20 97 -19 L74 -19 ZM13 59 L13 71 L76 71 Q71 78 68 88 L90 88 Q92 78 96 71 L159 71 Q165 79 166 88 L187 88 Q184 78 180 71 L243 71 L243 59 L13 59 ZM58 105 L187 105 Q199 104 198 117 L198 125 L58 125 L58 105 ZM162 -5 L201 -5 Q214 -6 213 7 L213 29 L162 29 L162 -5 Z" /><glyph glyph-name="uni56DB" unicode="&#x56db;" d="M28 -15 L28 189 L232 189 L232 15 Q233 -16 199 -15 L28 -15 ZM177 49 Q146 48 147 78 L147 174 L110 174 L110 127 Q113 61 50 34 L50 -1 L194 -1 Q212 -2 211 15 L211 49 L177 49 ZM166 79 Q166 63 182 63 L211 63 L211 174 L166 174 L166 79 ZM50 48 Q92 72 90 127 L90 174 L50 174 L50 48 Z" /><glyph glyph-name="uni56E2" unicode="&#x56e2;" d="M23 -19 L23 195 L233 195 L233 14 Q234 -20 200 -19 L23 -19 ZM45 -5 L193 -5 Q212 -6 211 12 L211 180 L45 180 L45 -5 ZM57 124 L57 138 L145 138 L145 168 L165 168 L165 138 L199 138 L199 124 L165 124 L165 38 Q166 9 134 10 L121 10 L121 24 L133 24 Q146 23 145 38 L145 124 L133 124 Q120 51 59 15 L59 29 Q103 66 113 124 L57 124 Z" /><glyph glyph-name="uni56F4" unicode="&#x56f4;" d="M25 -19 L25 194 L233 194 L233 13 Q234 -20 199 -19 L25 -19 ZM45 -6 L193 -6 Q213 -7 212 12 L212 181 L45 181 L45 -6 ZM59 141 L59 153 L112 153 L112 171 L131 171 L131 153 L196 153 L196 141 L131 141 L131 116 L188 116 L188 104 L131 104 L131 79 L194 79 L194 51 Q195 22 169 24 L152 24 L152 36 L164 36 Q178 35 177 48 L177 67 L131 67 L131 4 L112 4 L112 67 L55 67 L55 79 L112 79 L112 104 L66 104 L66 116 L112 116 L112 141 L59 141 Z" /><glyph glyph-name="uni56FD" unicode="&#x56fd;" d="M25 -18 L25 194 L233 194 L233 13 Q234 -19 200 -18 L25 -18 ZM45 -4 L193 -4 Q213 -5 212 13 L212 181 L45 181 L45 -4 ZM61 140 L61 153 L195 153 L195 140 L137 140 L137 103 L190 103 L190 90 L137 90 L137 38 L198 38 L198 25 L57 25 L57 38 L116 38 L116 90 L65 90 L65 103 L116 103 L116 140 L61 140 ZM165 47 Q164 63 155 81 L171 81 Q179 66 183 47 L165 47 Z" /><glyph glyph-name="uni56FE" unicode="&#x56fe;" d="M23 -19 L23 197 L232 197 L232 14 Q233 -20 200 -19 L23 -19 ZM43 -5 L194 -5 Q213 -6 212 13 L212 183 L43 183 L43 -5 ZM202 79 Q159 86 129 97 Q101 85 54 79 L54 90 Q90 97 112 106 Q97 114 79 133 Q72 128 61 125 L61 136 Q86 149 95 172 L114 172 Q111 164 108 158 L191 158 L191 146 Q174 121 147 106 Q169 97 202 90 L202 79 ZM184 5 Q129 22 70 27 L70 39 Q129 35 184 22 L184 5 ZM169 146 L98 146 Q93 140 84 135 L99 135 Q114 122 130 113 Q154 126 169 146 ZM176 46 Q133 60 83 62 L83 74 Q132 73 176 62 L176 46 Z" /><glyph glyph-name="uni5708" unicode="&#x5708;" d="M23 -19 L23 197 L232 197 L232 10 Q233 -20 200 -19 L23 -19 ZM42 -6 L194 -6 Q214 -7 213 10 L213 184 L42 184 L42 -6 ZM59 135 L59 146 L81 146 Q77 156 74 168 L91 168 Q92 157 97 146 L119 146 Q119 151 119 155 L119 174 L137 174 L137 156 Q137 151 136 146 L159 146 Q164 157 165 168 L182 168 Q179 156 175 146 L197 146 L197 135 L135 135 Q133 125 130 116 L204 116 L204 105 L156 105 Q171 85 201 74 L201 63 Q182 69 169 77 L169 64 Q170 39 144 40 L130 40 L130 51 L141 51 Q153 50 153 64 L153 71 L100 71 L100 39 Q99 22 115 23 L165 23 Q180 23 179 36 L179 42 L193 42 L193 36 Q194 10 168 11 L112 11 Q81 10 82 37 L82 73 Q80 72 75 70 Q70 68 55 63 L55 74 Q91 88 103 105 L52 105 L52 116 L111 116 Q116 125 117 135 L59 135 ZM123 105 Q116 93 99 83 L159 83 Q147 92 138 105 L123 105 Z" /><glyph glyph-name="uni5728" unicode="&#x5728;" d="M22 166 L22 181 L87 181 Q92 192 95 205 L118 205 Q117 202 115 196 Q114 192 110 181 L243 181 L243 166 L104 166 Q91 137 69 115 L69 -23 L48 -23 L48 99 Q33 87 14 77 L14 92 Q61 122 81 166 L22 166 ZM90 81 L90 95 L150 95 L150 145 L171 145 L171 95 L230 95 L230 81 L171 81 L171 6 L243 6 L243 -7 L79 -7 L79 6 L150 6 L150 81 L90 81 Z" /><glyph glyph-name="uni573A" unicode="&#x573a;" d="M76 -24 L76 -7 Q113 34 113 108 L94 108 L94 122 Q154 146 191 178 L100 178 L100 191 L225 191 L225 177 Q177 140 129 122 L236 122 L236 17 Q238 -22 199 -20 L180 -20 L180 -6 L196 -6 Q217 -7 216 12 L216 108 L185 108 Q186 19 130 -25 L130 -8 Q166 35 166 108 L132 108 Q132 22 76 -24 ZM14 138 L14 153 L42 153 L42 204 L62 204 L62 153 L89 153 L89 138 L62 138 L62 33 Q75 36 90 42 L90 29 Q55 10 12 6 L12 23 Q17 24 26 25 Q37 27 42 28 L42 138 L14 138 Z" /><glyph glyph-name="uni5747" unicode="&#x5747;" d="M180 -20 L180 -6 L201 -6 Q216 -6 216 9 L216 167 L141 167 Q131 148 99 132 L99 144 Q130 164 133 204 L153 204 Q152 191 147 181 L237 181 L237 10 Q238 -21 205 -20 L180 -20 ZM15 142 L15 156 L46 156 L46 204 L66 204 L66 156 L94 156 L94 142 L66 142 L66 24 Q85 30 99 34 L99 21 Q59 4 12 -1 L12 15 Q19 16 32 17 Q41 19 46 19 L46 142 L15 142 ZM105 30 L105 49 Q155 58 199 78 L199 64 Q156 41 105 30 ZM180 95 Q147 109 115 113 L115 125 Q154 123 180 114 L180 95 Z" /><glyph glyph-name="uni575A" unicode="&#x575a;" d="M34 40 L34 55 L117 55 L117 76 L138 76 L138 55 L222 55 L222 40 L138 40 L138 0 L243 0 L243 -14 L12 -14 L12 0 L117 0 L117 40 L34 40 ZM242 83 Q193 92 169 108 Q144 93 105 83 L105 95 Q136 106 155 118 Q134 134 116 168 L138 168 Q151 142 169 127 Q192 146 207 176 L111 176 L111 190 L229 190 L229 176 Q210 138 183 117 Q200 106 242 95 L242 83 ZM77 79 L77 203 L97 203 L97 79 L77 79 ZM28 82 L28 196 L46 196 L46 82 L28 82 Z" /><glyph glyph-name="uni5761" unicode="&#x5761;" d="M75 -26 L75 -11 Q102 14 100 67 L100 177 L163 177 L163 205 L182 205 L182 177 L238 177 L238 138 L220 138 L220 164 L182 164 L182 112 L229 112 L229 98 Q215 51 185 22 Q204 5 243 -10 L243 -24 Q194 -4 174 12 Q148 -6 109 -24 L109 -10 Q147 8 162 22 Q140 44 126 84 L146 84 Q156 55 174 34 Q198 61 209 98 L119 98 L119 71 Q123 2 75 -26 ZM14 136 L14 150 L42 150 L42 205 L62 205 L62 150 L88 150 L88 136 L62 136 L62 37 Q74 41 89 47 L89 33 Q53 14 12 7 L12 25 Q29 28 42 31 L42 136 L14 136 ZM119 164 L119 112 L163 112 L163 164 L119 164 Z" /><glyph glyph-name="uni5764" unicode="&#x5764;" d="M102 32 L102 173 L158 173 L158 206 L178 206 L178 173 L234 173 L234 65 Q236 30 201 32 L178 32 L178 -25 L158 -25 L158 32 L102 32 ZM14 136 L14 150 L42 150 L42 205 L61 205 L61 150 L88 150 L88 136 L61 136 L61 34 Q76 38 90 45 L90 31 Q59 14 12 5 L12 23 Q15 24 21 25 Q35 27 42 29 L42 136 L14 136 ZM120 46 L158 46 L158 97 L120 97 L120 46 ZM199 46 Q216 44 215 65 L215 97 L178 97 L178 46 L199 46 ZM215 159 L178 159 L178 110 L215 110 L215 159 ZM120 159 L120 110 L158 110 L158 159 L120 159 Z" /><glyph glyph-name="uni578B" unicode="&#x578b;" d="M19 180 L19 194 L143 194 L143 180 L121 180 L121 141 L149 141 L149 127 L121 127 L121 77 L102 77 L102 127 L63 127 Q61 93 17 71 L17 84 Q43 101 44 127 L13 127 L13 141 L45 141 L45 180 L19 180 ZM33 39 L33 53 L118 53 L118 72 L139 72 L139 53 L224 53 L224 39 L139 39 L139 -1 L243 -1 L243 -15 L13 -15 L13 -1 L118 -1 L118 39 L33 39 ZM182 75 L182 89 L195 89 Q212 88 211 104 L211 202 L230 202 L230 105 Q230 75 201 75 L182 75 ZM63 180 L63 141 L102 141 L102 180 L63 180 ZM164 113 L164 193 L182 193 L182 113 L164 113 Z" /><glyph glyph-name="uni57CE" unicode="&#x57ce;" d="M66 -25 L66 -10 Q91 15 89 65 L89 165 L166 165 Q166 184 166 206 L185 206 Q185 184 185 165 L210 165 L210 200 L227 200 L227 165 L244 165 L244 152 L185 152 Q186 99 191 61 Q191 59 192 55 Q192 51 192 50 Q209 79 220 130 L238 130 Q224 64 197 27 Q205 -7 221 -7 Q233 -8 233 13 L247 13 Q248 -24 221 -22 Q197 -22 184 12 Q168 -5 144 -22 L144 -7 Q165 10 179 29 Q176 43 173 59 Q167 96 166 152 L108 152 L108 112 L152 112 L152 34 Q153 6 124 7 L114 7 L114 20 L121 20 Q135 19 134 35 L134 99 L108 99 L108 69 Q111 3 66 -25 ZM14 135 L14 149 L37 149 L37 205 L56 205 L56 149 L78 149 L78 135 L56 135 L56 29 Q68 32 79 37 L79 23 Q58 10 11 3 L11 21 Q26 23 37 24 L37 135 L14 135 Z" /><glyph glyph-name="uni57F9" unicode="&#x57f9;" d="M105 -19 L105 71 L227 71 L227 8 Q228 -20 193 -19 L105 -19 ZM14 135 L14 149 L42 149 L42 205 L62 205 L62 149 L89 149 L89 135 L62 135 L62 29 Q69 31 83 35 Q88 36 90 37 L90 23 Q60 9 11 3 L11 22 Q20 23 35 24 Q31 24 42 25 L42 135 L14 135 ZM125 -5 L190 -5 Q207 -6 206 9 L206 57 L125 57 L125 -5 ZM87 98 L87 112 L126 112 Q119 131 115 157 L136 157 Q138 129 145 112 L185 112 Q191 129 195 158 L215 158 Q211 130 204 112 L244 112 L244 98 L87 98 ZM98 172 L98 185 L155 185 L155 204 L177 204 L177 185 L236 185 L236 172 L98 172 Z" /><glyph glyph-name="uni586B" unicode="&#x586b;" d="M89 177 L89 189 L152 189 L152 205 L172 205 L172 189 L237 189 L237 177 L172 177 L172 157 L225 157 L225 34 L245 34 L245 22 L85 22 L85 34 L100 34 L100 157 L152 157 L152 177 L89 177 ZM15 142 L15 156 L39 156 L39 204 L59 204 L59 156 L83 156 L83 142 L59 142 L59 30 Q69 35 81 39 L81 26 Q55 9 11 2 L11 19 Q27 22 39 25 L39 142 L15 142 ZM120 54 L120 34 L205 34 L205 54 L120 54 ZM120 84 L120 65 L205 65 L205 84 L120 84 ZM120 115 L120 95 L205 95 L205 115 L120 115 ZM120 145 L120 126 L205 126 L205 145 L120 145 ZM80 -25 L80 -13 Q117 -4 129 13 L150 13 Q134 -16 80 -25 ZM244 -25 Q192 -16 175 13 L196 13 Q208 -4 244 -13 L244 -25 Z" /><glyph glyph-name="uni589E" unicode="&#x589e;" d="M86 94 L86 182 L120 182 Q113 193 111 205 L131 205 Q134 191 140 182 L182 182 Q188 194 190 205 L211 205 Q208 193 202 182 L236 182 L236 124 Q237 93 204 94 L86 94 ZM96 -20 L96 75 L226 75 L226 8 Q227 -21 193 -20 L96 -20 ZM15 136 L15 150 L38 150 L38 205 L58 205 L58 150 L79 150 L79 136 L58 136 L58 29 Q70 32 84 38 L84 24 Q54 8 12 2 L12 19 Q16 20 24 21 Q34 23 38 24 L38 136 L15 136 ZM104 107 L152 107 L152 169 L104 169 L104 107 ZM218 169 L169 169 L169 107 L201 107 Q218 107 218 124 L218 169 ZM115 -7 L190 -7 Q207 -7 207 8 L207 22 L115 22 L115 -7 ZM115 62 L115 34 L207 34 L207 62 L115 62 ZM180 121 Q186 137 189 155 L204 155 Q202 137 195 121 L180 121 ZM126 121 Q120 132 117 155 L132 155 Q134 137 140 121 L126 121 Z" /><glyph glyph-name="uni58EB" unicode="&#x58eb;" d="M13 112 L13 127 L117 127 L117 205 L139 205 L139 127 L243 127 L243 112 L139 112 L139 5 L227 5 L227 -8 L29 -8 L29 5 L117 5 L117 112 L13 112 Z" /><glyph glyph-name="uni5904" unicode="&#x5904;" d="M179 -17 Q113 -17 77 24 Q56 0 16 -26 L16 -11 Q47 14 66 39 Q44 72 31 129 Q26 125 17 118 Q14 116 12 115 L12 128 Q46 159 52 205 L74 205 Q73 198 69 187 Q68 182 67 180 L125 180 L125 166 Q120 85 88 39 Q120 -2 184 -2 L243 -2 L243 -17 L179 -17 ZM240 85 Q209 110 177 125 L177 13 L157 13 L157 204 L177 204 L177 143 Q215 128 240 109 L240 85 ZM104 166 L61 166 Q51 145 34 132 L52 132 Q60 86 77 56 Q100 96 104 166 Z" /><glyph glyph-name="uni5907" unicode="&#x5907;" d="M40 -18 L40 85 L216 85 L216 15 Q217 -19 178 -18 L40 -18 ZM243 91 Q166 100 126 116 Q82 100 13 91 L13 103 Q68 112 107 125 Q81 139 57 161 Q39 154 17 151 L17 162 Q66 174 88 205 L111 205 Q105 196 99 190 L215 190 L215 176 Q186 143 147 125 Q185 110 243 103 L243 91 ZM188 176 L85 176 Q84 176 83 175 Q71 167 64 164 L81 164 Q103 146 127 133 Q166 152 188 176 ZM60 28 L60 -5 L118 -5 L118 28 L60 28 ZM176 -5 Q198 -6 197 14 L197 28 L138 28 L138 -5 L176 -5 ZM197 73 L138 73 L138 40 L197 40 L197 73 ZM60 73 L60 40 L118 40 L118 73 L60 73 Z" /><glyph glyph-name="uni590D" unicode="&#x590d;" d="M45 80 L45 156 L219 156 L219 106 Q221 79 191 80 L109 80 Q102 70 95 63 L215 63 L215 50 Q186 20 150 5 Q190 -5 242 -12 L242 -25 Q169 -16 129 -2 Q89 -16 17 -25 L17 -12 Q68 -5 106 5 Q81 17 57 35 Q41 28 20 22 L20 34 Q66 50 86 80 L45 80 ZM15 144 L15 156 Q55 175 65 207 L86 207 Q84 201 80 193 Q79 190 78 189 L241 189 L241 176 L69 176 Q51 156 15 144 ZM66 92 L186 92 Q200 91 199 105 L199 113 L66 113 L66 92 ZM66 144 L66 124 L199 124 L199 144 L66 144 ZM187 50 L82 50 Q75 44 67 40 L78 40 Q103 24 128 13 Q159 25 187 50 Z" /><glyph glyph-name="uni590F" unicode="&#x590f;" d="M17 183 L17 195 L242 195 L242 183 L129 183 Q127 171 121 164 L219 164 L219 99 Q220 71 191 72 L106 72 Q99 63 90 55 L217 55 L217 43 Q188 17 151 2 Q172 -2 225 -11 Q236 -12 241 -13 L241 -25 Q166 -18 128 -4 Q89 -17 17 -25 L17 -13 Q69 -6 105 2 Q79 13 52 31 Q37 25 18 21 L18 32 Q64 48 83 72 L41 72 L41 164 L101 164 Q105 173 108 183 L17 183 ZM188 43 L74 43 Q68 38 60 35 L76 35 Q102 19 127 9 Q158 20 188 43 ZM62 84 L185 84 Q199 83 198 98 L198 100 L62 100 L62 84 ZM62 152 L62 137 L198 137 L198 152 L62 152 ZM62 126 L62 111 L198 111 L198 126 L62 126 Z" /><glyph glyph-name="uni591A" unicode="&#x591a;" d="M30 45 L30 57 Q90 75 117 107 Q76 92 17 82 L17 96 Q76 108 112 122 Q84 136 55 142 L55 153 Q40 147 20 142 L20 155 Q75 169 102 205 L125 205 Q122 200 115 193 Q112 189 110 187 L223 187 L223 173 Q182 131 125 110 L143 110 Q142 108 139 106 Q131 95 125 91 L233 91 L233 77 Q163 -6 16 -24 L16 -11 Q91 2 128 20 Q95 37 64 44 L64 54 Q62 54 59 52 Q40 47 30 45 ZM204 77 L109 77 Q95 66 69 56 Q104 50 138 35 L138 26 Q173 44 204 77 ZM194 173 L94 173 Q79 163 60 155 Q95 148 125 135 L125 128 Q161 145 194 173 Z" /><glyph glyph-name="uni5927" unicode="&#x5927;" d="M15 137 L15 152 L116 152 L116 205 L140 205 L140 152 L241 152 L241 137 L140 137 Q139 46 243 -11 L243 -25 Q156 14 129 75 Q99 13 13 -25 L13 -11 Q119 46 116 137 L15 137 Z" /><glyph glyph-name="uni5929" unicode="&#x5929;" d="M27 175 L27 190 L230 190 L230 175 L140 175 L140 115 L242 115 L242 100 L142 100 Q151 29 243 -11 L243 -25 Q155 7 129 65 Q104 10 13 -25 L13 -11 Q112 35 116 100 L14 100 L14 115 L117 115 L117 175 L27 175 Z" /><glyph glyph-name="uni592A" unicode="&#x592a;" d="M15 137 L15 152 L116 152 L116 205 L140 205 L140 152 L241 152 L241 137 L140 137 Q144 45 243 -11 L243 -25 Q159 14 129 82 Q100 17 13 -25 L13 -11 Q115 47 116 137 L15 137 ZM120 -7 Q116 6 103 37 L119 37 Q130 17 139 -7 L120 -7 Z" /><glyph glyph-name="uni5938" unicode="&#x5938;" d="M19 172 L19 185 L105 185 Q111 195 117 207 L140 207 Q134 195 128 185 L238 185 L238 172 L162 172 Q185 139 242 121 L242 108 Q215 115 190 128 L190 115 L66 115 L66 129 L188 129 Q160 144 140 172 L118 172 Q89 131 14 108 L14 121 Q69 142 94 172 L19 172 ZM18 76 L18 90 L237 90 L237 76 L88 76 Q85 62 81 50 L200 50 L200 8 Q201 -19 170 -19 L123 -19 L123 -5 L164 -5 Q180 -6 179 9 L179 36 L61 36 L61 50 Q62 52 63 57 Q66 68 67 76 L18 76 Z" /><glyph glyph-name="uni5947" unicode="&#x5947;" d="M40 5 L40 75 L149 75 L149 34 Q150 4 118 5 L40 5 ZM27 172 L27 186 L117 186 Q117 188 117 189 L117 207 L138 207 L138 189 Q138 188 139 186 L230 186 L230 172 L144 172 Q160 148 229 132 L229 120 Q159 131 128 161 Q95 131 26 120 L26 132 Q95 148 111 172 L27 172 ZM13 99 L13 113 L242 113 L242 99 L209 99 L209 4 Q210 -23 181 -22 L157 -22 L157 -8 L175 -8 Q188 -8 188 5 L188 99 L13 99 ZM60 19 L113 19 Q129 19 129 35 L129 61 L60 61 L60 19 Z" /><glyph glyph-name="uni5956" unicode="&#x5956;" d="M16 51 L16 65 L116 65 L116 84 L138 84 L138 65 L242 65 L242 51 L140 51 Q151 8 243 -12 L243 -25 Q155 -9 127 29 Q99 -10 12 -25 L12 -13 Q102 6 114 51 L16 51 ZM109 88 L109 100 Q149 111 168 124 Q149 134 123 138 L123 151 Q157 148 173 139 L173 127 Q196 142 212 171 L150 171 Q138 157 104 146 L104 157 Q140 173 150 205 L170 205 Q166 193 161 184 L234 184 L234 171 Q205 106 109 88 ZM13 101 L13 120 Q44 128 72 142 L72 205 L91 205 L91 83 L72 83 L72 125 Q48 112 13 101 ZM59 157 Q40 169 17 173 L17 187 Q40 184 59 177 L59 157 Z" /><glyph glyph-name="uni597D" unicode="&#x597d;" d="M14 157 L14 171 L27 171 L27 205 L45 205 L45 171 L81 171 L81 205 L99 205 L99 171 L112 171 L112 157 L99 157 L99 101 Q100 43 74 15 Q88 1 112 -10 L112 -24 Q81 -10 63 4 Q44 -10 13 -24 L13 -10 Q37 1 52 15 Q26 43 27 101 L27 157 L14 157 ZM109 86 L109 100 L168 100 L168 135 Q195 152 212 176 L119 176 L119 190 L237 190 L237 176 Q219 148 189 131 L189 100 L246 100 L246 86 L189 86 L189 12 Q190 -22 153 -21 L133 -21 L133 -7 L148 -7 Q170 -8 168 10 L168 86 L109 86 ZM63 28 Q81 53 81 100 L81 157 L45 157 L45 100 Q45 51 63 28 Z" /><glyph glyph-name="uni5982" unicode="&#x5982;" d="M141 -2 L141 179 L233 179 L233 26 Q234 -3 205 -2 L141 -2 ZM10 158 L10 172 L29 172 L29 205 L47 205 L47 172 L90 172 L90 205 L108 205 L108 172 L126 172 L126 158 L108 158 L108 101 Q109 44 80 14 Q91 4 123 -11 L123 -24 Q89 -10 68 4 Q49 -10 14 -24 L14 -11 Q17 -10 22 -7 Q48 5 57 14 Q28 44 29 101 L29 158 L10 158 ZM161 9 L199 9 Q214 9 214 25 L214 166 L161 166 L161 9 ZM68 26 Q91 52 90 100 L90 158 L47 158 L47 100 Q47 52 68 26 Z" /><glyph glyph-name="uni598D" unicode="&#x598d;" d="M110 178 L110 192 L239 192 L239 178 L214 178 L214 105 L245 105 L245 91 L214 91 L214 -25 L194 -25 L194 91 L153 91 L153 71 Q153 32 144 13 Q136 -5 109 -26 L109 -10 Q135 14 133 71 L133 91 L102 91 L102 105 L133 105 L133 178 L110 178 ZM12 158 L12 172 L25 172 L25 204 L42 204 L42 172 L74 172 L74 204 L91 204 L91 172 L104 172 L104 158 L91 158 L91 104 Q92 45 68 14 Q81 0 102 -11 L102 -26 Q74 -12 58 2 Q40 -12 12 -26 L12 -11 Q33 0 47 14 Q24 43 25 104 L25 158 L12 158 ZM58 28 Q74 55 74 103 L74 158 L42 158 L42 103 Q42 55 58 28 ZM153 178 L153 105 L194 105 L194 178 L153 178 Z" /><glyph glyph-name="uni5996" unicode="&#x5996;" d="M10 157 L10 171 L25 171 L25 205 L44 205 L44 171 L81 171 L81 205 L99 205 L99 171 L114 171 L114 157 L99 157 L99 101 Q99 44 73 14 Q84 2 110 -10 L110 -24 Q80 -11 62 3 Q43 -11 13 -24 L13 -10 Q41 3 51 14 Q25 44 25 101 L25 157 L10 157 ZM119 175 L119 189 L193 189 Q218 188 239 196 L239 179 Q219 175 197 175 L191 175 L191 117 L247 117 L247 103 L191 103 Q194 41 241 -8 L241 -24 Q194 10 180 61 Q167 12 117 -24 L117 -8 Q169 44 169 103 L114 103 L114 117 L170 117 L170 175 L119 175 ZM62 27 Q81 53 81 100 L81 157 L44 157 L44 100 Q43 51 62 27 Z" /><glyph glyph-name="uni59CB" unicode="&#x59cb;" d="M10 157 L10 171 L25 171 L25 205 L44 205 L44 171 L80 171 L80 205 L98 205 L98 171 L113 171 L113 157 L98 157 L98 101 Q99 43 73 14 Q87 1 110 -10 L110 -24 Q80 -10 62 3 Q43 -10 12 -24 L12 -10 Q36 1 51 14 Q25 44 25 101 L25 157 L10 157 ZM117 -17 L117 82 L228 82 L228 15 Q229 -18 198 -17 L117 -17 ZM136 -3 L194 -3 Q210 -4 209 12 L209 68 L136 68 L136 -3 ZM110 108 L110 124 Q140 162 154 205 L176 205 Q160 159 128 124 Q180 124 216 129 Q209 150 198 173 L214 173 Q233 137 242 100 L223 100 Q222 108 219 115 Q173 108 125 108 L110 108 ZM62 27 Q80 54 80 100 L80 157 L44 157 L44 100 Q44 52 62 27 Z" /><glyph glyph-name="uni59D3" unicode="&#x59d3;" d="M12 158 L12 172 L24 172 L24 205 L41 205 L41 172 L77 172 L77 205 L94 205 L94 172 L105 172 L105 158 L94 158 L94 100 Q95 42 69 13 Q79 2 105 -11 L105 -25 Q76 -11 59 2 Q33 -15 11 -25 L11 -11 Q33 0 48 13 Q23 42 24 100 L24 158 L12 158 ZM105 116 L105 129 Q126 152 126 192 L145 192 Q144 177 141 167 L169 167 L169 205 L189 205 L189 167 L241 167 L241 153 L189 153 L189 85 L239 85 L239 71 L189 71 L189 -2 L245 -2 L245 -16 L108 -16 L108 -2 L169 -2 L169 71 L115 71 L115 85 L169 85 L169 153 L137 153 Q130 132 105 116 ZM59 26 Q77 53 77 99 L77 158 L41 158 L41 99 Q41 53 59 26 Z" /><glyph glyph-name="uni59D4" unicode="&#x59d4;" d="M12 57 L12 71 L50 71 L50 91 L71 91 L71 71 L184 71 L184 91 L206 91 L206 71 L244 71 L244 57 L205 57 Q201 19 153 0 Q154 0 157 0 Q187 -6 239 -12 L239 -25 Q166 -18 128 -6 Q88 -18 17 -25 L17 -12 Q50 -8 99 0 Q102 0 103 0 Q55 18 51 57 L12 57 ZM240 88 Q174 100 155 140 L138 140 L138 91 L118 91 L118 140 L101 140 Q81 100 16 88 L16 99 Q63 113 78 140 L18 140 L18 154 L118 154 L118 180 L34 180 L34 194 L149 194 Q189 193 221 201 L221 186 Q192 180 156 180 L138 180 L138 154 L238 154 L238 140 L177 140 Q193 112 240 99 L240 88 ZM128 7 Q179 24 184 57 L72 57 Q76 24 128 7 Z" /><glyph glyph-name="uni5A07" unicode="&#x5a07;" d="M12 156 L12 170 L24 170 L24 203 L42 203 L42 170 L71 170 L71 203 L89 203 L89 170 L101 170 L101 156 L89 156 L89 104 Q89 45 66 14 Q78 0 98 -11 L98 -25 Q73 -12 56 2 Q39 -12 12 -25 L12 -11 Q33 0 46 14 Q24 46 24 104 L24 156 L12 156 ZM108 176 L108 190 L178 190 Q204 190 232 197 L232 182 Q205 176 183 176 L178 176 L178 173 Q178 156 175 142 L240 142 L240 128 L187 128 Q203 97 243 80 L243 67 Q189 85 169 124 Q157 92 100 67 L100 80 Q141 103 151 128 L102 128 L102 142 L155 142 Q158 155 158 171 L158 176 L108 176 ZM56 29 Q71 53 71 104 L71 156 L42 156 L42 104 Q42 54 56 29 ZM190 -23 L190 79 L209 79 L209 -23 L190 -23 ZM104 -25 L104 -12 Q131 2 129 42 L129 79 L148 79 L148 45 Q151 -6 104 -25 Z" /><glyph glyph-name="uni5A1C" unicode="&#x5a1c;" d="M87 121 L87 134 L103 134 L103 179 L86 179 L86 193 L159 193 L159 9 Q160 -17 131 -16 L120 -16 L120 -3 L127 -3 Q143 -4 143 10 L143 62 L119 62 Q122 1 86 -25 L86 -9 Q104 13 103 62 L87 62 L87 75 L103 75 L103 121 L87 121 ZM12 158 L12 172 L21 172 L21 202 L36 202 L36 172 L59 172 L59 202 L74 202 L74 172 L83 172 L83 158 L74 158 L74 99 Q74 40 56 13 Q66 -1 81 -12 L81 -25 Q60 -12 47 2 Q34 -12 12 -25 L12 -12 Q13 -11 14 -10 Q33 3 39 13 Q20 41 21 99 L21 158 L12 158 ZM177 -25 L177 191 L239 191 L239 178 Q238 139 222 107 Q240 79 240 53 Q241 9 201 10 L201 25 Q227 24 225 56 Q226 78 206 106 Q223 143 222 178 L193 178 L193 -25 L177 -25 ZM48 27 Q59 51 59 98 L59 158 L36 158 L36 98 Q36 54 48 27 ZM119 121 L119 75 L143 75 L143 121 L119 121 ZM143 179 L119 179 L119 134 L143 134 L143 179 Z" /><glyph glyph-name="uni5A25" unicode="&#x5a25;" d="M95 172 L95 186 L128 186 Q148 186 163 193 L163 177 Q150 173 138 173 L138 136 L175 136 Q175 145 175 166 Q174 191 174 204 L193 204 Q193 166 193 136 L243 136 L243 122 L194 122 Q196 83 198 62 L198 55 Q213 76 223 108 L241 108 Q223 55 201 35 Q209 -10 222 -9 Q232 -10 232 12 L245 12 Q246 -25 222 -23 Q196 -24 186 20 Q171 8 149 -2 L149 10 Q169 24 183 37 Q182 48 180 61 Q177 88 176 122 L138 122 L138 77 Q141 78 148 80 Q160 83 166 86 L166 73 Q148 64 138 61 L138 1 Q139 -23 114 -22 L100 -22 L100 -7 L109 -7 Q121 -8 121 3 L121 56 Q108 53 90 51 L90 69 Q106 70 121 73 L121 122 L93 122 L93 136 L121 136 L121 172 L95 172 ZM11 155 L11 168 L23 168 L23 203 L39 203 L39 168 L66 168 L66 203 L82 203 L82 168 L92 168 L92 155 L82 155 L82 100 Q83 42 62 15 Q67 8 84 -5 Q90 -9 93 -12 L93 -25 Q62 -5 52 4 Q40 -6 9 -25 L9 -12 Q33 4 42 15 Q22 43 23 100 L23 155 L11 155 ZM52 28 Q66 53 66 99 L66 155 L39 155 L39 99 Q38 51 52 28 ZM216 151 Q214 171 204 194 L218 194 Q228 179 234 151 L216 151 Z" /><glyph glyph-name="uni5A67" unicode="&#x5a67;" d="M107 -25 L107 96 L230 96 L230 6 Q231 -24 201 -23 L185 -23 L185 -11 L194 -11 Q211 -12 210 4 L210 17 L127 17 L127 -25 L107 -25 ZM11 156 L11 170 L22 170 L22 204 L40 204 L40 170 L68 170 L68 204 L85 204 L85 170 L95 170 L95 156 L85 156 L85 101 Q86 42 63 15 Q70 5 93 -11 L93 -24 Q68 -9 53 4 Q37 -9 10 -24 L10 -11 Q35 5 43 15 Q21 42 22 101 L22 156 L11 156 ZM100 178 L100 190 L159 190 L159 206 L179 206 L179 190 L242 190 L242 178 L179 178 L179 158 L235 158 L235 146 L179 146 L179 124 L246 124 L246 112 L96 112 L96 124 L159 124 L159 146 L106 146 L106 158 L159 158 L159 178 L100 178 ZM53 28 Q69 52 68 100 L68 156 L40 156 L40 100 Q39 51 53 28 ZM127 50 L127 28 L210 28 L210 50 L127 50 ZM127 83 L127 62 L210 62 L210 83 L127 83 Z" /><glyph glyph-name="uni5A9B" unicode="&#x5a9b;" d="M99 128 L99 141 L115 141 Q112 156 106 170 L122 170 Q128 157 133 141 L162 141 Q161 153 153 170 L168 170 Q176 156 179 141 L197 141 Q206 155 210 171 L228 171 Q220 150 213 141 L240 141 L240 128 L151 128 Q150 123 149 114 Q147 107 147 103 L244 103 L244 91 L144 91 Q143 86 140 77 Q138 71 137 68 L230 68 L230 56 Q210 23 185 7 Q209 -3 244 -11 L244 -23 Q197 -14 170 0 Q147 -12 98 -23 L98 -11 Q99 -11 102 -10 Q141 0 155 8 Q138 20 123 40 Q108 15 90 -2 L90 13 Q117 53 125 91 L94 91 L94 103 L128 103 L132 128 L99 128 ZM12 156 L12 169 L22 169 L22 203 L39 203 L39 169 L66 169 L66 203 L83 203 L83 169 L92 169 L92 156 L83 156 L83 101 Q84 43 61 15 Q72 3 91 -11 L91 -24 Q71 -12 52 4 Q36 -9 10 -24 L10 -11 Q32 4 42 15 Q21 42 22 101 L22 156 L12 156 ZM52 28 Q66 53 66 100 L66 156 L39 156 L39 100 Q38 48 52 28 ZM98 179 L98 192 L169 192 Q208 191 236 201 L236 187 Q210 178 175 179 L98 179 ZM131 56 L127 48 L139 48 Q154 29 170 17 Q193 32 207 56 L131 56 Z" /><glyph glyph-name="uni5B50" unicode="&#x5b50;" d="M12 84 L12 100 L121 100 L121 128 Q161 148 189 177 L35 177 L35 192 L222 192 L222 177 Q187 142 143 122 L143 100 L244 100 L244 84 L143 84 L143 14 Q144 -22 105 -22 L81 -22 L81 -7 L99 -7 Q122 -8 121 13 L121 84 L12 84 Z" /><glyph glyph-name="uni5B57" unicode="&#x5b57;" d="M13 54 L13 68 L122 68 L122 86 Q149 98 174 120 L54 120 L54 134 L205 134 L205 120 Q178 94 145 81 L145 68 L244 68 L244 54 L145 54 L145 7 Q146 -23 114 -22 L88 -22 L88 -7 L107 -7 Q123 -8 122 7 L122 54 L13 54 ZM21 142 L21 181 L117 181 L117 205 L140 205 L140 181 L236 181 L236 142 L215 142 L215 167 L41 167 L41 142 L21 142 Z" /><glyph glyph-name="uni5B63" unicode="&#x5b63;" d="M32 180 L32 194 L146 194 Q188 194 224 202 L224 187 Q188 179 153 180 L138 180 L138 154 L241 154 L241 141 L176 141 Q193 111 240 98 L240 86 Q175 99 153 141 L138 141 L138 90 L195 90 L195 77 Q174 60 142 48 L142 41 L244 41 L244 28 L142 28 L142 6 Q143 -24 109 -23 L86 -23 L86 -10 L101 -10 Q122 -11 121 8 L121 28 L12 28 L12 41 L121 41 L121 53 Q148 64 167 77 L58 77 L58 90 L118 90 L118 141 L102 141 Q82 99 16 86 L16 98 Q63 111 80 141 L15 141 L15 154 L118 154 L118 180 L32 180 Z" /><glyph glyph-name="uni5B66" unicode="&#x5b66;" d="M13 46 L13 60 L122 60 L122 74 Q147 85 174 109 L53 109 L53 122 L205 122 L205 109 Q179 86 144 70 L144 60 L243 60 L243 46 L144 46 L144 6 Q145 -24 111 -24 L87 -24 L87 -10 L102 -10 Q123 -11 122 7 L122 46 L13 46 ZM20 126 L20 167 L176 167 Q189 185 194 205 L214 205 Q207 184 194 167 L236 167 L236 126 L217 126 L217 154 L40 154 L40 126 L20 126 ZM54 174 Q50 189 43 205 L61 205 Q69 188 73 174 L54 174 ZM123 174 Q120 189 112 205 L130 205 Q140 183 142 174 L123 174 Z" /><glyph glyph-name="uni5B81" unicode="&#x5b81;" d="M13 96 L13 111 L243 111 L243 96 L144 96 L144 9 Q145 -22 113 -21 L83 -21 L83 -6 L105 -6 Q122 -7 121 8 L121 96 L13 96 ZM21 133 L21 182 L116 182 L116 205 L140 205 L140 182 L235 182 L235 133 L214 133 L214 167 L42 167 L42 133 L21 133 Z" /><glyph glyph-name="uni5B87" unicode="&#x5b87;" d="M45 119 L45 133 L217 133 L217 119 L144 119 L144 72 L243 72 L243 58 L144 58 L144 8 Q144 -21 114 -21 L88 -21 L88 -6 L105 -6 Q122 -7 121 7 L121 58 L14 58 L14 72 L121 72 L121 119 L45 119 ZM20 143 L20 183 L117 183 L117 205 L140 205 L140 183 L236 183 L236 143 L216 143 L216 168 L41 168 L41 143 L20 143 Z" /><glyph glyph-name="uni5B89" unicode="&#x5b89;" d="M11 93 L11 108 L49 108 L49 137 L71 137 L71 108 L185 108 L185 137 L207 137 L207 108 L245 108 L245 93 L206 93 Q203 38 147 10 Q185 -2 243 -11 L243 -24 Q170 -13 128 1 Q81 -14 13 -24 L13 -11 Q71 -2 108 10 Q53 37 49 93 L11 93 ZM128 18 Q182 44 185 93 L71 93 Q74 44 128 18 ZM23 144 L23 184 L116 184 L116 206 L140 206 L140 184 L233 184 L233 144 L212 144 L212 169 L44 169 L44 144 L23 144 Z" /><glyph glyph-name="uni5B9E" unicode="&#x5b9e;" d="M14 50 L14 64 L136 64 Q142 79 142 110 L142 158 L163 158 L163 114 Q163 85 158 64 L243 64 L243 50 L161 50 Q181 10 239 -12 L239 -24 Q170 -2 147 38 Q125 -1 19 -25 L19 -12 Q112 10 131 50 L14 50 ZM19 142 L19 184 L116 184 L116 205 L140 205 L140 184 L237 184 L237 142 L216 142 L216 170 L40 170 L40 142 L19 142 ZM110 78 Q75 94 40 99 L40 112 Q80 108 110 96 L110 78 ZM126 116 Q94 133 61 136 L61 150 Q99 146 126 135 L126 116 Z" /><glyph glyph-name="uni5BA1" unicode="&#x5ba1;" d="M38 21 L38 134 L118 134 L118 158 L138 158 L138 134 L218 134 L218 51 Q218 21 188 21 L138 21 L138 -26 L118 -26 L118 21 L38 21 ZM19 146 L19 185 L116 185 L116 205 L140 205 L140 185 L237 185 L237 146 L216 146 L216 171 L40 171 L40 146 L19 146 ZM58 34 L118 34 L118 72 L58 72 L58 34 ZM183 34 Q199 33 198 49 L198 72 L138 72 L138 34 L183 34 ZM58 120 L58 86 L118 86 L118 120 L58 120 ZM198 120 L138 120 L138 86 L198 86 L198 120 Z" /><glyph glyph-name="uni5BA3" unicode="&#x5ba3;" d="M45 24 L45 114 L211 114 L211 56 Q212 23 179 24 L45 24 ZM20 145 L20 187 L116 187 L116 206 L140 206 L140 187 L236 187 L236 145 L216 145 L216 174 L40 174 L40 145 L20 145 ZM65 36 L175 36 Q192 35 191 54 L191 63 L65 63 L65 36 ZM65 101 L65 75 L191 75 L191 101 L65 101 ZM12 -15 L12 -1 L244 -1 L244 -15 L12 -15 ZM48 137 L48 150 L208 150 L208 137 L48 137 Z" /><glyph glyph-name="uni5BAA" unicode="&#x5baa;" d="M23 91 L23 103 Q54 115 62 145 L83 145 Q80 136 76 127 L123 127 L123 156 L144 156 L144 127 L225 127 L225 114 L144 114 L144 74 L241 74 L241 60 L168 60 L168 13 Q167 -6 186 -4 L211 -4 Q227 -5 227 12 L227 19 L242 19 L242 10 Q243 -19 212 -18 L182 -18 Q145 -20 147 12 L147 60 L106 60 Q104 -5 19 -25 L19 -12 Q79 7 85 60 L17 60 L17 74 L123 74 L123 114 L66 114 Q56 100 23 91 ZM20 145 L20 186 L116 186 L116 205 L140 205 L140 186 L236 186 L236 145 L216 145 L216 172 L41 172 L41 145 L20 145 Z" /><glyph glyph-name="uni5BAB" unicode="&#x5bab;" d="M36 -19 L36 58 L219 58 L219 9 Q220 -20 187 -19 L36 -19 ZM50 82 L50 145 L206 145 L206 110 Q207 81 176 82 L50 82 ZM57 -5 L182 -5 Q200 -6 199 11 L199 44 L57 44 L57 -5 ZM20 146 L20 186 L116 186 L116 205 L140 205 L140 186 L236 186 L236 146 L216 146 L216 172 L40 172 L40 146 L20 146 ZM70 96 L170 96 Q186 95 185 113 L185 131 L70 131 L70 96 Z" /><glyph glyph-name="uni5BB3" unicode="&#x5bb3;" d="M40 134 L40 146 L117 146 L117 165 L139 165 L139 146 L216 146 L216 134 L139 134 L139 113 L221 113 L221 100 L139 100 L139 79 L242 79 L242 66 L139 66 L139 44 L211 44 L211 6 Q212 -21 183 -20 L45 -20 L45 44 L117 44 L117 66 L14 66 L14 79 L117 79 L117 100 L35 100 L35 113 L117 113 L117 134 L40 134 ZM65 -7 L177 -7 Q191 -8 190 6 L190 31 L65 31 L65 -7 ZM18 151 L18 187 L116 187 L116 205 L140 205 L140 187 L237 187 L237 151 L217 151 L217 174 L39 174 L39 151 L18 151 Z" /><glyph glyph-name="uni5BB6" unicode="&#x5bb6;" d="M45 132 L45 146 L211 146 L211 132 L147 132 Q145 130 141 127 Q128 117 120 112 Q152 100 151 61 L151 10 Q152 -23 117 -22 L95 -22 L95 -8 L113 -8 Q131 -9 131 8 L131 35 Q93 5 14 -12 L14 0 Q89 19 131 56 Q131 69 129 78 Q91 49 15 34 L15 47 Q82 62 121 93 Q115 99 105 104 Q72 89 18 79 L18 91 Q85 106 119 132 L45 132 ZM19 148 L19 187 L117 187 L117 206 L141 206 L141 187 L237 187 L237 148 L216 148 L216 173 L39 173 L39 148 L19 148 ZM241 -10 Q174 20 164 87 L164 101 L187 101 Q217 100 232 108 L232 93 Q218 87 193 87 L184 87 Q190 32 241 2 L241 -10 Z" /><glyph glyph-name="uni5BB8" unicode="&#x5bb8;" d="M17 -25 L17 -10 Q43 10 41 65 L41 150 L222 150 L222 137 L62 137 L62 78 L236 78 L236 65 L105 65 L105 0 Q125 2 147 11 L147 -1 Q126 -14 86 -23 L86 65 L62 65 Q64 1 17 -25 ZM18 150 L18 186 L118 186 L118 206 L142 206 L142 186 L242 186 L242 150 L221 150 L221 173 L38 173 L38 150 L18 150 ZM242 -23 Q153 -8 130 56 L151 56 Q160 34 174 21 Q200 34 208 56 L228 56 Q216 27 184 12 Q202 0 242 -11 L242 -23 ZM78 101 L78 114 L216 114 L216 101 L78 101 Z" /><glyph glyph-name="uni5BB9" unicode="&#x5bb9;" d="M50 -19 L50 59 L205 59 L205 8 Q206 -19 176 -19 L50 -19 ZM71 -5 L170 -5 Q185 -5 185 7 L185 45 L71 45 L71 -5 ZM245 46 Q162 70 128 111 Q94 70 11 46 L11 59 Q88 86 117 131 L138 131 Q168 86 245 59 L245 46 ZM20 151 L20 186 L116 186 L116 205 L140 205 L140 186 L235 186 L235 151 L215 151 L215 173 L41 173 L41 151 L20 151 ZM19 105 L19 117 Q66 129 85 159 L108 159 Q85 115 19 105 ZM236 105 Q170 116 148 159 L170 159 Q189 129 236 117 L236 105 Z" /><glyph glyph-name="uni5BCC" unicode="&#x5bcc;" d="M33 -20 L33 67 L223 67 L223 6 Q224 -21 194 -20 L33 -20 ZM52 84 L52 129 L203 129 L203 109 Q204 83 175 84 L52 84 ZM20 150 L20 189 L116 189 L116 206 L140 206 L140 189 L236 189 L236 150 L216 150 L216 176 L40 176 L40 150 L20 150 ZM73 96 L170 96 Q184 95 183 109 L183 118 L73 118 L73 96 ZM46 146 L46 158 L209 158 L209 146 L46 146 ZM53 -7 L118 -7 L118 18 L53 18 L53 -7 ZM188 -7 Q204 -8 203 6 L203 18 L138 18 L138 -7 L188 -7 ZM53 55 L53 30 L118 30 L118 55 L53 55 ZM203 55 L138 55 L138 30 L203 30 L203 55 Z" /><glyph glyph-name="uni5BD2" unicode="&#x5bd2;" d="M242 17 Q181 32 154 70 L101 70 Q94 60 85 51 Q129 50 175 37 L175 19 Q134 33 84 39 L84 50 Q60 29 14 17 L14 29 Q59 44 78 70 L18 70 L18 82 L82 82 L82 103 L34 103 L34 115 L82 115 L82 135 L39 135 L39 147 L82 147 L82 165 L102 165 L102 147 L153 147 L153 165 L174 165 L174 147 L217 147 L217 135 L174 135 L174 115 L222 115 L222 103 L174 103 L174 82 L238 82 L238 70 L177 70 Q196 45 242 29 L242 17 ZM19 153 L19 189 L116 189 L116 206 L140 206 L140 189 L237 189 L237 153 L216 153 L216 176 L40 176 L40 153 L19 153 ZM195 -27 Q131 -4 55 3 L55 17 Q125 12 195 -8 L195 -27 ZM102 103 L102 82 L153 82 L153 103 L102 103 ZM102 135 L102 115 L153 115 L153 135 L102 135 Z" /><glyph glyph-name="uni5BFC" unicode="&#x5bfc;" d="M68 88 Q36 87 37 119 L37 195 L212 195 L212 161 Q212 133 184 133 L57 133 L57 119 Q57 101 75 101 L209 101 Q226 100 225 116 L225 124 L240 124 L240 115 Q241 87 212 88 L68 88 ZM11 51 L11 65 L174 65 L174 81 L195 81 L195 65 L245 65 L245 51 L195 51 L195 7 Q195 -22 166 -22 L134 -22 L134 -8 L158 -8 Q174 -9 174 5 L174 51 L11 51 ZM57 182 L57 146 L177 146 Q192 146 192 161 L192 182 L57 182 ZM78 -1 Q71 17 53 41 L71 41 Q88 22 98 -1 L78 -1 Z" /><glyph glyph-name="uni5C01" unicode="&#x5c01;" d="M137 151 L137 165 L199 165 L199 205 L219 205 L219 165 L245 165 L245 151 L219 151 L219 9 Q220 -22 190 -21 L166 -21 L166 -7 L184 -7 Q200 -8 199 7 L199 151 L137 151 ZM19 53 L19 67 L61 67 L61 97 L82 97 L82 67 L123 67 L123 53 L82 53 L82 7 Q113 11 133 14 L133 1 Q81 -11 13 -10 L13 5 Q47 5 61 6 L61 53 L19 53 ZM20 163 L20 176 L61 176 L61 205 L82 205 L82 176 L122 176 L122 163 L82 163 L82 123 L128 123 L128 109 L13 109 L13 123 L61 123 L61 163 L20 163 ZM161 52 Q155 88 142 123 L158 123 Q174 83 180 52 L161 52 Z" /><glyph glyph-name="uni5C06" unicode="&#x5c06;" d="M14 39 L14 60 Q40 69 56 80 L56 130 Q37 140 16 146 L16 160 Q40 156 56 150 L56 205 L76 205 L76 -26 L56 -26 L56 63 Q43 51 14 39 ZM89 149 L89 160 Q129 175 146 205 L167 205 Q160 191 151 182 L238 182 L238 168 Q202 110 91 93 L91 106 Q124 112 157 125 Q138 135 111 140 L111 153 Q144 150 164 141 L164 129 Q193 143 215 168 L136 168 Q117 155 89 149 ZM85 63 L85 77 L194 77 L194 106 L214 106 L214 77 L246 77 L246 63 L214 63 L214 6 Q215 -23 185 -22 L163 -22 L163 -8 L178 -8 Q194 -8 194 6 L194 63 L85 63 ZM128 6 Q124 29 113 48 L131 48 Q144 30 148 6 L128 6 Z" /><glyph glyph-name="uni5C0F" unicode="&#x5c0f;" d="M13 21 L13 38 Q54 88 60 163 L81 163 Q73 69 13 21 ZM82 -22 L82 -7 L104 -7 Q119 -7 119 6 L119 204 L142 204 L142 7 Q142 -22 112 -22 L82 -22 ZM243 21 Q183 67 175 163 L195 163 Q201 87 243 38 L243 21 Z" /><glyph glyph-name="uni5C11" unicode="&#x5c11;" d="M243 76 Q242 77 240 78 Q228 86 217 96 Q162 5 15 -25 L15 -12 Q148 22 194 101 L212 101 Q180 130 168 185 L189 185 Q200 129 243 91 L243 76 ZM117 63 L117 204 L139 204 L139 63 L117 63 ZM13 74 L13 89 Q56 129 67 185 L87 185 Q75 114 13 74 Z" /><glyph glyph-name="uni5C16" unicode="&#x5c16;" d="M18 70 L18 84 L116 84 L116 111 L139 111 L139 84 L238 84 L238 70 L141 70 Q148 17 244 -11 L244 -24 Q155 -4 128 42 Q104 -3 12 -24 L12 -11 Q106 15 115 70 L18 70 ZM117 119 L117 205 L139 205 L139 119 L117 119 ZM236 118 Q180 134 167 184 L188 184 Q197 148 236 130 L236 118 ZM20 118 L20 130 Q57 147 68 184 L89 184 Q76 135 20 118 Z" /><glyph glyph-name="uni5C27" unicode="&#x5c27;" d="M19 172 L19 185 L79 185 Q78 189 75 196 Q73 203 71 206 L93 206 Q94 203 97 196 Q99 189 100 185 L234 185 L234 172 L106 172 Q120 144 136 129 Q168 140 197 161 L222 161 Q190 132 151 118 Q172 108 197 108 Q224 107 223 130 L238 130 Q239 92 197 93 Q158 93 130 112 Q91 101 20 95 L20 108 Q79 114 116 124 Q98 141 84 172 L19 172 ZM17 61 L17 75 L238 75 L238 61 L165 61 L165 12 Q165 -5 182 -4 L210 -4 Q226 -4 226 11 L226 21 L241 21 L241 9 Q243 -19 210 -17 L176 -17 Q144 -18 145 11 L145 61 L104 61 Q106 -6 14 -25 L14 -13 Q84 4 83 61 L17 61 Z" /><glyph glyph-name="uni5C31" unicode="&#x5c31;" d="M27 75 L27 144 L121 144 L121 104 Q122 74 92 75 L86 75 L86 9 Q87 -22 55 -21 L41 -21 L41 -8 L50 -8 Q67 -9 66 8 L66 75 L27 75 ZM131 135 L131 149 L158 149 L158 205 L177 205 L177 149 L238 149 L238 135 L177 134 Q182 33 122 -24 L122 -5 Q123 -3 125 0 Q129 4 130 7 Q103 22 99 58 L115 58 Q118 32 134 18 L134 14 Q160 57 158 133 L158 135 L131 135 ZM209 -19 Q180 -20 181 4 L181 111 L200 111 L200 3 Q199 -6 214 -5 Q229 -6 228 5 L228 17 L242 17 L242 5 Q243 -20 216 -19 L209 -19 ZM46 88 L88 88 Q103 87 102 102 L102 131 L46 131 L46 88 ZM15 168 L15 182 L65 182 L65 206 L85 206 L85 182 L133 182 L133 168 L15 168 ZM9 -4 L9 8 Q30 26 34 58 L51 58 Q46 13 9 -4 ZM207 158 Q205 177 195 197 L211 197 Q222 178 225 158 L207 158 Z" /><glyph glyph-name="uni5C4A" unicode="&#x5c4a;" d="M76 -18 L76 102 L142 102 L142 125 L162 125 L162 102 L227 102 L227 9 Q228 -19 198 -18 L76 -18 ZM12 -25 L12 -8 Q36 20 34 73 L34 194 L230 194 L230 161 Q230 134 202 134 L55 134 L55 86 Q55 41 46 18 Q38 -3 12 -25 ZM55 180 L55 148 L197 148 Q210 148 210 162 L210 180 L55 180 ZM95 -5 L142 -5 L142 36 L95 36 L95 -5 ZM194 -5 Q209 -6 208 8 L208 36 L162 36 L162 -5 L194 -5 ZM208 89 L162 89 L162 49 L208 49 L208 89 ZM95 89 L95 49 L142 49 L142 89 L95 89 Z" /><glyph glyph-name="uni5C55" unicode="&#x5c55;" d="M64 103 L64 116 L101 116 L101 135 L121 135 L121 116 L167 116 L167 135 L187 135 L187 116 L230 116 L230 103 L187 103 L187 72 L240 72 L240 59 L100 59 L100 0 Q116 0 146 9 L146 -3 Q117 -15 81 -24 L81 59 L55 59 L55 57 Q58 3 12 -24 L12 -9 Q37 13 35 55 L35 195 L229 195 L229 169 Q230 142 201 143 L55 143 L55 72 L101 72 L101 103 L64 103 ZM55 182 L55 155 L195 155 Q210 155 209 169 L209 182 L55 182 ZM240 -19 Q153 -5 125 53 L146 53 Q159 31 177 17 Q197 28 206 53 L226 53 Q216 24 188 10 Q209 -1 240 -6 L240 -19 ZM121 103 L121 72 L167 72 L167 103 L121 103 Z" /><glyph glyph-name="uni5D07" unicode="&#x5d07;" d="M16 42 L16 55 L241 55 L241 42 L142 42 L142 7 Q143 -23 112 -22 L93 -22 L93 -10 L105 -10 Q121 -11 120 5 L120 42 L16 42 ZM35 156 L35 198 L56 198 L56 169 L118 169 L118 206 L139 206 L139 169 L187 169 Q201 168 200 184 L200 198 L221 198 L221 184 Q222 154 192 156 L35 156 ZM21 100 L21 135 L118 135 L118 151 L141 151 L141 135 L234 135 L234 100 L214 100 L214 122 L42 122 L42 100 L21 100 ZM51 80 L51 93 L205 93 L205 80 L51 80 ZM240 -20 Q187 -8 166 29 L188 29 Q204 3 240 -8 L240 -20 ZM16 -20 L16 -8 Q52 3 68 29 L90 29 Q69 -8 16 -20 Z" /><glyph glyph-name="uni5DDD" unicode="&#x5ddd;" d="M16 -25 L16 -10 Q50 16 48 61 L48 202 L69 202 L69 68 Q74 7 16 -25 ZM125 -7 L125 193 L147 193 L147 -7 L125 -7 ZM202 -24 L202 203 L223 203 L223 -24 L202 -24 Z" /><glyph glyph-name="uni5DE6" unicode="&#x5de6;" d="M19 164 L19 179 L92 179 L98 206 L121 206 Q120 202 118 193 Q115 184 114 179 L243 179 L243 164 L110 164 Q101 133 89 109 L227 109 L227 94 L157 94 L157 2 L242 2 L242 -10 L44 -10 L44 2 L135 2 L135 94 L81 94 Q61 59 16 18 L16 35 Q68 90 88 164 L19 164 Z" /><glyph glyph-name="uni5DE7" unicode="&#x5de7;" d="M108 176 L108 190 L244 190 L244 176 L162 176 Q156 142 144 114 L231 114 L231 16 Q233 -22 195 -20 L151 -20 L151 -5 L189 -5 Q210 -6 210 14 L210 100 L126 100 L126 114 Q137 141 140 176 L108 176 ZM13 172 L13 186 L99 186 L99 172 L67 172 L67 35 Q85 41 109 49 L109 35 Q66 15 11 5 L11 23 Q31 26 46 30 L46 172 L13 172 Z" /><glyph glyph-name="uni5E06" unicode="&#x5e06;" d="M98 -24 L98 -7 Q126 20 124 94 L124 191 L211 191 L211 7 Q210 -4 221 -3 Q233 -3 233 8 L233 15 L247 15 L247 6 Q248 -18 224 -17 L216 -17 Q190 -18 191 6 L191 177 L144 177 L144 96 Q144 47 135 23 Q126 -1 98 -24 ZM21 26 L21 173 L55 173 L55 204 L71 204 L71 173 L106 173 L106 48 Q107 26 85 27 L78 27 L78 40 L82 40 Q91 39 90 49 L90 160 L71 160 L71 -24 L55 -24 L55 160 L36 160 L36 26 L21 26 ZM164 71 Q162 97 151 135 L165 135 Q177 99 181 71 L164 71 Z" /><glyph glyph-name="uni5E1D" unicode="&#x5e1d;" d="M42 -10 L42 75 L117 75 L117 103 L139 103 L139 75 L214 75 L214 22 Q215 -8 185 -7 L168 -7 L168 4 L178 4 Q194 3 193 20 L193 61 L139 61 L139 -25 L117 -25 L117 61 L63 61 L63 -10 L42 -10 ZM19 86 L19 129 L71 129 Q65 141 63 158 L83 158 Q86 141 92 129 L163 129 Q171 144 172 158 L193 158 Q190 138 184 129 L237 129 L237 86 L217 86 L217 115 L39 115 L39 86 L19 86 ZM20 170 L20 184 L116 184 L116 205 L140 205 L140 184 L236 184 L236 170 L20 170 Z" /><glyph glyph-name="uni5E73" unicode="&#x5e73;" d="M24 179 L24 194 L233 194 L233 179 L139 179 L139 75 L243 75 L243 60 L139 60 L139 -26 L117 -26 L117 60 L13 60 L13 75 L117 75 L117 179 L24 179 ZM60 98 Q46 125 40 156 L62 156 Q68 123 80 98 L60 98 ZM176 98 Q188 123 194 156 L216 156 Q207 119 195 98 L176 98 Z" /><glyph glyph-name="uni5E74" unicode="&#x5e74;" d="M18 114 L18 128 Q56 156 67 205 L88 205 Q85 193 81 182 L234 182 L234 168 L156 168 L156 124 L230 124 L230 109 L156 109 L156 50 L245 50 L245 35 L156 35 L156 -26 L134 -26 L134 35 L13 35 L13 50 L52 50 L52 124 L134 124 L134 168 L75 168 Q60 135 18 114 ZM73 109 L73 50 L134 50 L134 109 L73 109 Z" /><glyph glyph-name="uni5E7B" unicode="&#x5e7b;" d="M15 95 L15 111 Q47 149 64 203 L87 203 Q67 149 35 111 Q56 111 80 113 Q84 122 91 142 Q93 148 94 151 L116 151 Q89 68 40 17 Q74 17 105 22 Q104 25 103 30 Q99 44 92 65 L108 65 Q122 34 129 -9 L111 -9 Q111 -6 110 -1 Q109 4 108 7 Q83 2 38 2 L19 2 L19 18 Q51 51 73 97 Q43 95 15 95 ZM169 -19 L169 -5 L193 -5 Q210 -6 209 11 L209 171 L119 171 L119 185 L230 185 L230 12 Q231 -20 198 -19 L169 -19 Z" /><glyph glyph-name="uni5E7F" unicode="&#x5e7f;" d="M14 -26 L14 -11 Q44 15 42 72 L42 179 L132 179 L132 205 L156 205 L156 179 L242 179 L242 164 L65 164 L65 86 Q69 5 14 -26 Z" /><glyph glyph-name="uni5E86" unicode="&#x5e86;" d="M69 91 L69 106 L138 106 Q138 109 138 112 L138 150 L160 150 L160 106 L236 106 L236 91 L162 91 Q168 30 243 -11 L243 -25 Q173 5 149 56 Q124 4 55 -25 L55 -11 Q131 31 137 91 L69 91 ZM12 -26 L12 -10 Q36 20 34 73 L34 180 L130 180 L130 205 L154 205 L154 180 L244 180 L244 166 L56 166 L56 86 Q59 6 12 -26 Z" /><glyph glyph-name="uni5E8F" unicode="&#x5e8f;" d="M107 -22 L107 -7 L125 -7 Q144 -8 143 9 L143 71 L67 71 L67 84 L133 84 Q119 104 101 121 L121 121 Q135 109 153 88 Q182 109 198 131 L78 131 L78 144 L224 144 L224 131 Q200 104 173 84 L236 84 L236 32 L217 32 L217 71 L164 71 L164 9 Q165 -23 132 -22 L107 -22 ZM13 -25 L13 -7 Q26 13 30 33 Q34 52 34 93 L34 184 L128 184 L128 205 L151 205 L151 184 L244 184 L244 170 L56 170 L56 99 Q60 11 13 -25 Z" /><glyph glyph-name="uni5EA6" unicode="&#x5ea6;" d="M242 -24 Q175 -13 144 0 Q108 -14 50 -24 L50 -11 Q98 -2 126 8 Q100 24 78 49 L102 49 Q122 29 144 17 Q170 30 193 57 L68 57 L68 71 L219 71 L219 57 Q192 23 162 8 Q190 -2 242 -11 L242 -24 ZM57 128 L57 141 L94 141 L94 162 L114 162 L114 141 L180 141 L180 162 L200 162 L200 141 L240 141 L240 128 L200 128 L200 115 Q201 89 174 90 L94 90 L94 128 L57 128 ZM13 -26 L13 -9 Q36 25 34 92 L34 185 L127 185 L127 206 L151 206 L151 185 L242 185 L242 172 L54 172 L54 98 Q54 48 46 22 Q38 -2 13 -26 ZM167 103 Q181 102 180 116 L180 128 L114 128 L114 103 L167 103 Z" /><glyph glyph-name="uni5EA7" unicode="&#x5ea7;" d="M68 40 L68 53 L138 53 L138 157 L158 157 L158 53 L229 53 L229 40 L158 40 L158 -1 L244 -1 L244 -15 L52 -15 L52 -1 L138 -1 L138 40 L68 40 ZM12 -25 L12 -8 Q35 11 33 80 L33 185 L127 185 L127 206 L151 206 L151 185 L242 185 L242 172 L54 172 L54 83 Q54 38 46 17 Q38 -3 12 -25 ZM65 66 L65 81 Q91 100 89 138 L89 150 L107 150 L107 138 Q106 100 130 81 L130 66 Q106 82 98 100 Q87 80 65 66 ZM167 66 L167 81 Q191 102 190 138 L190 150 L207 150 L207 138 Q206 101 232 81 L232 66 Q208 80 199 100 Q188 79 167 66 Z" /></font>
</defs>
</svg>
