<?xml version="1.0" standalone="no"?><!DOCTYPE svg PUBLIC "-//W3C//DTD SVG 1.1//EN" "http://www.w3.org/Graphics/SVG/1.1/DTD/svg11.dtd" ><svg xmlns="http://www.w3.org/2000/svg"><metadata></metadata><defs><font id="fonteditor" horiz-adv-x="1045"><font-face font-family="lIw^h" font-weight="400" font-stretch="normal" units-per-em="1024" panose-1="2 1 6 9 0 1 1 1 1 1" ascent="819" descent="-204" x-height="1" bbox="16 -191 1002 793" underline-thickness="0" underline-position="0" unicode-range="U+0025-ff1f" /><missing-glyph horiz-adv-x="1024"  /><glyph glyph-name="percent" unicode="%" d="M22 -81 L906 792 L1002 698 L118 -178 L22 -81 ZM264 767 Q316 767 367 739.5 Q418 712 447.5 661 Q477 610 477 555 Q476 499 447.5 448.5 Q419 398 370.5 370 Q322 342 264 343 Q206 343 157 371 Q108 399 79.5 448.5 Q51 498 50.5 554 Q50 610 80 661 Q110 712 161 739 Q212 766 264 767 ZM263 649 Q241 649 219.5 637.5 Q198 626 186 603.5 Q174 581 173.5 557 Q173 533 186 513 Q198 492 218.5 480 Q239 468 263 468 Q286 468 306.5 480 Q327 492 339.5 512.5 Q352 533 352 558 Q351 581 339 603.5 Q327 626 305.5 637.5 Q284 649 263 649 ZM757 269 Q808 269 859 241.5 Q910 214 940 163 Q970 112 970 57 Q969 0 940.5 -49 Q912 -98 863 -126 Q814 -154 757 -154 L651 -126 Q601 -98 572.5 -49 Q544 0 543.5 56 Q543 112 573 163 Q603 214 654 241.5 Q705 269 757 269 ZM761 148 Q739 147 717.5 136 Q696 125 684 102.5 Q672 80 671.5 56.5 Q671 33 684 12 Q696 -9 716.5 -21 Q737 -33 761 -33 Q785 -34 805 -22 Q825 -10 837 11.5 Q849 33 849.5 56.5 Q850 80 838 102 Q825 125 804.5 136.5 Q784 148 761 148 Z" /><glyph glyph-name="ampersand" unicode="&amp;" d="M208 356 Q202 373 192.5 399.5 Q183 426 175.5 459 Q168 492 174 540 Q181 607 210.5 647.5 Q240 688 277 707 Q314 726 352.5 734.5 Q391 743 438 741 Q483 738 525.5 722.5 Q568 707 598.5 670 Q629 633 635.5 583 Q642 533 631 493 Q620 454 593 416.5 Q566 379 543 359.5 Q520 340 479 311 L438 282 Q449 261 458 247 Q467 233 487 208 Q507 183 526 165 L539 152 Q549 167 556.5 180.5 Q564 194 578.5 229.5 Q593 265 599 291 L605 316 L769 316 Q758 274 748.5 239 Q739 204 718.5 154.5 Q698 105 683 83 L665 56 Q676 48 682.5 44.5 Q689 41 719 26 L760 5 L677 -136 Q665 -132 647 -124 Q629 -116 607.5 -104.5 Q586 -93 561 -78 L542 -67 Q520 -78 491.5 -90 Q463 -102 418.5 -113 Q374 -124 320 -126 Q249 -129 199 -116 Q149 -103 113 -79 Q77 -55 53 -15 Q29 25 25 82 Q21 139 43 192 Q60 233 96.5 270.5 Q133 308 169 331 L208 356 ZM290 208 Q279 202 264 193.5 Q249 185 231.5 169.5 Q214 154 205 136 Q196 118 194 96 Q192 74 203 58 Q214 39 238.5 30 Q263 21 296 21 Q329 20 352.5 26.5 Q376 33 392 43 L407 52 Q388 73 375.5 87.5 Q363 102 339.5 134.5 Q316 167 309 179 L290 208 ZM358 430 Q383 443 400.5 453.5 Q418 464 432 478.5 Q446 493 456.5 513 Q467 533 467.5 551.5 Q468 570 453.5 582.5 Q439 595 417 594 Q401 593 386.5 586 Q372 579 364.5 570.5 Q357 562 353 551.5 Q349 541 347 519 Q345 497 348 479 Q349 466 358 430 Z" /><glyph glyph-name="parenleft" unicode="(" d="M280 761 L428 672 Q407 646 382 613 Q357 580 330.5 525 Q304 470 291 414 Q278 358 279.5 302.5 Q281 247 297.5 183.5 Q314 120 340.5 71.5 Q367 23 405 -18 L439 -58 L310 -154 Q284 -127 262.5 -102 Q241 -77 208 -26 Q175 25 154.5 72.5 Q134 120 122.5 175 Q111 230 110 284.5 Q109 339 119.5 397.5 Q130 456 150 510.5 Q170 565 192.5 608.5 Q215 652 236 687 L280 761 Z" /><glyph glyph-name="parenright" unicode=")" d="M239 771 Q268 721 289.5 685 Q311 649 329 614 Q347 579 367.5 522 Q388 465 399.5 405.5 Q411 346 410 292 Q408 243 395.5 185.5 Q383 128 363.5 83 Q344 38 306.5 -21.5 Q269 -81 248 -102 L209 -144 L81 -48 Q103 -22 129.5 10.5 Q156 43 179 85 Q202 127 219.5 193.5 Q237 260 238.5 313 Q240 366 226.5 424.5 Q213 483 186.5 539 Q160 595 121 644 L91 682 L239 771 Z" /><glyph glyph-name="asterisk" unicode="*" d="M234 305 Q168 320 129 324 Q90 328 69 341 Q48 354 46.5 380 Q45 406 55.5 425.5 Q66 445 96 449 Q113 450 131 440.5 Q149 431 175.5 399 Q202 367 205 365 L246 319 Q241 352 236.5 366.5 Q232 381 212.5 421 Q193 461 194 488 Q194 510 203 523 Q212 536 224.5 543 Q237 550 257 549 Q270 548 282 542.5 Q294 537 305.5 523 Q317 509 317.5 490.5 Q318 472 306 445 Q280 386 278 374 L265 317 Q306 360 325 383 L357 422 Q370 437 380.5 443 Q391 449 406 451 Q424 452 437 444 Q450 436 459 420 Q468 404 468.5 386 Q469 368 461 356 Q453 344 428.5 334 Q404 324 365 318 L271 302 Q300 293 316.5 289 Q333 285 369 279 Q405 273 424.5 265.5 Q444 258 456.5 244.5 Q469 231 467.5 201.5 Q466 172 445.5 161.5 Q425 151 410 153 Q385 154 371 166 Q357 178 341.5 199 Q326 220 321 227 L268 288 Q275 236 283 212 L300 162 Q306 139 308 117.5 Q310 96 306 85 Q300 72 286.5 63.5 Q273 55 257 55 Q241 54 226 60.5 Q211 67 203.5 78 Q196 89 194.5 106 Q193 123 199 142 Q201 151 216 185.5 Q231 220 236 239 L249 292 Q222 262 210.5 247.5 Q199 233 182 211 Q165 189 147 172.5 Q129 156 106.5 154 Q84 152 67.5 164 Q51 176 47 201 Q43 226 49.5 240.5 Q56 255 68 263 Q80 271 121 279 Q162 287 166 288 L234 305 Z" /><glyph glyph-name="comma" unicode="," d="M225 25 L138 25 L138 243 L355 243 L355 52 Q355 22 349.5 -7.5 Q344 -37 330.5 -62.5 Q317 -88 293.5 -106.5 Q270 -125 235 -137.5 Q200 -150 181 -151 L145 -154 L145 -62 Q162 -61 177.5 -56.5 Q193 -52 208.5 -35 Q224 -18 224 -2 L225 25 Z" /><glyph glyph-name="hyphen" unicode="-" d="M658 350 L658 264 L43 264 L43 350 L658 350 Z" /><glyph glyph-name="period" unicode="." d="M134 145 L351 145 L351 -70 L134 -70 L134 145 Z" /><glyph glyph-name="slash" unicode="/" d="M39 -185 L602 793 L688 793 L119 -186 L39 -185 Z" /><glyph glyph-name="zero" unicode="0" d="M271 727 Q346 727 400.5 685 Q455 643 484.5 556.5 Q514 470 514 316 Q514 159 484 72 Q454 -15 403 -55.5 Q352 -96 275 -96 Q197 -96 144.5 -54.5 Q92 -13 62 70.5 Q32 154 32 308 Q32 523 90 620 Q155 727 271 727 ZM274 585 Q241 585 215.5 561 Q190 537 176.5 478 Q163 419 163 304 Q163 156 194 99.5 Q225 43 274 43 Q322 43 350 97 Q384 161 384 313 Q384 468 353.5 526.5 Q323 585 274 585 Z" /><glyph glyph-name="one" unicode="1" d="M137 709 L343 709 L343 -84 L206 -84 L206 568 L57 568 L137 709 Z" /><glyph glyph-name="two" unicode="2" d="M192 454 L63 454 Q68 583 133.5 656.5 Q199 730 302 730 Q366 730 414.5 699.5 Q463 669 492 611.5 Q521 554 521 494 Q521 424 486 342.5 Q451 261 357 150 L279 56 L527 56 L527 -84 L44 -84 L44 -12 L260 239 Q338 328 364 383.5 Q390 439 390 482 Q390 528 363 558 Q336 588 294 588 Q251 588 222.5 552 Q194 516 192 454 Z" /><glyph glyph-name="three" unicode="3" d="M195 518 L68 518 Q78 605 123 659 Q187 733 283 733 Q368 733 426 671 Q484 609 484 524 Q484 471 458.5 427.5 Q433 384 385 358 Q449 335 484.5 282 Q520 229 520 155 Q520 49 451 -25 Q382 -99 275 -99 Q174 -99 110 -29 Q46 41 40 161 L171 161 Q180 99 209 69.5 Q238 40 282 40 Q328 40 358.5 74 Q389 108 389 156 Q389 210 348 247 Q307 284 230 285 L230 414 Q277 419 300.5 431.5 Q324 444 337 466.5 Q350 489 350 513 Q350 545 330.5 567 Q311 589 278 589 Q250 589 227 569 Q204 549 195 518 Z" /><glyph glyph-name="four" unicode="4" d="M352 720 L485 720 L485 214 L548 214 L548 74 L485 74 L485 -87 L355 -87 L355 74 L48 74 L48 214 L352 720 ZM355 214 L355 477 L194 214 L355 214 Z" /><glyph glyph-name="five" unicode="5" d="M162 720 L485 720 L485 580 L260 580 L232 434 Q244 438 255 439.5 Q266 441 277 441 Q370 441 432 367.5 Q494 294 494 178 Q494 62 425.5 -18.5 Q357 -99 259 -99 Q171 -99 108 -40.5 Q45 18 25 118 L162 118 Q178 80 204 61 Q230 42 262 42 Q305 42 335.5 78.5 Q366 115 366 172 Q366 228 337.5 263 Q309 298 269 298 Q248 298 227 285.5 Q206 273 186 249 L79 276 L162 720 Z" /><glyph glyph-name="six" unicode="6" d="M286 736 L402 672 L277 403 Q368 403 432 330.5 Q496 258 496 151 Q496 48 430.5 -24 Q365 -96 272 -96 Q175 -96 110.5 -21.5 Q46 53 46 150 Q46 186 56 223 Q66 260 102 338 L286 736 ZM269 260 Q231 260 205.5 229.5 Q180 199 180 153 Q180 108 207 77 Q234 46 270 46 Q308 46 335 76 Q362 106 362 153 Q362 199 335.5 229.5 Q309 260 269 260 Z" /><glyph glyph-name="seven" unicode="7" d="M46 720 L484 720 L484 641 L222 -87 L73 -87 L326 579 L46 579 L46 720 Z" /><glyph glyph-name="eight" unicode="8" d="M416 351 Q463 316 489 261.5 Q515 207 515 145 Q515 77 485 18 Q455 -41 404 -70 Q353 -99 275 -99 Q190 -99 140.5 -70.5 Q91 -42 61 15 Q31 72 31 145 Q31 207 55 258.5 Q79 310 127 351 Q95 386 79.5 427 Q64 468 64 513 Q64 574 90 625 Q116 676 163.5 704.5 Q211 733 273 733 Q334 733 380.5 704.5 Q427 676 454 623.5 Q481 571 481 510 Q481 468 467 431.5 Q453 395 416 351 ZM269 591 Q236 591 215 566.5 Q194 542 194 503 Q194 465 216.5 438.5 Q239 412 271 412 Q305 412 326.5 437.5 Q348 463 348 504 Q348 542 326.5 566.5 Q305 591 269 591 ZM274 271 Q226 271 193.5 238 Q161 205 161 159 Q161 111 192 77.5 Q223 44 273 44 Q323 44 353.5 75.5 Q384 107 384 156 Q384 205 352.5 238 Q321 271 274 271 Z" /><glyph glyph-name="nine" unicode="9" d="M265 -96 L121 -96 L255 235 Q165 235 102.5 307 Q40 379 40 485 Q40 589 104.5 660.5 Q169 732 259 732 Q354 732 417.5 657.5 Q481 583 481 488 Q481 450 471 413.5 Q461 377 426 300 L265 -96 ZM262 377 Q299 377 324.5 407.5 Q350 438 350 483 Q350 529 323.5 560 Q297 591 262 591 Q224 591 197.5 561 Q171 531 171 484 Q171 438 197 407.5 Q223 377 262 377 Z" /><glyph glyph-name="colon" unicode=":" d="M138 444 L354 444 L354 228 L138 228 L138 444 ZM138 132 L354 132 L354 -84 L138 -84 L138 132 Z" /><glyph glyph-name="less" unicode="&lt;" d="M26 307 L825 714 L825 619 L212 305 L825 -11 L825 -106 L26 307 Z" /><glyph glyph-name="greater" unicode="&gt;" d="M837 307 L38 -106 L38 -11 L651 305 L38 619 L38 714 L837 307 Z" /><glyph glyph-name="A" unicode="a" d="M333 726 L476 726 L760 -80 L614 -80 L556 86 L255 86 L194 -80 L48 -80 L333 726 ZM405 512 L307 236 L503 236 L405 512 Z" /><glyph glyph-name="B" unicode="b" d="M275 -81 Q367 -81 420 -53 Q473 -25 506 30.5 Q539 86 539 154 Q539 225 507 277 Q475 329 405 363 Q447 397 465 434.5 Q483 472 483 518 Q483 589 443 641 Q403 693 333 712 Q285 726 181 726 L61 726 L61 -81 L275 -81 ZM245 580 Q293 580 318 557.5 Q343 535 343 497 Q343 457 317 433 Q291 409 239 409 L207 409 L207 580 L245 580 ZM237 272 Q323 272 359 242 Q395 212 395 159 Q395 113 364 89.5 Q333 66 243 66 L207 66 L207 272 L237 272 Z" /><glyph glyph-name="C" unicode="c" d="M798 571 L695 474 Q589 584 458 584 Q347 584 271 509 Q195 434 195 324 Q195 247 228.5 187.5 Q262 128 324 94.5 Q386 61 460 61 Q525 61 578 84.5 Q631 108 695 170 L794 67 Q709 -16 632.5 -48 Q556 -80 458 -80 Q279 -80 163.5 33 Q48 146 48 325 Q48 439 100.5 528.5 Q153 618 250.5 672 Q348 726 460 726 Q556 726 645 686 Q734 646 798 571 Z" /><glyph glyph-name="D" unicode="d" d="M63 726 L245 726 Q421 726 506.5 682.5 Q592 639 647.5 541 Q703 443 703 312 Q703 219 672 140.5 Q641 62 586.5 11 Q532 -40 468.5 -60 Q405 -80 248 -80 L63 -80 L63 726 ZM216 579 L216 71 L287 71 Q393 71 440.5 94.5 Q488 118 518 175 Q548 232 548 316 Q548 444 476 514 Q411 579 268 579 L216 579 Z" /><glyph glyph-name="E" unicode="e" d="M62 726 L470 726 L470 576 L204 576 L204 431 L470 431 L470 282 L204 282 L204 70 L470 70 L470 -80 L62 -80 L62 726 Z" /><glyph glyph-name="F" unicode="f" d="M70 726 L460 726 L460 576 L218 576 L218 430 L460 430 L460 283 L218 283 L218 -80 L70 -80 L70 726 Z" /><glyph glyph-name="G" unicode="g" d="M781 581 L678 480 Q581 583 451 583 Q338 583 261 508 Q184 433 184 325 Q184 214 263.5 137 Q343 60 459 60 Q535 60 587 92 Q639 124 670 191 L449 191 L449 328 L834 328 L835 296 Q835 195 783 105 Q731 15 648.5 -32.5 Q566 -80 454 -80 Q335 -80 241 -28.5 Q147 23 93 119 Q39 215 39 327 Q39 480 139 592 Q258 726 450 726 Q550 726 637 689 Q711 658 781 581 Z" /><glyph glyph-name="I" unicode="i" d="M85 726 L225 726 L225 -80 L85 -80 L85 726 Z" /><glyph glyph-name="J" unicode="j" d="M272 726 L410 726 L410 205 Q410 80 392 29.5 Q374 -21 332 -50.5 Q290 -80 230 -80 Q110 -80 26 34 L126 135 Q158 94 182 80.5 Q206 67 228 67 Q250 67 261 87 Q272 107 272 176 L272 726 Z" /><glyph glyph-name="K" unicode="k" d="M63 726 L218 726 L218 449 L436 726 L622 726 L340 366 L649 -81 L467 -81 L218 277 L218 -81 L63 -81 L63 726 Z" /><glyph glyph-name="L" unicode="l" d="M70 726 L210 726 L210 66 L414 66 L414 -80 L70 -80 L70 726 Z" /><glyph glyph-name="M" unicode="m" d="M145 726 L284 726 L457 163 L633 726 L770 726 L896 -81 L759 -81 L678 428 L519 -81 L394 -81 L237 428 L155 -81 L16 -81 L145 726 Z" /><glyph glyph-name="N" unicode="n" d="M64 726 L203 726 L532 195 L532 726 L679 726 L679 -80 L539 -80 L210 448 L210 -80 L64 -80 L64 726 Z" /><glyph glyph-name="O" unicode="o" d="M453 726 Q618 726 736 608 Q854 490 854 321 Q854 152 737.5 36 Q621 -80 454 -80 Q280 -80 164 39.5 Q48 159 48 323 Q48 433 102.5 525.5 Q157 618 250.5 672 Q344 726 453 726 ZM452 582 Q344 582 270.5 507.5 Q197 433 197 318 Q197 190 289 115 Q361 56 454 56 Q559 56 633 132 Q707 208 707 319 Q707 430 632.5 506 Q558 582 452 582 Z" /><glyph glyph-name="P" unicode="p" d="M65 726 L223 726 Q350 726 407 701.5 Q464 677 496.5 622.5 Q529 568 529 492 Q529 408 486 351.5 Q443 295 370 274 Q327 261 213 261 L213 -80 L65 -80 L65 726 ZM213 411 L260 411 Q317 411 338.5 419 Q360 427 372.5 446 Q385 465 385 492 Q385 539 350 560 Q324 577 255 577 L213 577 L213 411 Z" /><glyph glyph-name="Q" unicode="q" d="M737 47 L871 -127 L697 -127 L628 -40 Q543 -85 439 -85 Q265 -85 150 35 Q35 155 35 321 Q35 432 88.5 525 Q142 618 236 672.5 Q330 727 438 727 Q603 727 720.5 608 Q838 489 838 319 Q838 161 737 47 ZM645 166 Q691 236 691 320 Q691 429 617 506 Q543 583 438 583 Q330 583 256.5 508.5 Q183 434 183 319 Q183 190 275 115 Q348 57 439 57 Q491 57 538 78 L399 256 L575 256 L645 166 Z" /><glyph glyph-name="R" unicode="r" d="M56 726 L218 726 Q352 726 409 702.5 Q466 679 500.5 623.5 Q535 568 535 492 Q535 412 496.5 359 Q458 306 382 278 L572 -80 L404 -80 L224 262 L210 262 L210 -80 L56 -80 L56 726 ZM210 411 L257 411 Q331 411 358.5 430.5 Q386 450 386 494 Q386 520 372 539.5 Q358 559 335.5 567.5 Q313 576 252 576 L210 576 L210 411 Z" /><glyph glyph-name="S" unicode="s" d="M519 603 L410 507 Q352 586 292 586 Q262 586 243.5 570.5 Q225 555 225 536 Q225 517 238 500 Q257 477 347 401 Q433 331 450 313 Q495 268 514 227 Q533 186 533 138 Q533 43 467 -18.5 Q401 -80 294 -80 Q211 -80 149 -40 Q87 0 43 86 L167 160 Q224 58 297 58 Q335 58 361 80 Q387 102 387 131 Q387 157 367 183.5 Q347 210 281 263 Q154 365 117 421 Q80 477 80 532 Q80 612 141.5 669 Q203 726 294 726 Q352 726 405 699 Q458 672 519 603 Z" /><glyph glyph-name="T" unicode="t" d="M40 726 L485 726 L485 575 L339 575 L339 -80 L183 -80 L183 575 L40 575 L40 726 Z" /><glyph glyph-name="U" unicode="u" d="M66 726 L206 726 L206 217 Q206 152 217 124.5 Q228 97 253 81 Q278 65 312 65 Q350 65 376 83 Q402 101 413 129 Q424 157 424 236 L424 726 L564 726 L564 258 Q564 139 551 92.5 Q538 46 503 3.5 Q468 -39 422 -59.5 Q376 -80 316 -80 Q236 -80 177 -41 Q118 -2 92 57.5 Q66 117 66 258 L66 726 Z" /><glyph glyph-name="V" unicode="v" d="M40 726 L186 726 L376 152 L568 726 L714 726 L444 -81 L306 -81 L40 726 Z" /><glyph glyph-name="W" unicode="w" d="M22 726 L162 726 L270 211 L402 726 L520 726 L656 211 L762 726 L902 726 L734 -80 L598 -80 L460 441 L326 -80 L190 -80 L22 726 Z" /><glyph glyph-name="Y" unicode="y" d="M34 726 L189 726 L331 437 L472 726 L625 726 L402 269 L402 -80 L258 -80 L258 269 L34 726 Z" /><glyph glyph-name="a" unicode="a" d="M534 530 L688 530 L688 -82 L534 -82 L534 -17 Q489 -61 443.5 -79.5 Q398 -98 345 -98 Q227 -98 139.5 -6 Q52 86 52 223 Q52 365 136.5 455.5 Q221 546 340 546 Q396 546 444.5 525.5 Q493 505 534 463 L534 530 ZM372 405 Q300 405 253 354 Q206 303 206 225 Q206 145 254.5 93.5 Q303 42 373 42 Q446 42 493.5 93 Q541 144 541 225 Q541 306 493.5 355.5 Q446 405 372 405 Z" /><glyph glyph-name="b" unicode="b" d="M214 736 L214 442 Q255 483 302 503 Q349 523 402 523 Q520 523 602 435.5 Q684 348 684 211 Q684 79 599 -9.5 Q514 -98 398 -98 Q347 -98 302.5 -80 Q258 -62 214 -21 L214 -84 L64 -84 L64 736 L214 736 ZM372 386 Q300 386 253.5 338.5 Q207 291 207 213 Q207 135 253.5 86 Q300 37 372 37 Q440 37 487 86.5 Q534 136 534 212 Q534 288 487.5 337 Q441 386 372 386 Z" /><glyph glyph-name="c" unicode="c" d="M661 406 L535 335 Q500 373 465.5 388 Q431 403 384 403 Q299 403 246.5 351.5 Q194 300 194 219 Q194 141 244.5 91.5 Q295 42 377 42 Q479 42 535 113 L655 29 Q557 -98 381 -98 Q222 -98 132 -2.5 Q42 93 42 222 Q42 311 86 385.5 Q130 460 208 503 Q286 546 383 546 Q473 546 544.5 510 Q616 474 661 406 Z" /><glyph glyph-name="d" unicode="d" d="M522 736 L674 736 L674 -81 L522 -81 L522 -19 Q478 -60 433 -78 Q388 -96 336 -96 Q218 -96 132.5 -7.5 Q47 81 47 212 Q47 349 130 436.5 Q213 524 332 524 Q386 524 434 503.5 Q482 483 522 444 L522 736 ZM362 393 Q292 393 245.5 343 Q199 293 199 215 Q199 136 246.5 85.5 Q294 35 363 35 Q435 35 482.5 85 Q530 135 530 216 Q530 294 482.5 343.5 Q435 393 362 393 Z" /><glyph glyph-name="e" unicode="e" d="M692 179 L196 179 Q207 114 254 75.5 Q301 37 373 37 Q459 37 521 97 L650 37 Q601 -33 533.5 -66 Q466 -99 374 -99 Q229 -99 138.5 -7.5 Q48 84 48 220 Q48 362 138.5 454.5 Q229 547 365 547 Q510 547 601 454.5 Q692 362 692 208 L692 179 ZM537 301 Q521 352 476 384 Q431 416 373 416 Q308 416 259 380 Q229 358 203 301 L537 301 Z" /><glyph glyph-name="g" unicode="g" d="M439 532 L567 532 L567 88 Q567 -43 515 -105 Q445 -189 305 -189 Q230 -189 178.5 -170 Q127 -151 92 -114 Q57 -77 40 -25 L181 -25 Q200 -46 229.5 -57 Q259 -68 299 -68 Q350 -68 381.5 -52 Q413 -36 426 -10.5 Q439 15 439 78 Q406 44 368.5 29 Q331 14 284 14 Q182 14 111 89 Q40 164 40 279 Q40 403 116 478 Q183 545 278 545 Q322 545 361.5 528.5 Q401 512 439 475 L439 532 ZM296 425 Q235 425 196 384 Q157 343 157 281 Q157 216 197 174.5 Q237 133 298 133 Q358 133 396.5 173.5 Q435 214 435 280 Q435 344 396.5 384.5 Q358 425 296 425 Z" /><glyph glyph-name="h" unicode="h" d="M49 736 L187 736 L187 460 Q228 495 268.5 513 Q309 531 352 531 Q434 531 490 473 Q539 422 539 325 L539 -85 L402 -85 L402 198 Q402 297 393 332 Q384 367 362 384 Q340 401 307 401 Q265 401 235 372 Q205 343 193 294 Q187 269 187 177 L187 -85 L49 -85 L49 736 Z" /><glyph glyph-name="i" unicode="i" d="M173 738 Q207 738 231.5 713.5 Q256 689 256 654 Q256 619 231.5 594.5 Q207 570 174 570 Q139 570 114.5 595 Q90 620 90 656 Q90 690 114.5 714 Q139 738 173 738 ZM108 526 L238 526 L238 -83 L108 -83 L108 526 Z" /><glyph glyph-name="k" unicode="k" d="M64 736 L203 736 L203 263 L408 507 L582 507 L343 224 L611 -84 L438 -84 L203 189 L203 -84 L64 -84 L64 736 Z" /><glyph glyph-name="l" unicode="l" d="M76 736 L209 736 L209 -83 L76 -83 L76 736 Z" /><glyph glyph-name="m" unicode="m" d="M57 528 L185 528 L185 458 Q218 501 258 522.5 Q298 544 346 544 Q393 544 431.5 516 Q470 488 494 434 Q524 488 568.5 516 Q613 544 665 544 Q719 544 760.5 513.5 Q802 483 820 434 Q838 385 838 275 L838 -84 L709 -84 L709 227 Q709 330 687.5 367.5 Q666 405 623 405 Q590 405 564 382 Q538 359 525.5 319.5 Q513 280 513 192 L513 -84 L384 -84 L384 213 Q384 294 374 331.5 Q364 369 344 387 Q324 405 295 405 Q263 405 237 382 Q211 359 198 317.5 Q185 276 185 189 L185 -84 L57 -84 L57 528 Z" /><glyph glyph-name="n" unicode="n" d="M60 526 L188 526 L188 472 Q231 510 266.5 524.5 Q302 539 339 539 Q415 539 468 485 Q513 439 513 349 L513 -85 L386 -85 L386 233 Q386 327 378 357.5 Q370 388 349.5 404 Q329 420 299 420 Q260 420 232 393.5 Q204 367 193 320 Q188 295 188 214 L188 -85 L60 -85 L60 526 Z" /><glyph glyph-name="o" unicode="o" d="M370 544 Q457 544 533 501.5 Q609 459 651 384.5 Q693 310 693 225 Q693 140 650.5 65 Q608 -10 534.5 -52 Q461 -94 371 -94 Q240 -94 148 -1.5 Q56 91 56 225 Q56 367 161 461 Q252 544 370 544 ZM373 401 Q302 401 255 351.5 Q208 302 208 225 Q208 146 255 97 Q302 48 373 48 Q444 48 491.5 97.5 Q539 147 539 225 Q539 303 492.5 352 Q446 401 373 401 Z" /><glyph glyph-name="p" unicode="p" d="M186 531 L186 473 Q220 509 261.5 527 Q303 545 350 545 Q452 545 524 466.5 Q596 388 596 266 Q596 148 522 68.5 Q448 -11 347 -11 Q301 -11 262.5 5 Q224 21 186 58 L186 -191 L55 -191 L55 531 L186 531 ZM323 422 Q261 422 220 379.5 Q179 337 179 267 Q179 198 220 154.5 Q261 111 323 111 Q383 111 424 155 Q465 199 465 267 Q465 336 425 379 Q385 422 323 422 Z" /><glyph glyph-name="r" unicode="r" d="M72 531 L193 531 L193 461 Q213 502 245.5 524 Q278 546 317 546 Q344 546 411 524 L369 403 Q306 422 289 422 Q257 422 234.5 381.5 Q212 341 212 224 L212 -91 L72 -91 L72 531 Z" /><glyph glyph-name="s" unicode="s" d="M467 444 L372 348 Q314 407 267 407 Q241 407 226 395.5 Q211 384 211 368 Q211 356 220.5 345.5 Q230 335 267 316 L322 288 Q411 245 444.5 199 Q478 153 478 91 Q478 10 418 -44.5 Q358 -99 257 -99 Q123 -99 43 6 L138 109 Q164 78 200.5 58 Q237 38 265 38 Q296 38 314.5 53 Q333 68 333 86 Q333 122 267 156 L215 182 Q65 257 65 369 Q65 442 121.5 493.5 Q178 545 265 545 Q325 545 377.5 519 Q430 493 467 444 Z" /><glyph glyph-name="t" unicode="t" d="M140 699 L278 699 L278 484 L360 484 L360 359 L278 359 L278 -97 L140 -97 L140 359 L68 359 L68 484 L140 484 L140 699 Z" /><glyph glyph-name="u" unicode="u" d="M64 545 L206 545 L206 244 Q206 155 217 121.5 Q228 88 251.5 69 Q275 50 310 50 Q346 50 370.5 68.5 Q395 87 406 123 Q415 151 415 239 L415 545 L556 545 L556 280 Q556 117 533 56 Q505 -17 450 -56.5 Q395 -96 310 -96 Q218 -96 161 -50 Q104 -4 80 78 Q64 135 64 285 L64 545 Z" /><glyph glyph-name="z" unicode="z" d="M83 544 L565 544 L281 48 L549 48 L549 -86 L39 -86 L324 410 L83 410 L83 544 Z" /><glyph glyph-name="uni3001" unicode="&#x3001;" d="M194 152 L395 -4 L234 -156 L92 60 L194 152 Z" /><glyph glyph-name="uni3002" unicode="&#x3002;" d="M245 159 Q284 158 320.5 138.5 Q357 119 379 80.5 Q401 42 401.5 1.5 Q402 -39 380 -76 Q358 -113 322 -133.5 Q286 -154 245 -154 Q203 -155 165.5 -133.5 Q128 -112 108 -76.5 Q88 -41 88 2 Q88 44 108.5 81 Q129 118 167 138.5 Q205 159 245 159 ZM245 49 Q232 49 221.5 43 Q211 37 204 25 Q197 13 196.5 1.5 Q196 -10 204 -21 Q210 -33 220.5 -39 Q231 -45 245 -44 Q257 -44 267.5 -38.5 Q278 -33 285 -21.5 Q292 -10 292 2 Q291 13 284 25 Q277 37 267 42.5 Q257 48 245 49 Z" /><glyph glyph-name="uniB7" unicode="·" d="M513 205 Q463 204 432.5 235.5 Q402 267 407 339.5 Q412 412 482.5 416 Q553 420 586 386.5 Q619 353 619.5 309 Q620 265 587 235 Q554 205 513 205 Z" /><glyph glyph-name="quotedblleft" unicode="&#x201c;" d="M884 586 L971 586 L971 380 L781 380 L781 599 Q781 640 790 664 Q799 688 819 711.5 Q839 735 867.5 747.5 Q896 760 934 763 L969 766 L969 677 Q951 676 934.5 673.5 Q918 671 902.5 657.5 Q887 644 888 633 L884 586 ZM656 586 L743 586 L743 380 L554 380 L554 599 Q554 642 562.5 665 Q571 688 591.5 711 Q612 734 641 747 Q670 760 706 763 L741 766 L741 677 Q723 676 706.5 673.5 Q690 671 674.5 657.5 Q659 644 660 633 L656 586 Z" /><glyph glyph-name="quotedblright" unicode="&#x201d;" d="M137 560 L51 560 L51 766 L240 766 L240 547 Q240 505 230.5 481 Q221 457 201 433.5 Q181 410 152 397.5 Q123 385 88 383 L52 380 L52 469 Q69 469 86.5 471.5 Q104 474 118.5 487 Q133 500 133 513 L137 560 ZM366 560 L280 560 L280 766 L469 766 L469 547 Q469 506 459.5 481 Q450 456 430.5 433.5 Q411 411 381.5 398 Q352 385 317 383 L282 380 L282 469 Q299 469 315.5 471.5 Q332 474 347.5 487.5 Q363 501 363 513 L366 560 Z" /><glyph glyph-name="uni300A" unicode="&#x300a;" d="M965 766 L821 306 L969 -155 L852 -154 L703 307 L851 767 L965 766 ZM788 766 L644 306 L792 -155 L674 -154 L526 307 L674 767 L788 766 Z" /><glyph glyph-name="uni300B" unicode="&#x300b;" d="M55 767 L169 768 L318 308 L169 -153 L52 -154 L199 306 L55 767 ZM233 767 L346 768 L495 308 L346 -153 L229 -154 L376 306 L233 767 Z" /><glyph glyph-name="uni3010" unicode="&#x3010;" d="M583 765 L951 765 Q967 765 970 756 Q973 747 957 732 L943 719 Q924 701 887 647 Q850 593 830.5 515.5 Q811 438 808.5 335.5 Q806 233 818 164 Q829 93 860.5 14.5 Q892 -64 932 -95 L958 -116 Q975 -130 971.5 -141 Q968 -152 958 -152 L583 -152 L583 765 Z" /><glyph glyph-name="uni3011" unicode="&#x3011;" d="M438 765 L438 -153 L62 -153 Q52 -153 49 -142.5 Q46 -132 62 -118 L89 -96 Q126 -66 158 15 Q190 96 202 165 Q214 234 212 335 Q209 434 188.5 516 Q168 598 132.5 649 Q97 700 78 719 L64 732 Q47 748 50 756.5 Q53 765 69 765 L438 765 Z" /><glyph glyph-name="uniFF01" unicode="&#xff01;" d="M139 591 L343 591 L343 286 L319 105 L166 105 L139 286 L139 591 ZM139 46 L343 46 L343 -153 L139 -153 L139 46 Z" /><glyph glyph-name="uniFF08" unicode="&#xff08;" d="M815 763 L963 674 Q942 648 916.5 613 Q891 578 865.5 525.5 Q840 473 826.5 416.5 Q813 360 814.5 304.5 Q816 249 832.5 185.5 Q849 122 875.5 73.5 Q902 25 940 -16 L974 -56 L845 -152 Q819 -125 798 -100 Q777 -75 743 -23.5 Q709 28 689.5 74 Q670 120 658 176.5 Q646 233 645 286.5 Q644 340 654.5 399.5 Q665 459 684.5 511 Q704 563 728.5 611 Q753 659 771 689 L815 763 Z" /><glyph glyph-name="uniFF09" unicode="&#xff09;" d="M211 765 Q240 715 261 679.5 Q282 644 300.5 607.5 Q319 571 339.5 515 Q360 459 371.5 399.5 Q383 340 382 285 Q380 236 367.5 178.5 Q355 121 335.5 76 Q316 31 278.5 -28.5 Q241 -88 220 -109 L181 -151 L53 -55 Q75 -28 102.5 6 Q130 40 151.5 79.5 Q173 119 191 186.5 Q209 254 210.5 307 Q212 360 198.5 418 Q185 476 159 530.5 Q133 585 93 637 L63 676 L211 765 Z" /><glyph glyph-name="uniFF0C" unicode="&#xff0c;" d="M228 25 L141 25 L141 243 L358 243 L358 52 Q358 22 352.5 -7.5 Q347 -37 333.5 -62.5 Q320 -88 296.5 -106.5 Q273 -125 238 -137.5 Q203 -150 184 -151 L148 -154 L148 -62 Q165 -61 180.5 -56.5 Q196 -52 211.5 -35 Q227 -18 227 -2 L228 25 Z" /><glyph glyph-name="uniFF1A" unicode="&#xff1a;" d="M140 444 L356 444 L356 228 L140 228 L140 444 ZM140 132 L356 132 L356 -84 L140 -84 L140 132 Z" /><glyph glyph-name="uniFF1B" unicode="&#xff1b;" d="M244 -16 L140 -16 L140 171 L356 171 L356 27 Q356 -8 351 -33.5 Q346 -59 332 -80 Q318 -101 291 -118.5 Q264 -136 234.5 -143.5 Q205 -151 177 -152 L147 -154 L147 -83 Q162 -83 183.5 -81.5 Q205 -80 223 -65 Q241 -50 242 -38 L244 -16 ZM140 444 L356 444 L356 228 L140 228 L140 444 Z" /><glyph glyph-name="uniFF1F" unicode="&#xff1f;" d="M323 408 L203 408 Q202 499 264 559 Q325 619 425 619 Q489 619 534.5 594.5 Q580 570 607 523.5 Q634 477 634 425 Q634 397 625.5 370 Q617 343 598 315 Q587 298 545 259 Q506 221 496 205.5 Q486 190 479 164.5 Q472 139 470 93 L346 93 L346 115 Q346 178 368.5 230 Q391 282 441 328 Q489 372 499 388.5 Q509 405 509 428 Q509 458 484.5 479 Q460 500 419 500 Q377 500 350 474.5 Q323 449 323 408 ZM408 20 Q442 20 465.5 -3.5 Q489 -27 489 -61 Q489 -95 465.5 -119 Q442 -143 409 -143 Q376 -143 353 -119 Q330 -95 330 -61 Q330 -27 353 -3.5 Q376 20 408 20 Z" /><glyph glyph-name="uni963F" unicode="&#x963f;" d="M46 778 L296 778 Q411 779 411 658 L411 511 Q411 408 312 353 L411 353 L411 60 Q411 -118 215 -100 L215 41 L245 42 L245 653 L194 653 L194 -162 L46 -162 L46 778 ZM978 -84 L978 644 Q980 777 851 777 L439 777 L439 645 L775 645 Q820 645 820 590 L820 -166 L898 -166 Q976 -166 978 -84 ZM453 -131 L453 483 Q453 603 565 603 L686 603 Q788 603 788 497 L788 -131 L453 -131 ZM578 -24 L664 -24 L664 434 Q664 485 620 485 L578 485 L578 -24 Z" /><glyph glyph-name="uni7231" unicode="&#x7231;" d="M973 735 Q973 652 854 651 L51 651 L51 778 L973 778 L973 735 ZM393 -39 Q393 -28 408 -19.5 Q423 -11 443 -11 Q463 -11 477.5 -19.5 Q492 -28 512 -42 Q492 -50 477.5 -58.5 Q463 -67 443 -67 Q423 -67 408 -58.5 Q393 -50 393 -39 ZM192 598 Q192 618 216.5 633.5 Q241 649 276 649 Q309 649 334 633.5 Q359 618 359 598 Q359 577 334 562.5 Q309 548 276 548 Q241 548 216.5 562.5 Q192 577 192 598 ZM372 82 Q275 58 267 -27 Q258 -127 368 -160 Q453 -178 558 -147 L636 -118 L718 -162 L984 -163 L771 -36 L937 70 Q999 154 905 212 L317 212 L327 248 L903 248 Q981 250 981 317 L981 365 L354 365 L362 397 L206 397 L206 430 L759 430 Q812 430 812 408 L812 388 L977 388 L977 447 Q977 546 897 546 L945 629 L768 629 Q740 546 658 545 L154 543 Q40 546 40 454 L40 388 L201 388 L197 365 L47 365 L47 248 L161 248 L40 -161 L206 -161 L290 105 L765 105 L640 39 L568 64 Q470 105 372 82 ZM451 597 Q451 617 475.5 632.5 Q500 648 535 648 Q568 648 593 632.5 Q618 617 618 597 Q618 576 593 561.5 Q568 547 535 547 Q500 547 475.5 561.5 Q451 576 451 597 Z" /><glyph glyph-name="uni5B89" unicode="&#x5b89;" d="M214 595 L756 595 Q816 595 816 564 L816 532 L979 532 L981 633 Q973 729 864 727 L597 727 L597 781 L424 781 L424 727 L170 727 Q51 727 51 629 L51 532 L214 532 L214 595 ZM752 435 L274 435 L274 502 L107 502 L107 435 L37 435 L37 305 L113 305 L115 180 Q228 44 335 -10 Q234 -43 51 -28 L49 -162 Q389 -177 520 -96 Q669 -180 973 -168 L973 -26 Q834 -44 705 -10 Q812 41 919 183 L919 305 L987 305 L987 435 L919 435 L919 502 L752 502 L752 435 ZM747 305 L747 229 Q667 142 594.5 106.5 Q522 71 444.5 106 Q367 141 285 224 L285 305 L747 305 Z" /><glyph glyph-name="uni6309" unicode="&#x6309;" d="M293 -68 L293 241 L345 262 L345 415 L293 394 L293 551 L345 551 L345 681 L293 681 L293 778 L141 778 L141 681 L44 681 L44 551 L78 551 Q145 547 141 474 L141 345 L40 315 L40 162 L141 192 Q144 -24 135 -35 Q126 -46 100 -47 L68 -47 L68 -165 L191 -165 Q242 -165 270 -132 Q292 -103 293 -68 ZM763 774 L599 774 L599 730 L475 730 Q383 721 383 651 L383 543 L559 543 L559 601 L746 601 Q789 601 789 572 L789 543 L966 543 L966 646 Q968 730 872 730 L763 730 L763 774 ZM422 316 L422 201 Q418 158 453 121 L540 19 Q465 -19 389 -26 L389 -166 Q553 -162 671 -78 L762 -165 L984 -164 L807 6 L904 114 Q924 139 931 181 L931 316 L980 316 L980 446 L931 446 L931 501 L778 501 L778 446 L574 446 L574 501 L422 501 L422 446 L367 446 L367 316 L422 316 ZM577 214 L578 316 L780 315 L782 215 Q677 42 577 214 Z" /><glyph glyph-name="uni6697" unicode="&#x6697;" d="M445 608 L972 608 L972 731 L794 731 L794 779 L628 779 L628 731 L445 731 L445 608 ZM441 350 L984 350 L984 478 L907 478 L956 570 L791 570 Q756 478 670 478 L441 478 L441 350 ZM524 542 Q524 565 548 580.5 Q572 596 607 596 Q641 596 665 580.5 Q689 565 689 542 Q689 519 665 503 Q641 487 607 487 Q572 487 548 503 Q524 519 524 542 ZM405 647 Q402 766 285 766 L168 766 Q39 766 41 646 L41 -167 L405 -167 L405 647 ZM222 248 Q265 248 267 198 L266 -36 L181 -36 L181 248 L222 248 ZM181 379 L181 635 L222 635 Q265 635 265 586 L265 379 L181 379 ZM968 175 Q969 308 852 308 L579 308 Q460 308 462 174 L462 -164 L968 -164 L968 175 ZM758 19 Q821 19 820 -26 L819 -50 L609 -50 L609 19 L758 19 ZM609 126 L609 194 L760 194 Q821 194 821 150 L821 126 L609 126 Z" /><glyph glyph-name="uni6848" unicode="&#x6848;" d="M422 739 L135 739 Q45 738 45 648 L45 583 L158 583 L158 548 L40 548 L40 442 L158 442 Q158 372 319 303 L282 299 L52 299 L52 189 L307 189 Q358 189 409 206 L511 229 L615 206 Q665 190 707 189 L977 189 L977 299 L773 299 L743 300 L685 299 Q865 372 865 442 L984 442 L984 548 L865 548 L865 587 L977 587 L977 648 Q966 735 896 739 L594 739 L594 778 L422 778 L422 739 ZM693 436 Q645 400 580 384 Q515 368 449 384 Q383 400 329 436 L693 436 ZM744 630 Q815 630 815 599 L815 588 L703 588 L703 544 L319 544 L319 588 L207 588 L207 630 L744 630 ZM294 -2 L131 -2 L71 -165 L243 -164 L294 -2 ZM981 155 L594 155 L594 195 L433 195 L433 155 L52 155 L52 38 L350 38 Q434 38 433 -38 L433 -166 L599 -166 L600 38 L981 38 L981 155 ZM718 -1 L797 -161 L970 -161 L907 -32 Q895 1 836 -1 L718 -1 Z" /><glyph glyph-name="uni71AC" unicode="&#x71ac;" d="M532 528 L680 527 L702 575 L833 574 Q804 476 762 398 L704 474 Q681 502 617 503 L551 504 L550 382 Q613 390 622 364 L682 268 Q632 216 557 178 L557 29 Q659 68 749 141 L827 29 L984 29 L845 258 Q916 385 970 557 Q995 673 909 690 L745 689 L776 778 L620 778 L532 528 ZM537 643 L538 740 L375 740 L375 778 L214 778 L214 740 L47 740 L47 643 L161 643 Q214 643 214 614 L214 604 L53 604 L53 507 L167 507 Q214 507 214 480 L214 472 L47 472 L47 375 L123 375 L57 37 L211 36 L252 235 L322 236 Q379 236 379 181 L379 127 L317 126 L317 31 L456 29 Q512 29 526 84 L526 264 Q526 337 445 337 L264 337 L272 375 L541 375 L541 472 L375 472 L375 507 L532 507 L532 612 L375 610 L375 643 L537 643 ZM91 12 L40 -163 L197 -164 L243 12 L91 12 ZM854 10 Q881 10 901 -11 L959 -166 L800 -166 L726 10 L854 10 ZM638 10 Q665 10 685 -11 L743 -166 L576 -166 L510 10 L638 10 ZM420 10 Q447 10 468 -11 L525 -166 L358 -166 L292 10 L420 10 Z" /><glyph glyph-name="uni50B2" unicode="&#x50b2;" d="M633 602 L633 722 L512 722 L512 770 L384 770 L384 722 L273 722 L273 602 L334 602 Q384 602 384 566 L384 550 L275 550 L275 430 L340 430 Q384 430 384 398 L384 386 L273 386 L273 266 L336 266 L279 -160 L419 -158 L449 88 L468 90 Q504 90 504 52 L504 -48 L468 -50 L468 -166 L553 -166 Q610 -168 621 -72 L621 126 Q621 218 536 218 L459 218 L467 266 L632 266 L632 386 L512 386 L512 430 L628 430 L628 558 L512 556 L512 602 L633 602 ZM263 770 L139 770 Q107 594 40 512 L40 332 L88 356 L88 -162 L143 -162 Q227 -162 227 -76 L228 414 L151 412 Q242 552 263 770 ZM636 464 L725 466 Q767 466 777 504 L787 540 L843 540 L799 341 L775 390 Q767 428 719 434 L648 434 L649 324 L660 326 Q682 322 693 284 L732 150 L632 -160 L715 -160 Q756 -162 770 -136 L809 -29 L856 -162 L984 -162 L872 156 L978 552 Q1003 645 921 666 L807 666 L827 778 L701 778 L636 464 Z" /><glyph glyph-name="uni5965" unicode="&#x5965;" d="M242 596 L696 596 Q782 598 774 522 L774 194 L854 194 Q938 194 938 270 L938 582 Q938 720 812 720 L288 720 L310 778 L138 778 Q104 712 46 662 L46 482 L88 519 L88 194 L242 194 L242 596 ZM424 208 L424 156 L40 156 L40 34 L364 34 Q244 -32 58 -32 L58 -162 Q429 -180 572 28 L974 28 L974 152 L596 152 L596 212 L428 212 L424 208 ZM552 -4 L762 -166 L984 -166 L818 -28 Q798 -4 736 -4 L552 -4 ZM299 354 L278 230 L382 229 L402 354 L299 354 ZM613 354 L634 231 L728 231 L717 324 Q710 354 676 354 L613 354 ZM584 378 L744 378 L744 471 L706 471 L736 561 L630 561 Q600 471 584 471 L584 573 L431 573 L407 548 L399 541 Q380 526 366 536 L361 560 L272 560 L282 504 Q317 462 393 493 L431 518 L431 471 L274 471 L274 378 L376 378 Q431 377 431 330 L431 229 L584 229 L584 378 Z" /><glyph glyph-name="uni5427" unicode="&#x5427;" d="M433 650 L433 -66 Q433 -166 544 -166 L907 -166 Q984 -166 984 -100 L984 -34 L609 -34 Q585 -34 585 -10 L585 168 L958 168 L958 652 Q951 772 841 772 L547 772 Q433 752 433 650 ZM640 300 L585 300 L585 640 L599 640 Q633 640 640 598 L640 300 ZM758 640 L772 640 Q804 640 808 598 L808 300 L758 300 L758 640 ZM389 664 Q394 772 298 778 L148 778 Q40 778 41 662 L41 -160 L389 -160 L389 664 ZM176 646 L221 646 Q256 646 256 604 L256 -28 L176 -28 L176 646 Z" /><glyph glyph-name="uni5DF4" unicode="&#x5df4;" d="M898 -159 Q974 -153 977 -88 L977 -21 L244 -21 Q218 -21 214 3 L214 209 L856 209 L954 211 L954 631 Q954 771 823 771 L175 771 Q47 769 47 635 L47 -17 Q47 -157 183 -159 L898 -159 ZM416 353 L214 353 L214 639 L335 639 Q416 639 416 544 L416 353 ZM584 635 L705 635 Q787 635 785 554 L785 353 L584 353 L584 635 Z" /><glyph glyph-name="uni628A" unicode="&#x628a;" d="M435 641 L435 -60 Q435 -166 534 -166 L899 -166 Q984 -166 984 -93 L984 -36 L613 -36 Q588 -36 588 -12 L588 165 L965 165 L965 645 Q959 762 844 762 L542 762 Q435 741 435 641 ZM644 295 L588 295 L588 632 L603 632 Q637 632 644 589 L644 295 ZM764 632 L778 632 Q811 632 815 588 L815 295 L764 295 L764 632 ZM316 -69 L316 240 L398 262 L398 415 L316 394 L316 551 L398 551 L398 681 L316 681 L316 778 L158 778 L158 681 L44 681 L44 551 L76 551 Q162 547 158 474 L158 345 L40 315 L40 162 L158 191 L158 -16 Q160 -47 120 -48 L73 -48 L73 -166 L218 -166 Q316 -166 316 -69 Z" /><glyph glyph-name="uni9738" unicode="&#x9738;" d="M204 -34 L40 -34 L40 -118 L136 -118 Q204 -118 204 -156 L346 -156 L346 -118 L496 -118 L496 -34 L346 -34 L346 2 L492 2 L492 98 Q492 188 430 188 L346 188 L346 222 L416 222 Q472 222 472 266 L472 310 L510 310 L510 386 L472 386 L472 410 L326 410 L326 386 L228 386 L228 410 L80 410 L80 386 L40 386 L40 310 L80 310 L80 272 Q80 222 138 222 L204 222 L204 188 L138 188 Q62 188 62 98 L62 2 L142 2 Q204 2 204 -34 ZM204 72 L162 72 L162 120 L182 120 Q204 120 204 96 L204 72 ZM346 120 L368 120 Q392 120 392 96 L392 72 L346 72 L346 120 ZM324 272 L228 272 L228 310 L294 310 Q320 312 324 296 L324 272 ZM434 654 L186 654 Q56 654 56 544 L56 434 L198 434 L198 586 L362 586 Q434 586 434 530 L434 434 L596 434 L596 586 L764 586 Q824 586 822 536 L824 434 L966 434 L966 534 Q966 654 848 654 L596 654 L596 690 L984 690 L984 778 L48 778 L48 690 L356 690 Q434 690 434 654 ZM232 556 L232 508 L360 508 Q406 508 406 556 L232 556 ZM232 478 L232 430 L356 430 Q406 430 406 478 L232 478 ZM626 556 L626 508 L750 508 Q798 508 798 556 L626 556 ZM626 478 L626 430 L752 430 Q798 430 798 478 L626 478 ZM968 -84 L966 300 Q968 406 876 406 L640 406 Q534 406 534 298 L536 -156 L678 -156 L678 -66 L772 -66 Q828 -64 824 -102 L824 -166 L896 -166 Q970 -168 968 -84 ZM770 112 Q824 112 824 68 L824 46 L678 46 L678 112 L770 112 ZM770 288 Q824 288 824 246 L824 222 L678 222 L678 288 L770 288 Z" /><glyph glyph-name="uni767D" unicode="&#x767d;" d="M984 532 Q984 704 794 704 L308 704 L346 778 L162 778 Q128 708 40 613 L40 427 L94 467 L94 -166 L984 -166 L984 532 ZM708 212 Q818 212 818 117 L818 -36 L260 -36 L260 212 L708 212 ZM260 342 L260 574 L712 574 Q818 574 818 473 L818 342 L260 342 Z" /><glyph glyph-name="uni67CF" unicode="&#x67cf;" d="M41 507 L42 -113 L89 -114 Q148 -107 150 -34 L150 386 Q162 533 41 507 ZM357 224 Q357 294 373.5 343.5 Q390 393 413 393 Q435 393 451.5 343.5 Q468 294 468 224 Q468 155 451.5 105.5 Q435 56 413 56 Q390 56 373.5 105.5 Q357 155 357 224 ZM735 210 Q820 210 821 148 L822 -34 L665 -34 L665 210 L735 210 ZM665 340 L665 568 L735 568 Q820 568 820 502 L820 340 L665 340 ZM457 700 L333 700 L333 778 L181 778 L181 700 L40 700 L40 570 L103 571 Q181 566 181 468 L181 -166 L333 -166 L333 570 L450 570 L451 443 L511 476 L511 -164 L984 -164 L984 572 Q987 698 837 698 L717 698 L746 776 L576 776 Q532 677 458 623 L457 700 Z" /><glyph glyph-name="uni767E" unicode="&#x767e;" d="M984 778 L40 778 L40 646 L436 646 L398 546 L220 546 Q78 548 76 402 L76 -166 L952 -166 L952 400 Q950 548 808 546 L580 546 L616 646 L984 646 L984 778 ZM684 124 Q788 124 788 46 L788 -34 L238 -34 L238 124 L684 124 ZM238 256 L238 414 L682 414 Q788 414 788 334 L788 256 L238 256 Z" /><glyph glyph-name="uni4F70" unicode="&#x4f70;" d="M984 769 L344 769 L344 628 L573 628 L547 540 L466 540 Q351 541 350 416 L350 -166 L971 -166 L970 421 Q970 541 848 540 L717 540 L742 628 L984 628 L984 769 ZM741 112 Q816 112 816 54 L816 -25 L504 -25 L504 112 L741 112 ZM504 262 L504 399 L740 399 Q816 398 816 331 L816 262 L504 262 ZM319 778 L168 778 Q132 588 40 526 L41 334 L102 358 L102 -166 L157 -166 Q266 -166 266 -78 L266 415 L166 416 Q282 536 319 778 Z" /><glyph glyph-name="uni8D25" unicode="&#x8d25;" d="M503 57 L503 644 Q504 762 379 762 L190 762 Q50 763 50 632 L50 57 L171 57 L171 632 L318 632 Q382 632 382 570 L382 69 L347 69 L349 72 L349 555 L200 555 L200 112 Q147 6 41 -21 L40 -166 Q172 -153 301 -24 L374 -166 L530 -166 L422 57 L503 57 ZM527 463 L633 462 Q681 462 688 503 L701 539 L815 539 L740 328 L709 389 Q700 427 637 432 L543 432 L542 323 L578 323 Q608 320 621 282 L670 159 L538 -166 L694 -166 L761 -7 L830 -166 L984 -166 L836 154 L975 551 Q990 649 901 665 L733 665 L764 778 L616 778 L527 463 Z" /><glyph glyph-name="uni62DC" unicode="&#x62dc;" d="M48 776 L48 636 L104 636 Q182 636 182 558 L182 510 L44 510 L44 380 L90 380 Q184 380 182 316 L182 254 L40 254 L40 122 L174 122 Q154 44 60 -8 L62 -166 Q278 -108 336 122 L474 122 L474 254 L336 254 L336 380 L474 380 L474 510 L336 510 L336 636 L404 636 Q465 643 474 705 L474 776 L48 776 ZM678 144 L496 144 L496 12 L572 12 Q678 12 678 -62 L678 -154 L830 -154 L830 12 L984 12 L984 144 L830 144 L830 222 L984 222 L984 354 L830 354 L830 436 L984 436 L984 568 L830 568 L830 648 L976 648 L976 778 L504 778 L504 648 L576 648 Q678 648 678 588 L678 568 L496 568 L496 436 L582 436 Q678 436 678 376 L678 354 L496 354 L496 222 L582 222 Q678 222 678 164 L678 144 Z" /><glyph glyph-name="uni822C" unicode="&#x822c;" d="M926 585 L926 666 Q927 769 826 769 L645 769 Q542 769 545 665 L528 431 L672 431 L685 639 L742 639 Q783 639 783 600 L783 522 Q783 431 877 431 L958 431 L958 561 L945 561 Q926 561 926 585 ZM536 402 L536 264 L814 264 L780 166 L737 195 Q624 251 547 149 Q495 34 538 -72 Q572 -134 615 -149 Q658 -164 733 -142 L792 -92 L834 -155 L984 -155 L876 45 L966 269 Q991 375 900 402 L536 402 ZM636 29 Q636 48 643 61 Q650 74 670 74 Q702 67 725 30 Q702 -6 670 -17 Q650 -17 643 -4 Q636 9 636 29 ZM343 352 L221 352 L222 600 L267 600 Q343 600 343 531 L343 352 ZM240 87 Q240 115 252 135.5 Q264 156 280 156 Q297 156 309 135.5 Q321 115 321 87 Q321 58 309 37 Q297 16 280 16 Q264 16 252 37 Q240 58 240 87 ZM241 465 Q241 493 253.5 514 Q266 535 282 535 Q298 535 310.5 514 Q323 493 323 465 Q323 436 310.5 415.5 Q298 395 282 395 Q266 395 253.5 415.5 Q241 436 241 465 ZM489 -78 L489 612 Q488 731 360 731 L286 731 L302 778 L145 778 Q105 706 41 661 L41 502 L78 523 L78 352 L40 352 L40 210 L78 210 L78 -164 L222 -164 L221 210 L271 210 Q343 210 343 126 L343 -165 L411 -166 Q486 -164 489 -78 Z" /><glyph glyph-name="uni9881" unicode="&#x9881;" d="M83 624 L40 434 L189 434 L229 624 L83 624 ZM68 407 L68 262 L111 262 L57 -163 L206 -163 L255 261 L294 262 Q326 259 329 224 L329 -28 L265 -30 L264 -159 L381 -159 Q468 -159 468 -61 L468 281 Q468 396 356 407 L68 407 ZM500 29 L618 29 L618 446 L799 446 Q854 446 854 397 L854 39 L817 39 L820 41 L820 395 L657 395 L657 82 L644 50 Q605 -3 506 -24 L506 -165 Q673 -154 748 -44 L826 -166 L984 -164 L866 31 L970 31 L970 467 Q972 576 882 576 L790 576 L810 651 L967 651 L967 774 L494 774 L494 651 L657 651 L637 576 L592 576 Q502 576 502 482 L443 701 Q423 778 356 778 L93 778 L93 655 L308 655 L362 434 L501 434 L500 29 Z" /><glyph glyph-name="uni677F" unicode="&#x677f;" d="M809 411 L771 301 L753 343 Q743 371 705 369 L606 369 L606 411 L809 411 ZM462 637 L462 -158 L518 -158 Q600 -160 606 -91 L606 277 L631 276 L700 113 L595 -162 L698 -162 Q743 -163 754 -131 L788 -44 L834 -162 L984 -162 L863 122 L962 409 Q988 521 888 540 L612 540 L612 628 L876 628 Q954 627 954 704 L954 765 L581 765 Q461 762 462 637 ZM438 566 L438 695 L318 695 L318 773 L172 773 L172 695 L36 695 L36 566 L85 566 Q172 562 172 454 L172 -168 L318 -168 L318 566 L438 566 ZM42 499 L42 -123 L91 -123 Q142 -109 140 -50 L140 389 Q143 490 83 498 L42 499 ZM348 242 Q348 325 360.5 385 Q373 445 391 445 Q408 445 420.5 385 Q433 325 433 242 Q433 157 420.5 97 Q408 37 391 37 Q373 37 360.5 97 Q348 157 348 242 Z" /><glyph glyph-name="uni7248" unicode="&#x7248;" d="M236 688 Q236 722 261 746 Q286 770 320 770 Q354 770 379 746 Q404 722 404 688 Q404 652 379 627 Q354 602 320 602 Q286 602 261 627 Q236 652 236 688 ZM48 778 L191 778 L191 546 L437 546 L437 404 L191 404 L191 324 L323 324 Q410 324 414 210 L414 -162 L266 -162 L266 186 L191 186 L191 -80 Q191 -166 105 -166 L48 -166 L48 778 ZM811 416 L773 304 L756 346 Q737 379 687 374 L610 374 L610 416 L811 416 ZM468 648 L468 -162 L523 -162 Q604 -164 610 -94 L610 280 L635 280 L703 114 L599 -166 L701 -166 Q745 -168 757 -136 L790 -46 L836 -166 L984 -166 L864 122 L962 414 Q988 528 889 548 L615 548 L615 638 L877 638 Q954 636 954 714 L954 776 L573 776 Q467 774 468 648 Z" /><glyph glyph-name="uni534A" unicode="&#x534a;" d="M411 137 L40 137 L40 9 L326 9 Q411 9 411 -77 L411 -161 L579 -161 L579 9 L900 9 Q969 9 969 83 L969 137 L579 137 L579 245 L947 245 L947 383 L579 383 L579 579 Q763 620 763 546 L740 419 L903 419 L933 613 Q937 663 870 695 Q749 734 579 681 L579 766 L413 768 L413 611 L296 558 Q268 548 258 581 L220 707 L57 708 L113 487 Q145 412 249 423 L411 492 L411 383 L67 383 L67 245 L327 245 Q411 245 411 169 L411 137 Z" /><glyph glyph-name="uni529E" unicode="&#x529e;" d="M836 -45 L969 -46 L960 628 L824 627 L836 -45 ZM797 -42 L797 560 Q798 684 669 684 L561 684 L585 778 L406 778 L382 684 L54 684 L54 529 L343 529 L174 -164 L351 -164 L521 529 L580 529 Q629 529 629 484 L629 -11 Q629 -35 605 -35 L532 -35 L533 -166 L700 -166 Q796 -166 797 -42 ZM179 -51 L203 450 L57 450 L30 -51 L179 -51 Z" /><glyph glyph-name="uni5E2E" unicode="&#x5e2e;" d="M374 318 L544 318 L544 432 L374 432 L374 480 L528 480 L528 576 L374 576 L374 628 L540 628 L540 742 L374 742 L374 778 L208 778 L208 742 L52 742 L52 628 L150 628 Q208 628 208 576 L56 576 L56 480 L152 480 Q208 480 208 432 L40 432 L40 318 L144 318 Q208 318 208 254 L208 200 L374 200 L374 318 ZM588 776 L588 258 L446 258 L446 178 L192 178 Q62 178 72 58 L72 -136 L226 -136 L226 54 L368 54 Q446 54 446 -20 L446 -166 L610 -166 L610 54 L746 54 Q820 54 820 -12 L820 -142 L910 -142 Q984 -142 984 -82 L984 60 Q984 166 860 178 L610 178 L610 216 L736 216 L736 654 L824 654 L824 368 L776 368 L776 246 L870 246 Q978 246 984 324 L984 514 L870 514 Q984 536 984 610 L984 678 Q982 772 886 776 L588 776 Z" /><glyph glyph-name="uni5305" unicode="&#x5305;" d="M47 667 Q61 563 172 568 L744 568 Q794 568 794 507 L794 61 L886 62 Q957 63 955 151 L955 578 Q952 729 792 729 L240 729 L240 778 L47 778 L47 667 ZM49 372 Q52 507 183 507 L596 507 Q719 507 719 373 L719 63 L219 63 L219 -17 L977 -17 L977 -80 Q977 -166 861 -166 L195 -166 Q49 -166 49 -31 L49 372 ZM545 220 L545 291 Q545 349 483 349 L211 349 L211 220 L545 220 Z" /><glyph glyph-name="uni4FDD" unicode="&#x4fdd;" d="M707 640 Q772 642 776 585 L776 530 L515 530 L515 640 L707 640 ZM359 164 L338 -153 L491 -153 L509 164 L359 164 ZM724 209 L981 209 L981 346 L724 346 L724 403 L948 403 L948 640 Q946 767 814 767 L482 767 Q352 767 353 637 L353 403 L467 403 Q562 403 562 355 L562 346 L313 346 L313 209 L466 209 Q562 209 562 125 L562 -166 L724 -167 L724 73 L752 74 Q786 73 792 38 L815 -154 L961 -153 L929 108 Q912 168 851 168 L724 168 L724 209 ZM329 778 L169 778 Q126 617 42 534 L41 336 L104 358 L104 -166 L185 -166 Q266 -166 266 -78 L266 417 L167 416 Q279 561 329 778 Z" /><glyph glyph-name="uni62B1" unicode="&#x62b1;" d="M398 673 Q408 570 522 575 L780 575 Q838 575 838 520 L838 42 L904 42 Q972 41 974 130 L974 589 Q972 716 840 716 L556 716 L556 767 L398 767 L398 673 ZM400 419 Q402 525 514 525 L684 525 Q794 525 794 424 L794 76 L536 76 L536 -27 L984 -27 L984 -74 Q982 -158 894 -161 L514 -161 Q398 -161 400 -54 L400 419 ZM658 226 L658 331 Q658 380 612 380 L540 380 L540 226 L658 226 ZM302 -69 L302 240 L366 262 L366 415 L302 394 L302 551 L366 551 L366 681 L302 681 L302 778 L148 778 L148 681 L44 681 L44 551 L82 551 Q152 547 148 474 L148 345 L40 315 L40 162 L148 191 L148 -18 Q148 -47 112 -48 L72 -48 L72 -166 L204 -166 Q246 -166 276 -133 Q300 -103 302 -69 Z" /><glyph glyph-name="uni62A5" unicode="&#x62a5;" d="M302 -69 L302 240 L366 262 L366 415 L302 394 L302 551 L366 551 L366 681 L302 681 L302 778 L148 778 L148 681 L44 681 L44 551 L82 551 Q152 547 148 474 L148 345 L40 315 L40 162 L148 191 L148 -18 Q148 -47 112 -48 L72 -48 L72 -166 L204 -166 Q246 -166 276 -133 Q300 -103 302 -69 ZM398 626 L398 -166 L654 -166 Q690 -166 720 -144 L754 -75 L814 -166 L984 -166 L840 66 L974 331 Q992 434 910 446 L554 446 L554 622 L752 622 Q790 622 790 585 L790 481 L878 481 Q952 481 952 542 L952 643 Q952 758 830 758 L532 758 Q402 758 398 626 ZM796 316 L748 213 L732 237 Q714 266 686 266 L554 266 L554 316 L796 316 ZM670 70 L554 -143 L554 180 Q588 193 614 154 L670 70 Z" /><glyph glyph-name="uni676F" unicode="&#x676f;" d="M935 450 Q915 517 843 529 L663 529 L679 626 L981 626 L981 755 L469 755 L469 626 L538 626 L445 -32 L591 -31 L645 398 L645 -166 L789 -166 L788 412 L815 411 L858 -40 L984 -40 L935 450 ZM442 571 L442 702 L330 702 L330 780 L181 780 L181 702 L42 702 L42 571 L92 571 Q181 568 181 460 L181 -166 L330 -166 L330 571 L442 571 ZM48 505 L48 -121 L98 -121 Q150 -107 148 -47 L148 394 Q151 495 90 504 L48 505 ZM360 246 Q360 329 373 389.5 Q386 450 404 450 Q421 450 434 389.5 Q447 329 447 246 Q447 160 434 100.5 Q421 41 404 41 Q386 41 373 100.5 Q360 160 360 246 Z" /><glyph glyph-name="uni60B2" unicode="&#x60b2;" d="M311 389 L40 389 L40 274 L235 274 Q311 274 311 212 L476 212 L476 778 L311 778 L311 723 L40 723 L40 615 L233 615 Q311 615 311 552 L48 552 L48 445 L237 445 Q311 445 311 389 ZM714 270 L984 270 L984 385 L714 385 L714 445 L976 445 L976 552 L714 552 L714 615 L984 615 L984 723 L714 723 L714 778 L549 778 L549 212 L714 212 L714 270 ZM47 178 L48 -163 L129 -164 Q203 -160 200 -79 L201 178 L47 178 ZM238 181 L238 -69 Q238 -164 338 -166 L896 -166 Q984 -166 984 -83 L984 -38 L427 -38 Q400 -38 400 -12 L400 181 L238 181 ZM606 185 L428 185 L467 44 Q488 -8 541 -10 L643 -11 Q707 -9 739 32 L803 100 L802 -11 L971 -13 L973 109 Q970 188 908 188 L857 188 Q777 190 752 153 Q671 48 639 83 L606 185 Z" /><glyph glyph-name="uni5317" unicode="&#x5317;" d="M261 548 L40 548 L40 388 L163 388 Q261 388 261 291 L261 11 Q261 -5 254 -14 Q245 -24 225 -25 L60 -25 L60 -166 L311 -166 Q437 -166 434 -29 L434 778 L261 778 L261 548 ZM764 395 L980 395 L980 556 L764 556 L764 778 L589 778 L590 -32 Q590 -166 721 -166 L919 -166 Q984 -168 984 -106 L984 -25 L788 -25 Q764 -25 764 -1 L764 395 Z" /><glyph glyph-name="uni8F88" unicode="&#x8f88;" d="M712 407 L984 407 L984 506 L712 506 L712 538 L968 538 L968 623 L712 623 L712 655 L980 655 L980 754 L712 754 L712 779 L550 779 L550 368 L712 368 L712 407 ZM462 -1 L40 -1 L40 -116 L408 -116 Q462 -116 462 -167 L624 -167 L624 -116 L894 -116 Q984 -116 984 -39 L984 -1 L624 -1 L624 31 L938 31 L938 146 L624 146 L624 198 L462 198 L462 146 L282 146 L336 225 L976 225 L976 340 L416 340 L436 368 L480 368 L480 779 L318 779 L318 754 L52 754 L52 655 L254 655 Q318 655 318 623 L64 623 L64 538 L258 538 Q318 538 318 506 L44 506 L44 407 L268 407 Q318 407 318 383 L256 383 L222 340 L52 340 L52 225 L138 225 L94 163 Q56 34 184 31 L398 31 Q462 31 462 5 L462 -1 Z" /><glyph glyph-name="uni80CC" unicode="&#x80cc;" d="M306 728 L48 728 L48 612 L256 612 Q306 612 306 574 Q306 562 298 552 Q292 542 274 542 L40 542 L42 434 L378 434 Q474 436 472 526 L472 778 L306 778 L306 728 ZM652 428 L926 428 Q984 428 984 488 L984 534 L744 534 Q720 534 720 558 L720 608 L984 608 L984 724 L720 724 L720 778 L554 778 L554 522 Q554 428 652 428 ZM828 388 L214 388 Q82 390 82 254 L82 -166 L246 -166 L246 -36 L712 -36 Q784 -40 780 -98 L780 -166 L882 -166 Q956 -166 956 -94 L956 256 Q956 388 828 388 ZM712 122 Q784 122 784 84 L784 66 L246 66 L246 122 L712 122 ZM712 274 Q784 274 784 240 L784 224 L246 224 L246 274 L712 274 Z" /><glyph glyph-name="uni8D1D" unicode="&#x8d1d;" d="M776 775 L220 775 Q71 774 71 638 L71 56 L257 56 L257 623 L661 623 Q748 623 748 526 L748 91 L581 91 L592 146 L592 560 L396 560 L395 150 Q294 16 54 -6 L54 -169 Q332 -158 509 0 L569 1 Q629 -2 648 -35 L756 -166 L988 -166 L821 52 L862 52 Q938 53 934 133 L934 636 Q930 775 776 775 Z" /><glyph glyph-name="uni500D" unicode="&#x500d;" d="M318 770 L168 770 Q126 586 42 535 L40 330 L104 354 L104 -166 L158 -166 Q266 -166 266 -78 L266 412 L166 411 Q272 552 318 770 ZM744 778 L578 778 L578 723 L342 723 L342 593 L976 593 L976 723 L744 723 L744 778 ZM944 555 L782 555 Q718 419 652 419 Q586 419 534 555 L370 555 L424 419 L330 419 L330 289 L984 289 L984 419 L880 419 L944 555 ZM968 101 Q968 230 840 230 L484 230 Q346 230 346 105 L346 -166 L970 -166 L968 101 ZM736 100 Q802 100 802 38 L802 -36 L514 -36 L514 100 L736 100 Z" /><glyph glyph-name="uni5907" unicode="&#x5907;" d="M816 238 L206 238 Q68 238 68 124 L68 -166 L954 -164 L954 130 Q954 238 816 238 ZM370 -14 Q432 -14 432 -46 L432 -56 L232 -56 L232 -14 L370 -14 ZM232 84 L232 128 L372 128 Q432 128 432 96 L432 84 L232 84 ZM738 -14 Q790 -14 790 -46 L790 -56 L594 -56 L594 -14 L738 -14 ZM594 84 L594 128 L734 128 Q790 128 790 96 L790 84 L594 84 ZM201 423 Q201 434 230 443.5 Q259 453 289 453 Q329 453 357 443.5 Q385 434 428 420 Q385 402 357 395.5 Q329 389 289 389 Q259 389 230 398.5 Q201 408 201 423 ZM176 760 Q120 705 52 688 L51 537 Q163 574 214 615 L715 615 L587 515 L427 559 Q321 578 215 565 Q116 551 81 503 Q1 407 87 311 Q153 269 228 265 Q325 256 425 280 L572 339 L644 306 Q698 283 825 269 L969 269 L969 408 L855 408 Q791 414 730 436 L947 606 Q979 705 893 734 L318 734 L333 760 L176 760 Z" /><glyph glyph-name="uni88AB" unicode="&#x88ab;" d="M572 592 L588 592 Q634 595 634 546 L634 439 L572 439 L572 592 ZM632 779 L632 726 L546 726 Q422 726 426 601 L426 -167 L502 -167 Q564 -167 568 -106 L568 215 L606 215 Q624 213 638 193 L696 82 L558 -167 L664 -167 Q706 -169 724 -142 L774 -52 L832 -163 L984 -163 L862 91 L970 301 Q986 414 896 430 L778 430 L778 590 L804 590 Q836 589 834 543 L834 478 L966 478 L966 612 Q966 719 868 723 L778 723 L778 779 L632 779 ZM572 316 L824 316 L784 230 L760 267 Q744 282 708 278 L572 278 L572 316 ZM205 289 Q316 405 377 534 Q419 633 344 671 L287 672 L287 778 L143 778 L143 672 L51 672 L51 543 L208 542 Q134 413 41 365 L41 193 L119 232 L119 -166 L195 -166 Q269 -166 269 -96 L269 289 L205 289 ZM397 455 L318 392 Q259 359 281 244 L299 22 L398 23 L374 247 Q368 279 374 295 L399 308 L397 455 Z" /><glyph glyph-name="uni672C" unicode="&#x672c;" d="M325 549 L356 549 Q434 549 434 464 L434 41 L273 41 L273 -89 L325 -89 Q434 -89 434 -166 L595 -166 L595 -89 L743 -89 L743 41 L595 41 L595 549 L691 549 L815 -139 L984 -139 L853 549 L981 549 L981 688 L595 688 L595 778 L434 778 L434 688 L43 688 L43 549 L164 549 L40 -139 L207 -140 L325 549 Z" /><glyph glyph-name="uni5D29" unicode="&#x5d29;" d="M170 540 L862 540 Q975 540 979 646 L978 744 L815 744 L816 667 L601 667 L601 779 L433 779 L433 667 L211 667 L211 744 L52 744 L52 648 Q52 540 170 540 ZM983 -75 L984 379 Q983 502 864 504 L673 504 Q542 502 542 371 L542 -153 L688 -153 L687 -14 L773 -14 Q839 -11 833 -77 L833 -167 L908 -167 Q982 -164 983 -75 ZM277 184 Q341 184 341 137 L341 108 L192 108 L192 184 L277 184 ZM277 379 Q341 379 341 331 L341 303 L192 303 L192 379 L277 379 ZM491 -73 L493 371 Q491 504 373 504 L165 504 Q52 504 52 374 L52 -154 L40 -150 L194 -150 L195 -11 L282 -11 Q348 -14 343 -72 L343 -162 L422 -161 Q490 -161 491 -73 ZM774 184 Q839 184 839 137 L839 108 L690 108 L690 184 L774 184 ZM774 379 Q839 379 839 331 L839 303 L690 303 L690 379 L774 379 Z" /><glyph glyph-name="uni903C" unicode="&#x903c;" d="M286 775 L286 659 L972 659 L972 775 L286 775 ZM863 627 L403 627 Q294 627 294 530 L294 409 L973 409 L972 532 Q965 627 863 627 ZM747 542 Q811 542 812 508 L813 494 L454 494 L454 542 L747 542 ZM837 374 L430 374 Q296 374 298 265 L298 -4 L969 -4 L969 273 Q966 374 837 374 ZM508 135 Q549 135 549 104 L549 93 L449 93 L449 135 L508 135 ZM449 236 L449 278 L508 278 Q549 278 549 246 L549 236 L449 236 ZM776 135 Q819 135 822 104 L824 93 L715 93 L715 135 L776 135 ZM715 236 L715 278 L776 278 Q819 278 819 246 L819 236 L715 236 ZM251 24 L251 437 Q250 544 154 544 L40 544 L40 413 L93 413 L93 -166 L171 -166 Q251 -166 251 -107 Q281 -157 338 -166 L891 -166 Q984 -168 984 -88 L984 -32 L294 -32 Q256 -20 251 24 ZM67 688 Q67 724 94 751 Q121 778 158 778 Q194 778 221 751 Q248 724 248 688 Q248 651 221 624 Q194 597 158 597 Q121 597 94 624 Q67 651 67 688 Z" /><glyph glyph-name="uni6BD4" unicode="&#x6bd4;" d="M40 761 L40 -44 Q40 -165 168 -166 L463 -166 L463 -37 L232 -37 Q207 -37 207 -13 L207 761 L40 761 ZM560 765 L560 -44 Q560 -165 688 -166 L895 -166 Q984 -164 984 -89 L984 -37 L752 -37 Q727 -37 727 -13 L727 438 L979 438 L979 577 L727 577 L727 765 L560 765 ZM279 496 Q279 532 307.5 559 Q336 586 376 586 Q414 586 442.5 559 Q471 532 471 496 Q471 457 442.5 430 Q414 403 376 403 Q336 403 307.5 430 Q279 457 279 496 Z" /><glyph glyph-name="uni6BD5" unicode="&#x6bd5;" d="M430 166 L40 166 L40 33 L304 33 Q430 33 430 -67 L430 -167 L595 -166 L595 33 L893 33 Q984 33 984 110 L984 166 L595 166 L595 272 Q615 262 668 261 L890 261 Q984 259 984 335 L984 393 L741 393 Q717 393 717 418 L717 547 L968 547 L968 679 L717 679 L717 779 L552 779 L552 377 Q552 313 573 288 L492 288 L492 393 L249 393 Q225 393 225 418 L225 779 L61 779 L61 377 Q61 262 177 261 L430 261 L430 166 ZM297 598 Q297 632 322 657 Q347 682 382 682 Q417 682 442 657 Q467 632 467 598 Q467 563 442 538 Q417 513 382 513 Q347 513 322 538 Q297 563 297 598 Z" /><glyph glyph-name="uni5FC5" unicode="&#x5fc5;" d="M61 722 L61 94 L122 92 Q223 92 217 200 L217 722 L61 722 ZM314 746 L314 101 Q190 31 43 2 L45 -154 Q217 -131 330 -76 Q346 -164 435 -164 L870 -164 Q951 -164 955 -78 L955 -19 L513 -19 Q471 -19 487 7 Q631 90 715 196 L799 56 L965 56 L830 347 Q919 524 961 732 L801 734 Q731 372 471 186 L471 746 L314 746 ZM523 613 Q523 652 552 679.5 Q581 707 621 707 Q660 707 688.5 679.5 Q717 652 717 613 Q717 573 688.5 545 Q660 517 621 517 Q581 517 552 545 Q523 573 523 613 Z" /><glyph glyph-name="uni907F" unicode="&#x907f;" d="M881 779 L755 779 L755 722 L640 722 L640 588 L983 588 L983 722 L881 722 L881 779 ZM767 245 L640 245 L640 106 L719 106 Q767 106 767 55 L767 -12 L881 -12 L881 106 L984 106 L984 245 L881 245 L881 289 L983 289 L983 429 L934 429 L969 565 L867 565 Q810 366 753 567 L647 565 L689 427 L640 429 L640 289 L722 289 Q767 289 767 257 L767 245 ZM384 399 L384 431 L624 431 L624 667 Q623 775 532 775 L363 775 Q268 769 268 669 L268 -20 L314 -19 Q376 -19 383 30 L384 399 ZM463 644 Q510 641 513 605 L512 558 L384 558 L384 644 L463 644 ZM402 -6 L402 325 Q401 403 473 403 L549 403 Q617 403 620 333 L619 -6 L402 -6 ZM487 100 L532 100 L532 237 Q532 273 511 277 L487 277 L487 100 ZM231 21 L231 431 Q230 537 154 537 L40 537 L40 407 L93 407 L93 -167 L151 -167 Q231 -167 231 -108 Q280 -158 338 -167 L890 -167 Q982 -168 982 -89 L982 -34 L293 -34 Q237 -22 231 21 ZM58 687 Q58 719 82.5 744 Q107 769 141 769 Q174 769 199 744 Q224 719 224 687 Q224 653 199 628 Q174 603 141 603 Q107 603 82.5 628 Q58 653 58 687 Z" /><glyph glyph-name="uni8FB9" unicode="&#x8fb9;" d="M949 110 L949 550 Q950 675 815 675 L625 675 L639 779 L475 779 L462 675 L297 675 L297 544 L441 544 Q404 354 316 233 L316 12 Q529 167 600 544 L728 544 Q786 544 786 488 L786 195 Q786 147 743 147 L700 147 L700 13 L855 14 Q948 16 949 110 ZM251 21 L251 431 Q250 537 154 537 L40 537 L40 407 L93 407 L93 -167 L171 -167 Q251 -167 251 -108 Q281 -158 338 -167 L891 -167 Q984 -168 984 -89 L984 -34 L294 -34 Q256 -22 251 21 ZM67 680 Q67 716 94 742.5 Q121 769 158 769 Q194 769 221 742.5 Q248 716 248 680 Q248 643 221 616.5 Q194 590 158 590 Q121 590 94 616.5 Q67 643 67 680 Z" /><glyph glyph-name="uni7F16" unicode="&#x7f16;" d="M262 -152 Q334 -152 334 -74 L334 -16 L50 -16 L50 -152 L262 -152 ZM208 168 L326 420 L326 536 L202 536 L328 778 L172 778 L54 556 Q10 424 116 404 L158 404 L50 168 Q28 44 124 38 L322 38 L322 168 L208 168 ZM850 204 L866 204 Q884 204 884 168 L884 114 L850 114 L850 204 ZM768 114 L732 114 L732 204 L750 204 Q768 204 768 168 L768 114 ZM652 114 L618 114 L618 204 L636 204 Q652 204 652 168 L652 114 ZM350 650 L350 -164 L404 -164 Q496 -168 490 -88 L490 364 L980 364 L980 486 Q978 598 862 598 L490 598 L490 644 L907 644 Q974 644 974 730 L974 768 L476 768 Q356 768 350 650 ZM812 496 Q844 496 844 470 L844 464 L490 464 L490 496 L812 496 ZM984 -107 L984 220 Q984 328 874 328 L630 328 Q518 326 518 216 L518 -162 L618 -162 L618 -2 L626 -2 Q652 -2 652 -38 L652 -150 L732 -150 L732 -2 L740 -2 Q768 -2 768 -38 L768 -150 L850 -150 L850 -2 L856 -2 Q884 -2 884 -42 Q884 -66 884 -166 L927 -166 Q984 -166 984 -107 Z" /><glyph glyph-name="uni4FBF" unicode="&#x4fbf;" d="M984 770 L308 770 L308 654 L511 654 Q568 654 568 620 L568 602 L419 602 Q321 602 321 494 L321 188 L566 188 L565 134 L321 136 L321 16 L517 16 Q483 -26 386 -30 L332 -30 L332 -166 Q611 -180 709 -14 Q786 -50 833 -166 L984 -166 Q940 78 740 126 L740 188 L967 188 L968 500 Q968 602 877 602 L739 602 L739 654 L984 654 L984 770 ZM568 296 L482 296 L482 352 L527 352 Q568 352 568 318 L568 296 ZM739 352 L769 352 Q808 352 808 320 L808 296 L739 296 L739 352 ZM568 444 L482 444 L482 494 L527 494 Q568 494 568 464 L568 444 ZM739 494 L769 494 Q808 494 808 464 L808 444 L739 444 L739 494 ZM302 778 L152 778 Q109 596 40 542 L41 328 L99 358 L99 -166 L179 -166 Q253 -166 253 -96 L253 418 L159 416 Q258 558 302 778 Z" /><glyph glyph-name="uni53D8" unicode="&#x53d8;" d="M753 302 L907 302 L937 488 Q920 548 857 548 L703 518 L703 584 L978 584 L978 714 L590 714 L590 778 L429 778 L429 714 L40 714 L40 584 L242 584 Q313 584 314 532 L314 460 L247 428 Q220 418 207 438 L191 546 L48 546 L80 354 Q91 300 164 298 Q257 310 312 348 L314 294 L474 294 L474 584 L492 584 Q541 584 541 526 L541 294 L696 294 L695 410 L742 422 Q767 430 779 414 L753 302 ZM52 270 L53 146 L732 148 L638 52 L485 100 Q266 158 106 80 Q-11 -18 87 -120 Q172 -164 251.5 -166 Q331 -168 471 -158 L642 -114 L739 -166 L984 -166 L767 -28 L941 140 Q1005 246 884 270 L52 270 ZM192 -22 Q192 -6 231 4 Q270 14 321 14 Q411 8 495 -28 Q416 -54 331 -58 Q270 -58 231 -48 Q192 -38 192 -22 Z" /><glyph glyph-name="uni8FA8" unicode="&#x8fa8;" d="M284 778 L122 778 L122 728 L40 728 L40 598 L361 598 L361 728 L284 728 L284 778 ZM357 42 L357 172 L274 172 L274 290 L369 290 L369 420 L330 420 L357 558 L242 558 Q222 412 77 420 L40 420 L40 290 L90 290 Q132 290 132 232 L132 172 L52 172 L52 42 L76 42 Q122 42 123 -4 L104 -160 L254 -160 L274 42 L357 42 ZM914 778 L753 778 L753 728 L678 728 L678 598 L980 598 L980 728 L914 728 L914 778 ZM980 34 L980 164 L910 164 L910 290 L984 290 L984 420 L957 420 L972 558 L857 558 Q834 334 794 558 L679 558 L706 420 L678 420 L678 290 L713 290 Q768 290 768 228 L768 164 L686 164 L686 34 L717 34 Q768 34 768 -26 L768 -166 L910 -166 L910 34 L980 34 ZM525 778 L523 -166 Q639 -174 649 -116 L649 778 L525 778 ZM389 778 L389 -160 L489 -160 L489 778 L389 778 ZM52 510 Q52 538 71 557 Q90 576 118 576 Q145 576 164.5 557 Q184 538 184 510 Q184 482 164.5 463 Q145 444 118 444 Q90 444 71 463 Q52 482 52 510 Z" /><glyph glyph-name="uni8FA9" unicode="&#x8fa9;" d="M302 778 L141 778 L141 717 L40 717 L40 597 L391 597 L391 717 L302 717 L302 778 ZM892 778 L731 778 L731 717 L630 717 L630 597 L980 597 L980 717 L892 717 L892 778 ZM976 38 L976 168 L878 168 L878 289 L984 289 L984 419 L945 419 L980 558 L844 558 Q805 355 762 558 L627 558 L666 419 L630 419 L630 289 L678 289 Q736 289 736 229 L736 168 L637 168 L637 38 L682 38 Q736 38 736 -25 L736 -166 L878 -166 L878 38 L976 38 ZM589 449 Q590 523 514 523 L391 523 L391 419 L354 419 L381 558 L255 558 Q216 351 181 558 L54 558 L80 419 L40 419 L40 289 L90 289 Q151 289 151 231 L151 172 L52 172 L52 42 L96 42 Q151 42 142 -10 L112 -166 L262 -164 L292 42 L391 42 L391 172 L292 172 L292 289 L398 289 L398 385 L447 385 L447 -68 Q447 -161 532 -162 L653 -162 L653 -32 L623 -32 Q589 -32 589 -8 L589 449 ZM425 668 Q425 702 449.5 726.5 Q474 751 509 751 Q543 751 567.5 726.5 Q592 702 592 668 Q592 634 567.5 609 Q543 584 509 584 Q474 584 449.5 609 Q425 634 425 668 Z" /><glyph glyph-name="uni904D" unicode="&#x904d;" d="M279 641 L279 10 Q412 0 415 89 L415 420 L968 420 L967 542 Q968 632 863 632 L415 632 L415 670 L883 670 Q966 670 966 776 L400 776 Q279 777 279 641 ZM792 542 Q836 542 836 510 L415 510 L415 542 L792 542 ZM849 0 L896 0 Q970 0 971 79 L971 285 Q972 387 862 387 L544 387 Q446 386 446 277 L446 3 L569 3 L569 119 L588 119 Q610 119 610 94 L610 3 L689 3 L689 119 L709 119 Q728 119 728 94 L728 3 L808 3 L808 119 L829 119 Q849 119 849 100 L849 0 ZM808 291 L829 291 Q849 291 849 266 L849 222 L808 222 L808 291 ZM728 222 L689 222 L689 291 L709 291 Q728 291 728 266 L728 222 ZM610 222 L569 222 L569 291 L588 291 Q610 291 610 266 L610 222 ZM241 24 L241 437 Q240 544 154 544 L40 544 L40 413 L93 413 L93 -166 L171 -166 Q241 -166 241 -107 Q259 -155 338 -166 L891 -166 Q984 -168 984 -78 L984 -32 L294 -32 Q247 -20 241 24 ZM67 688 Q67 724 94 751 Q121 778 158 778 Q194 778 221 751 Q248 724 248 688 Q248 651 221 624 Q194 597 158 597 Q121 597 94 624 Q67 651 67 688 Z" /><glyph glyph-name="uni6807" unicode="&#x6807;" d="M480 754 L480 624 L940 624 L940 754 L480 754 ZM598 324 L582 -148 L439 -148 L461 324 L598 324 ZM817 323 L836 -145 L979 -145 L961 268 Q948 324 897 324 L817 323 ZM975 512 L453 512 L453 382 L548 382 Q625 382 627 302 L628 -160 L784 -160 L783 382 L975 382 L975 512 ZM452 571 L452 702 L328 702 L328 780 L177 780 L177 702 L36 702 L36 571 L97 571 Q177 568 177 470 L177 -166 L328 -166 L328 571 L452 571 ZM42 505 L42 -121 L93 -121 Q146 -107 144 -47 L144 394 Q147 495 85 504 L42 505 ZM351 246 Q351 329 364 389.5 Q377 450 395 450 Q413 450 426 389.5 Q439 329 439 246 Q439 160 426 100.5 Q413 41 395 41 Q377 41 364 100.5 Q351 160 351 246 Z" /><glyph glyph-name="uni8868" unicode="&#x8868;" d="M435 254 L981 254 L981 376 L608 376 L608 435 L981 435 L981 550 L608 550 L608 608 L979 608 L979 723 L608 723 L608 778 L430 778 L430 723 L60 723 L60 608 L359 608 Q430 608 430 570 L430 550 L60 550 L60 435 L359 435 Q430 435 430 397 L430 376 L54 376 L54 254 L197 254 Q121 198 41 180 L42 9 Q104 24 161 56 L161 -72 Q161 -165 255 -166 L486 -166 L486 -34 L354 -34 Q331 -34 331 -10 L332 140 Q377 175 435 254 ZM931 182 L609 182 Q495 162 538 57 L752 -154 L984 -154 L772 47 L935 47 L935 179 L931 182 Z" /><glyph glyph-name="uni522B" unicode="&#x522b;" d="M544 -70 L544 208 Q540 319 446 319 L312 319 L321 379 L544 379 L544 667 Q544 774 432 774 L170 774 Q52 774 52 670 L52 379 L154 379 L146 319 L40 319 L40 186 L122 186 L58 -161 L220 -162 L286 186 L380 186 L380 -10 Q380 -34 354 -34 L310 -34 L310 -167 L446 -167 Q544 -167 544 -70 ZM334 651 Q390 651 388 600 L388 501 L206 501 L206 651 L334 651 ZM598 764 L598 -142 L752 -142 L752 764 L598 764 ZM816 779 L816 -163 L886 -163 Q970 -155 974 -69 L974 779 L816 779 Z" /><glyph glyph-name="uni5F6C" unicode="&#x5f6c;" d="M746 608 L746 704 L635 704 L635 778 L508 778 L508 704 L412 704 L412 575 L451 575 Q508 575 508 495 L508 -162 L639 -162 L635 575 L744 575 L746 608 ZM726 517 L665 517 L665 -82 L728 -82 L726 517 ZM373 577 L373 703 L275 703 L275 774 L155 774 L155 703 L42 703 L42 577 L79 577 Q155 573 155 486 L155 -166 L275 -167 L275 577 L373 577 ZM403 532 L403 -89 Q487 -99 485 -16 L485 422 Q493 523 436 533 L403 532 ZM297 249 Q297 324 309 377.5 Q321 431 336 431 Q354 431 366 377.5 Q378 324 378 249 Q378 174 366 120.5 Q354 67 336 67 Q321 67 309 120.5 Q297 174 297 249 ZM40 532 L40 -89 Q126 -101 122 -16 L122 422 Q124 523 73 533 L40 532 ZM854 476 Q821 340 754 310 L754 147 Q912 194 982 476 L854 476 ZM856 767 Q833 640 756 601 L755 448 Q910 485 984 767 L856 767 ZM854 163 Q825 19 749 -11 L749 -159 Q899 -135 979 163 L854 163 Z" /><glyph glyph-name="uni658C" unicode="&#x658c;" d="M744 458 L841 -166 L970 -162 L876 458 L918 458 Q984 458 984 530 L983 691 L879 691 L882 588 L860 588 L837 778 L713 778 L731 588 L421 588 L421 698 L296 698 L296 778 L155 778 L155 698 L40 698 L40 578 L256 578 L212 380 L178 531 L49 531 L144 191 Q108 93 42 16 L42 -166 Q122 -127 198 -2 L246 -118 Q275 -166 341 -166 L702 -166 Q780 -166 780 -106 L780 -46 L699 -46 L699 181 L749 181 L749 311 L699 311 L699 420 L565 420 L565 -46 L537 -46 L537 377 L426 377 L426 -46 L388 -46 Q385 -46 383 -46 Q356 -45 350 -33 L287 171 L387 578 L418 578 L418 458 L744 458 ZM477 687 Q477 718 500 741 Q523 764 553 764 Q584 764 607 741 Q630 718 630 687 Q630 657 607 634 Q584 611 553 611 Q523 611 500 634 Q477 657 477 687 Z" /><glyph glyph-name="uni5175" unicode="&#x5175;" d="M949 528 L276 528 L276 622 L849 622 Q937 624 932 718 L930 777 L281 778 Q114 779 114 640 L114 227 L40 227 L40 87 L984 87 L984 227 L756 227 L756 388 L949 388 L949 528 ZM501 388 Q585 388 585 302 L585 227 L276 227 L276 388 L501 388 ZM150 48 L99 -72 Q93 -164 172 -164 L226 -164 Q273 -163 321 -142 L675 -36 Q712 -35 723 -61 L775 -166 L968 -166 L877 23 Q853 52 791 53 L711 53 Q670 55 629 42 L291 -49 L338 48 L150 48 Z" /><glyph glyph-name="uni51B0" unicode="&#x51b0;" d="M94 471 L40 -132 L192 -132 L248 471 L94 471 ZM555 778 L555 -165 L634 -166 Q718 -164 718 -70 L718 778 L555 778 ZM522 585 Q522 680 442 680 L280 680 L280 549 L374 549 L285 -129 L442 -129 L515 518 L522 585 ZM984 676 L839 676 Q752 676 754 583 L761 520 L821 -129 L979 -129 L904 545 L984 545 L984 676 ZM53 671 Q53 706 79 732 Q105 758 141 758 Q176 758 202 732 Q228 706 228 671 Q228 636 202 610 Q176 584 141 584 Q105 584 79 610 Q53 636 53 671 Z" /><glyph glyph-name="uni70B3" unicode="&#x70b3;" d="M971 -79 L971 476 Q971 576 871 576 L793 576 L792 631 L984 631 L984 760 L455 760 L455 631 L562 631 Q647 631 646 576 L565 576 Q458 574 458 472 L458 -158 L598 -158 L598 -1 L686 0 L723 101 L756 1 L832 1 L831 -155 L892 -156 Q970 -158 971 -79 ZM830 132 L787 259 L788 447 L830 447 L830 132 ZM598 447 L645 447 L645 259 L598 137 L598 447 ZM425 708 L425 365 Q423 298 334 298 L334 708 L425 708 ZM163 778 L296 778 L296 301 L334 301 L453 -153 L314 -153 L249 98 Q139 -121 43 -166 L42 19 Q108 90 155 247 L163 327 L163 778 ZM128 716 L128 282 Q132 168 40 160 L40 716 L128 716 Z" /><glyph glyph-name="uni5E76" unicode="&#x5e76;" d="M352 138 L585 138 Q678 138 678 46 L678 -166 L830 -166 L830 138 L984 138 L984 272 L830 272 L830 484 L968 484 L968 618 L768 618 L898 772 L700 772 Q606 653 503 650.5 Q400 648 308 772 L108 772 L232 618 L52 618 L52 484 L125 484 Q200 484 200 389 L200 272 L40 272 L40 138 L180 138 Q168 54 88 3 L86 -162 Q288 -117 352 138 ZM362 272 L362 484 L585 484 Q678 484 678 388 L678 272 L362 272 Z" /><glyph glyph-name="uni64AD" unicode="&#x64ad;" d="M299 -69 L299 240 L365 262 L365 415 L299 394 L299 551 L365 551 L365 681 L299 681 L299 778 L148 778 L148 681 L44 681 L44 551 L71 551 Q152 547 148 445 L148 345 L40 315 L40 162 L148 191 Q151 -16 141.5 -26.5 Q132 -37 104 -38 L70 -38 L70 -166 L202 -166 Q245 -166 274 -133 Q298 -103 299 -69 ZM401 771 L400 645 L535 645 Q604 646 604 580 L604 554 Q571 554 555 620 L424 620 L441 554 L389 554 L389 439 L527 439 Q604 439 604 360 L604 299 L526 299 Q560 340 579 410 L448 410 Q429 360 381 329 L382 188 L441 224 Q416 205 414 140 L414 -166 L957 -166 L956 134 Q958 184 939 212 L981 188 L980 335 Q945 364 930 410 L797 410 Q817 335 844 299 L767 299 L767 439 L984 439 L984 554 L940 554 L956 620 L827 620 Q810 554 767 554 L767 644 L895 643 Q974 644 976 707 L976 770 L401 771 ZM569 15 Q604 15 604 -17 L604 -51 L545 -51 L545 15 L569 15 ZM545 122 L545 185 L569 185 Q604 185 604 154 L604 122 L545 122 ZM791 15 Q827 15 827 -17 L827 -51 L767 -51 L767 15 L791 15 ZM767 122 L767 185 L791 185 Q827 185 827 154 L827 122 L767 122 Z" /><glyph glyph-name="uni535A" unicode="&#x535a;" d="M317 478 L317 607 L263 607 L263 778 L112 778 L112 607 L40 607 L40 478 Q112 478 112 416 L112 -166 L263 -166 L263 478 L317 478 ZM965 179 L965 471 Q967 577 871 577 L734 577 L734 611 L909 611 Q1012 632 941 761 L809 761 L822 729 L734 729 L734 766 L570 766 L570 729 L342 729 L342 611 L514 611 Q570 611 570 584 L570 577 L447 577 Q346 569 346 483 L346 179 L479 179 L479 231 L533 231 Q570 231 570 176 L734 176 L734 231 L792 231 Q832 231 832 179 L965 179 ZM570 311 L479 311 L479 346 L533 346 Q570 346 570 319 L570 311 ZM734 346 L792 346 Q832 346 832 319 L832 311 L734 311 L734 346 ZM570 426 L479 426 L479 463 L533 463 Q570 463 570 435 L570 426 ZM734 463 L792 463 Q832 463 832 435 L832 426 L734 426 L734 463 ZM767 129 L328 129 L328 11 L673 11 Q762 11 761 -83 L761 -154 L855 -154 Q929 -154 935 -91 L935 11 L984 11 L984 129 L935 129 L935 159 L767 159 L767 129 ZM537 -18 Q565 -18 587 -33 L688 -136 L512 -136 L393 -18 L537 -18 Z" /><glyph glyph-name="uni52C3" unicode="&#x52c3;" d="M204 435 L412 435 L412 385 L571 385 L571 466 Q564 550 473 550 L391 550 L391 599 L555 599 L555 725 L391 725 L391 778 L225 778 L225 725 L48 725 L48 599 L156 599 Q225 599 225 550 L147 550 Q45 549 45 442 L45 385 L204 385 L204 435 ZM502 349 L48 349 L48 235 L288 235 L225 187 L225 128 L40 128 L40 2 L225 2 L225 -27 Q225 -51 200 -51 L147 -51 L148 -166 L293 -166 Q390 -166 391 -72 L391 2 L494 2 Q575 2 575 65 L575 128 L391 128 L391 153 L525 233 Q579 302 502 349 ZM984 -72 L984 593 Q990 708 877 708 L770 708 L770 778 L618 778 L618 708 L587 708 L587 578 L618 578 L588 -160 L738 -159 L770 578 L794 578 Q837 578 837 533 L837 -12 Q837 -36 812 -36 L799 -36 L798 -166 L886 -166 Q983 -166 984 -72 Z" /><glyph glyph-name="uni640F" unicode="&#x640f;" d="M965 177 L965 450 Q967 577 875 577 L741 577 L741 610 L930 610 Q1014 617 942 761 L814 761 L827 729 L741 729 L741 766 L583 766 L583 729 L362 729 L362 610 L528 610 Q583 610 583 583 L583 577 L465 577 Q367 568 367 462 L367 177 L504 177 L504 229 L548 229 Q583 229 583 173 L741 173 L741 229 L789 229 Q827 229 827 177 L965 177 ZM583 309 L504 309 L504 345 L548 345 Q583 345 583 318 L583 309 ZM741 345 L789 345 Q827 345 827 318 L827 309 L741 309 L741 345 ZM583 424 L504 424 L504 462 L548 462 Q583 462 583 433 L583 424 ZM741 462 L789 462 Q827 462 827 433 L827 424 L741 424 L741 462 ZM774 127 L349 127 L349 8 L682 8 Q774 8 768 -87 L768 -158 L850 -158 Q931 -158 937 -95 L937 8 L984 8 L984 127 L937 127 L937 157 L774 157 L774 127 ZM279 -69 L279 240 L340 262 L340 415 L279 394 L279 551 L340 551 L340 681 L279 681 L279 778 L129 778 L129 681 L44 681 L44 551 L67 551 Q133 547 129 454 L129 345 L40 315 L40 162 L129 191 Q132 -25 123.5 -36 Q115 -47 89 -48 L68 -48 L68 -166 L189 -166 Q230 -166 256 -133 Q278 -103 279 -69 ZM538 -22 Q565 -22 586 -36 L682 -140 L514 -140 L400 -22 L538 -22 Z" /><glyph glyph-name="uni8865" unicode="&#x8865;" d="M540 778 L540 -166 L700 -167 L700 493 Q736 493 738 440 L824 -54 L984 -54 L860 549 Q856 622 766 623 L700 623 L700 778 L540 778 ZM232 289 Q361 405 431 534 Q478 619 395 671 L327 672 L327 778 L170 778 L170 672 L53 672 L53 543 L257 544 Q176 421 41 346 L41 193 L149 232 L149 -166 L220 -166 Q306 -166 306 -96 L306 289 L232 289 ZM504 445 L381 389 Q306 356 335 241 L366 0 L493 1 L453 234 Q447 266 453 282 L503 310 L504 445 Z" /><glyph glyph-name="uni4E0D" unicode="&#x4e0d;" d="M970 767 L46 767 L46 625 L230 625 L40 -27 L205 -27 L396 625 L970 625 L970 767 ZM437 548 L437 -172 L605 -172 L604 440 L629 440 Q695 440 713 376 L817 -22 L986 -22 L853 488 Q834 548 753 548 L437 548 Z" /><glyph glyph-name="uni5E03" unicode="&#x5e03;" d="M398 566 L984 566 L984 696 L454 696 L496 778 L316 778 L276 696 L40 696 L40 566 L192 566 Q146 495 40 424 L40 251 L108 281 L108 -139 L270 -139 L270 273 L374 273 Q458 273 458 199 L458 -166 L620 -166 L620 273 L724 273 Q794 273 794 200 L794 -145 L886 -145 Q956 -143 956 -68 L956 267 Q958 403 826 403 L620 403 L620 493 L458 493 L458 403 L272 403 Q346 481 398 566 Z" /><glyph glyph-name="uni6B65" unicode="&#x6b65;" d="M596 582 L964 582 L964 718 L596 718 L596 778 L434 778 L434 508 L286 508 L286 750 L128 750 L128 508 L40 508 L40 366 L324 366 Q434 366 434 244 L434 30 L596 30 L596 366 L984 366 L984 508 L596 508 L596 582 ZM118 186 Q118 228 148 259 Q178 290 222 290 Q264 290 294 259 Q324 228 324 186 Q324 142 294 111 Q264 80 222 80 Q178 80 148 111 Q118 142 118 186 ZM808 316 Q758 146 652 50 Q536 -22 348 -24 L70 -24 L70 -166 L346 -166 Q556 -164 689 -105 Q904 -2 974 316 L808 316 Z" /><glyph glyph-name="uni90E8" unicode="&#x90e8;" d="M44 581 L535 581 L535 713 L369 713 L369 778 L215 778 L215 713 L44 713 L44 581 ZM525 137 Q523 262 399 262 L185 262 Q58 262 55 145 L55 -158 L525 -158 L525 137 ZM208 131 L316 131 Q375 133 373 66 L372 -36 L208 -36 L208 131 ZM580 755 L859 755 Q984 756 984 629 L984 494 Q984 393 884 339 L984 339 L984 -7 Q982 -141 853 -132 L768 -131 L768 6 L821 6 L821 633 L734 633 L734 -162 L580 -162 L580 755 ZM40 284 L546 284 L546 410 L459 410 L510 558 L356 558 L339 493 Q313 434 285 433 Q257 432 232 477 L202 557 L69 557 L65 555 L108 410 L40 410 L40 284 Z" /><glyph glyph-name="uni6750" unicode="&#x6750;" d="M673 570 Q773 570 773 476 L773 -6 Q773 -22 766 -31 Q757 -41 737 -42 L715 -42 L714 -162 L838 -162 Q882 -162 912 -129 Q936 -100 937 -65 L937 570 L984 570 L984 700 L937 700 L937 774 L773 774 L773 700 L518 700 L518 570 L673 570 ZM543 503 L503 -110 L650 -111 L695 503 L543 503 ZM474 571 L474 702 L343 702 L343 780 L184 780 L184 702 L36 702 L36 571 L90 571 Q184 568 184 460 L184 -166 L343 -166 L343 571 L474 571 ZM42 505 L42 -121 L96 -121 Q152 -107 150 -47 L150 394 Q153 495 88 504 L42 505 ZM376 246 Q376 329 389.5 389.5 Q403 450 422 450 Q441 450 455 389.5 Q469 329 469 246 Q469 160 455 100.5 Q441 41 422 41 Q403 41 389.5 100.5 Q376 160 376 246 Z" /><glyph glyph-name="uni624D" unicode="&#x624d;" d="M794 -69 L794 528 L984 528 L984 669 L794 669 L794 779 L620 779 L620 669 L40 669 L40 528 L526 528 Q620 528 620 445 L620 0 Q620 -15 612 -25 Q604 -35 584 -36 L512 -36 L514 -167 L694 -167 Q740 -167 768 -134 Q794 -104 794 -69 ZM561 485 L386 484 Q298 250 68 71 L68 -116 Q406 64 561 485 Z" /><glyph glyph-name="uni8D22" unicode="&#x8d22;" d="M672 574 Q772 574 772 479 L772 -3 Q772 -18 765 -28 Q756 -38 736 -39 L711 -39 L712 -159 L838 -159 Q911 -156 917 -70 L917 574 L984 574 L984 704 L917 704 L917 778 L772 778 L772 704 L515 704 L515 574 L672 574 ZM572 509 L523 -128 L666 -128 L711 509 L572 509 ZM474 59 L474 651 Q475 769 357 769 L178 769 Q44 770 44 638 L44 59 L147 59 L147 638 L309 638 Q372 638 372 542 L372 71 L334 71 L336 74 L336 560 L186 560 L186 113 Q135 15 40 -16 L40 -166 Q155 -149 273 -29 L334 -166 L499 -166 L397 59 L474 59 Z" /><glyph glyph-name="uni91C7" unicode="&#x91c7;" d="M981 730 Q981 640 879 640 L42 640 L42 778 L981 778 L981 730 ZM774 598 L946 598 L895 424 Q884 390 832 388 L714 388 L774 598 ZM122 135 L60 -155 L231 -155 L291 135 L122 135 ZM115 462 Q135 390 245 384 L326 384 Q429 388 440 422 L465 464 L518 386 L713 386 L603 592 L424 594 L399 540 Q341 428 285 524 L263 592 L72 592 L115 462 ZM984 332 L602 332 L602 394 L431 394 L430 332 L44 332 L44 188 L341 188 Q431 188 434 100 L434 -166 L602 -166 L601 188 L984 188 L984 332 ZM710 139 L790 -153 L964 -153 L905 82 Q894 136 834 140 L710 139 Z" /><glyph glyph-name="uni5F69" unicode="&#x5f69;" d="M833 476 Q778 346 648 333 L649 171 Q897 200 984 476 L833 476 ZM824 775 Q763 643 642 632 L643 471 Q892 507 979 775 L824 775 ZM823 138 Q780 17 641 -15 L642 -166 Q888 -142 978 138 L823 138 ZM70 158 L49 -154 L189 -154 L205 158 L70 158 ZM406 398 L489 397 Q541 397 550 451 L571 606 L446 606 L406 398 ZM42 778 L42 648 L517 648 Q606 650 609 719 L608 778 L42 778 ZM66 477 Q76 404 142 397 L191 397 Q251 401 258 436 L265 472 L284 399 L420 400 L354 611 L221 610 L218 564 Q199 444 177 542 L164 611 L40 610 L66 477 ZM393 204 L591 204 L591 335 L393 335 L393 380 L240 380 L240 335 L40 335 L40 204 L167 204 Q240 204 240 133 L240 -162 L393 -162 L393 204 ZM427 156 L452 -154 L584 -154 L565 108 Q555 156 499 155 L427 156 Z" /><glyph glyph-name="uni83DC" unicode="&#x83dc;" d="M852 552 L856 592 L984 592 L984 728 L856 728 L856 778 L695 778 L695 728 L334 728 L334 778 L173 778 L173 728 L40 728 L40 592 L129 592 Q173 592 173 556 L334 556 L334 592 L642 592 Q695 592 695 552 L852 552 ZM974 480 Q974 423 894 423 Q660 414 61 422 L61 537 L974 538 L974 480 ZM739 397 L902 397 L869 258 Q861 216 803 213 L686 213 L739 397 ZM137 24 L79 -165 L250 -164 L304 24 L137 24 ZM147 292 Q165 237 261 231 L333 231 Q423 234 433 261 L451 294 L496 232 L674 233 L586 393 L401 394 L384 359 Q346 267 315 342 L295 395 L110 396 L147 292 ZM980 189 L593 189 L593 233 L433 233 L433 189 L52 189 L52 59 L349 59 Q428 59 433 -12 L432 -166 L599 -166 L599 59 L980 59 L980 189 ZM712 24 L773 -161 L942 -161 L891 -16 Q874 26 818 25 L712 24 Z" /><glyph glyph-name="uni8521" unicode="&#x8521;" d="M334 612 L628 612 Q692 612 692 573 L854 573 L854 612 L980 612 L980 738 L854 738 L854 778 L692 778 L692 738 L334 738 L334 778 L172 778 L172 738 L40 738 L40 612 L106 612 Q172 612 172 586 L328 586 L334 612 ZM176 575 L40 389 L152 389 Q206 384 220 408 L274 336 Q256 317 238 307 L194 362 L110 362 L158 298 L56 298 L56 197 L244 197 Q298 199 322 225 L776 225 L802 197 L966 197 L874 329 L958 423 Q1012 485 956 542 L728 542 L730 486 L680 550 L512 549 L320 549 L344 576 L176 575 ZM672 341 L424 341 L516 542 L672 341 ZM734 472 L828 472 L780 420 L734 472 ZM346 456 L320 400 L294 429 L234 429 L258 456 L346 456 ZM315 16 L155 16 L102 -163 L268 -163 L315 16 ZM978 173 L54 173 L54 49 L360 49 Q437 49 436 -28 L436 -169 L610 -169 L610 49 L916 49 Q978 49 978 111 L978 173 ZM707 13 L775 -160 L935 -160 L886 -26 Q864 14 803 13 L707 13 Z" /><glyph glyph-name="uni53C2" unicode="&#x53c2;" d="M722 667 L276 667 L418 779 L210 779 L78 681 Q42 585 134 564 L368 564 L326 516 L42 516 L42 397 L212 397 Q128 360 42 358 L42 235 Q330 246 456 397 L566 397 Q660 318 758 286 L676 284 Q400 196 66 213 L66 104 Q498 96 714 184 L746 186 L954 186 L952 237 L984 238 L984 358 Q899 359 840 397 L984 397 L984 516 L538 516 L570 564 L684 564 Q778 564 800 607 L824 554 L972 555 L878 771 L732 771 L752 722 Q784 671 722 667 ZM738 6 Q514 -78 64 -67 L66 -167 Q554 -181 742 -105 L958 -105 L958 6 L738 6 ZM734 151 Q504 60 64 75 L64 -35 Q501 -55 740 40 L954 40 L954 151 L734 151 Z" /><glyph glyph-name="uni6B8B" unicode="&#x6b8b;" d="M390 18.5 Q463 168 455 431 Q467 538 384 550 L270 550 L289 630 L467 630 L467 758 L56 758 L56 630 L143 630 Q106 506 40 447 L41 274 Q148 318 219 421 L304 421 L300 240 L97 240 L96 120 L266 120 Q241 7 45 -21 L44 -160 Q317 -131 390 18.5 ZM737 497 L886 497 Q979 497 975 592 L931 731 L796 731 L826 627 L713 627 L689 778 L543 778 L565 627 L492 627 L492 497 L586 497 L606 384 L492 384 L492 254 L635 254 L681 90 L510 15 L510 -141 L727 -44 L776 -164 L932 -165 L867 12 L984 74 L984 233 L813 150 L784 254 L981 254 L981 384 L755 384 L737 497 Z" /><glyph glyph-name="uni64CD" unicode="&#x64cd;" d="M832 762 L510 762 Q400 762 400 671 L400 535 L940 535 L940 669 Q940 762 832 762 ZM746 670 Q790 670 790 639 L790 627 L550 627 L550 670 L746 670 ZM572 497 L466 497 Q376 496 376 412 L376 220 L650 220 L650 413 Q652 490 572 497 ZM478 316 L478 398 L512 398 Q540 398 542 363 L542 316 L478 316 ZM872 496 L768 496 Q682 495 682 408 L682 219 L958 219 L958 414 Q958 495 872 496 ZM790 317 L790 402 L824 402 Q852 398 852 368 L852 317 L790 317 ZM298 -69 L298 240 L354 262 L354 415 L298 394 L298 551 L354 551 L354 681 L298 681 L298 778 L148 778 L148 681 L44 681 L44 551 L76 551 Q152 547 148 457 L148 345 L40 315 L40 162 L148 191 Q150 -25 141 -36 Q132 -47 104 -48 L70 -48 L70 -166 L202 -166 Q244 -166 274 -133 Q298 -103 298 -69 ZM542 16 L404 16 L368 -157 L512 -158 L542 16 ZM978 162 L742 162 L742 202 L590 202 L590 162 L364 162 L364 45 L522 45 Q588 45 588 -21 L588 -159 L747 -159 L746 45 L978 45 L978 162 ZM792 15 L828 -154 L971 -154 L941 -20 Q927 14 881 14 L792 15 Z" /><glyph glyph-name="uni69FD" unicode="&#x69fd;" d="M426 245 L981 245 L981 489 Q981 604 879 604 L833 604 L833 646 L984 646 L984 743 L833 743 L833 778 L728 778 L728 743 L675 743 L675 778 L570 778 L570 743 L429 743 L429 646 L519 646 Q570 646 570 615 L570 604 L523 604 Q425 604 426 493 L426 245 ZM701 383 Q728 383 728 358 L728 334 L675 334 L675 383 L701 383 ZM675 466 L675 515 L701 515 Q728 515 728 490 L728 466 L675 466 ZM857 383 Q879 383 879 358 L879 334 L833 334 L833 383 L857 383 ZM833 466 L833 515 L857 515 Q879 515 879 490 L879 466 L833 466 ZM549 383 Q570 383 570 358 L570 334 L528 334 L528 383 L549 383 ZM528 466 L528 515 L549 515 Q570 515 570 490 L570 466 L528 466 ZM675 604 L675 646 L701 646 Q728 646 728 615 L728 604 L675 604 ZM444 94 L444 -159 L955 -159 L955 101 Q952 214 834 216 L553 215 Q445 210 444 94 ZM600 65 L599 107 L746 107 Q800 106 801 76 L801 65 L600 65 ZM750 -18 Q801 -18 801 -47 L802 -58 L598 -58 L600 -18 L750 -18 ZM409 571 L409 702 L305 702 L305 780 L166 780 L166 702 L36 702 L36 571 L83 571 Q166 568 166 460 L166 -166 L305 -166 L305 571 L409 571 ZM42 505 L42 -121 L88 -121 Q137 -107 135 -47 L135 394 Q138 495 81 504 L42 505 ZM323 246 Q323 329 334.5 389.5 Q346 450 363 450 Q380 450 392 389.5 Q404 329 404 246 Q404 160 392 100.5 Q380 41 363 41 Q346 41 334.5 100.5 Q323 160 323 246 Z" /><glyph glyph-name="uni66F9" unicode="&#x66f9;" d="M945 -166 L945 60 Q945 198 797 198 L220 198 Q79 198 78 61 L79 -166 L945 -166 ZM239 60 L239 100 L737 100 Q784 100 784 72 L784 60 L239 60 ZM736 -32 Q784 -30 784 -58 L784 -69 L239 -68 L239 -32 L736 -32 ZM68 232 L957 232 L957 476 Q958 596 840 596 L718 596 L718 628 L984 628 L984 736 L718 736 L718 778 L567 778 L567 736 L462 736 L462 778 L311 778 L311 736 L40 736 L40 628 L258 628 Q311 628 311 604 L311 596 L187 596 Q68 596 68 478 L68 232 ZM262 366 Q311 366 311 340 L311 330 L219 330 L219 366 L262 366 ZM219 458 L219 498 L262 498 Q311 498 311 468 L311 458 L219 458 ZM524 366 Q567 366 567 340 L567 330 L462 330 L462 366 L524 366 ZM462 458 L462 498 L524 498 Q567 498 567 468 L567 458 L462 458 ZM761 366 Q806 366 806 340 L806 330 L718 330 L718 366 L761 366 ZM718 458 L718 498 L761 498 Q806 498 806 468 L806 458 L718 458 ZM525 628 Q567 628 567 604 L567 596 L462 596 L462 628 L525 628 Z" /><glyph glyph-name="uni6D4B" unicode="&#x6d4b;" d="M853 776 L854 -166 L914 -166 Q983 -167 984 -79 L984 776 L853 776 ZM727 746 L727 -123 L830 -123 L831 746 L727 746 ZM696 72 L696 660 Q697 778 590 778 L394 778 Q277 779 277 665 L277 72 L391 72 L391 648 L523 648 Q582 648 582 586 L582 84 L550 84 L552 87 L552 570 L417 570 L417 127 Q385 17 270 -20 L270 -156 Q394 -141 507 -13 L569 -152 L721 -152 L621 72 L696 72 ZM184 -156 L112 -157 L40 -157 L91 74 Q142 304 42 345 L41 543 Q297 422 231 54 L184 -156 ZM50 687 Q50 723 77 748 Q104 773 141 773 Q177 773 204 748 Q231 723 231 687 Q231 651 204 625.5 Q177 600 141 600 Q104 600 77 625.5 Q50 651 50 687 Z" /><glyph glyph-name="uni63D2" unicode="&#x63d2;" d="M969 288 Q967 388 872 388 L779 388 L779 258 L830 258 L830 172 L769 172 L769 50 L830 50 L830 -32 L744 -32 L744 439 L984 439 L984 569 L744 569 L744 631 L890 630 Q965 632 965 703 L965 774 L360 775 L361 634 L510 635 Q583 635 583 591 L583 569 L357 569 L357 439 L514 439 Q583 439 583 362 L583 -32 L489 -32 L489 50 L556 50 L556 172 L489 172 L489 239 Q558 242 558 283 L558 400 L459 400 L459 393 Q459 374 443 369 Q416 369 435 369 Q351 369 350 279 L350 -162 L969 -162 L969 288 ZM277 -69 L277 240 L337 262 L337 415 L277 394 L277 551 L337 551 L337 681 L277 681 L277 778 L128 778 L128 681 L44 681 L44 551 L67 551 Q132 547 128 474 L128 345 L40 315 L40 162 L128 191 Q131 -35 122.5 -45.5 Q114 -56 98 -57 L67 -57 L67 -166 L188 -166 Q228 -166 254 -133 Q276 -103 277 -69 Z" /><glyph glyph-name="uni8336" unicode="&#x8336;" d="M431 323 L431 244 L231 244 L299 381 L692 381 Q732 381 743 346 L783 244 L599 244 L599 323 L431 323 ZM691 726 L337 726 L337 778 L179 778 L179 726 L49 726 L49 595 L113 595 Q179 595 179 552 L337 552 L337 595 L630 595 Q691 595 691 552 L850 552 L850 595 L979 595 L979 726 L850 726 L850 778 L691 778 L691 726 ZM260 -157 L311 86 L152 85 L93 -158 L260 -157 ZM433 -166 L599 -166 L599 112 L937 112 L937 229 L979 229 L876 465 Q846 512 783 512 L249 512 Q163 511 138 444 L40 229 L94 229 L94 112 L349 112 Q431 112 432 40 L433 -166 ZM815 80 L690 80 L766 -158 L926 -158 L873 50 Q853 78 815 80 Z" /><glyph glyph-name="uni67E5" unicode="&#x67e5;" d="M697 160 Q765 160 764 127 L764 114 L269 114 L269 160 L697 160 ZM269 263 L269 304 L697 304 Q765 304 765 273 L765 263 L269 263 ZM51 -36 L51 -166 L883 -166 Q983 -168 983 -93 L983 -36 L51 -36 ZM599 595 L666 595 Q764 431 974 332 L972 503 Q899 528 845 594 L984 594 L983 721 L595 721 L595 778 L435 778 L435 721 L51 721 L51 595 L169 595 Q133 538 40 503 L40 336 Q219 385 354 595 L435 595 L435 419 L217 419 Q102 397 109 279 L109 0 L925 0 L925 291 Q917 414 782 420 L598 419 L599 595 Z" /><glyph glyph-name="uni67F4" unicode="&#x67f4;" d="M240 774 L240 420 L180 420 L180 743 L41 743 L41 419 Q41 295 147 296 L539 296 L539 420 L392 420 L392 774 L240 774 ZM566 778 L566 417 Q566 293 702 292 L966 292 L966 416 L748 416 Q721 416 721 440 L721 572 L953 572 L953 703 L721 703 L721 778 L566 778 ZM405 618 Q405 648 427 670.5 Q449 693 480 693 Q510 693 532.5 670.5 Q555 648 555 618 Q555 587 532.5 564.5 Q510 542 480 542 Q449 542 427 564.5 Q405 587 405 618 ZM115 54 L75 -158 L240 -158 L279 54 L115 54 ZM974 222 L585 222 L585 278 L423 278 L423 222 L40 222 L40 89 L343 89 Q419 89 425 14 L424 -166 L592 -167 L591 89 L974 89 L974 222 ZM711 54 L783 -153 L952 -153 L900 11 Q877 56 831 53 L711 54 Z" /><glyph glyph-name="uni4EA7" unicode="&#x4ea7;" d="M209 316 L984 316 L984 446 L771 446 L824 580 L967 580 L967 712 L576 712 L576 778 L408 778 L408 712 L40 712 L40 580 L193 580 L257 446 L176 446 Q41 446 41 318 L41 -166 L117 -166 Q208 -168 209 -72 L209 316 ZM643 580 Q591 446 513.5 446 Q436 446 383 580 L643 580 Z" /><glyph glyph-name="uni573A" unicode="&#x573a;" d="M294 -36 L294 463 L364 463 L364 593 L294 593 L294 778 L128 778 L128 593 L42 593 L42 463 L70 457 Q128 452 128 382 L128 -36 L40 -36 L40 -166 L291 -166 Q364 -164 364 -98 L364 -36 L294 -36 ZM812 2 Q812 -45 758 -44 L704 -43 L704 -163 L876 -164 Q984 -162 984 -68 L984 358 Q984 486 850 482 L672 484 L914 606 Q1000 707 882 758 L402 758 L402 628 L660 628 L430 519 Q338 383 454 358 L618 358 Q522 301 400 240 L400 92 Q648 192 814 321 L816 258 Q652 131 404 22 L404 -140 Q702 -1 814 76 L812 2 Z" /><glyph glyph-name="uni5C1D" unicode="&#x5c1d;" d="M984 250 L43 250 L43 119 L227 119 L101 -37 Q78 -143 171 -164 L645 -164 Q736 -154 781 -72 L818 -164 L981 -166 L886 72 L724 72 L747 1 Q741 -26 707 -33 L307 -33 L430 119 L915 119 Q984 119 984 184 L984 250 ZM442 651 L382 652 L443 679 L442 651 ZM770 532 Q820 532 820 489 L820 448 L203 448 L205 532 L770 532 ZM984 416 L984 541 Q983 653 890 652 L833 653 L915 762 L750 762 Q696 666 599 653 L599 778 L440 778 L440 732 Q315 638 270 764 L92 764 L159 651 Q40 653 40 539 L40 416 L103 416 L104 319 L935 317 L935 416 L984 416 Z" /><glyph glyph-name="uni5E38" unicode="&#x5e38;" d="M705 360 Q769 360 770 321 L771 301 L256 301 L256 360 L705 360 ZM758 533 Q820 533 820 504 L820 475 L205 475 L205 533 L758 533 ZM159 652 Q40 654 40 540 L40 418 L116 418 Q92 394 92 349 L92 187 L361 187 Q434 187 434 141 L173 141 Q68 141 68 39 L68 -162 L229 -162 L229 11 L365 11 Q434 11 434 -64 L434 -166 L599 -166 L599 11 L733 11 Q802 11 802 -41 L802 -161 L964 -162 L963 50 Q961 141 852 141 L599 141 L599 187 L933 187 L933 347 Q933 396 914 418 L984 418 L984 542 Q983 654 890 653 L833 654 L915 762 L750 762 Q696 666 599 654 L599 778 L440 778 L440 733 Q315 639 266 768 L88 768 L159 652 ZM442 652 L361 650 L443 680 L442 652 Z" /><glyph glyph-name="uni957F" unicode="&#x957f;" d="M938 729 L325 654 L319 497 L937 573 L938 729 ZM492 408 L336 408 L336 778 L174 778 L174 408 L40 408 L40 257 L77 257 Q174 257 174 163 L174 -52 Q174 -165 284 -166 L504 -166 L504 -35 L361 -35 Q336 -35 336 -11 L336 257 L602 257 L787 -158 L977 -158 L793 257 L984 257 L984 408 L672 407 L492 408 Z" /><glyph glyph-name="uni7545" unicode="&#x7545;" d="M454 -81 L454 578 Q452 700 356 700 L318 700 L318 779 L180 779 L180 700 L138 700 Q40 700 42 577 L42 -81 L180 -81 L180 -167 L318 -167 L318 -81 L454 -81 ZM330 244 Q360 244 360 208 L360 48 L318 49 L318 244 L330 244 ZM318 386 L318 569 L330 569 Q360 569 360 527 L360 386 L318 386 ZM148 244 Q180 244 180 206 L180 49 L136 49 L136 244 L148 244 ZM136 386 L136 569 L148 569 Q180 569 180 527 L180 386 L136 386 ZM834 2 Q834 -45 788 -44 L740 -43 L740 -164 L890 -165 Q984 -163 984 -68 L984 360 Q984 489 874 488 L712 487 L924 609 Q998 711 896 762 L478 762 L478 631 L718 631 L502 522 Q422 425 524 360 L664 360 Q582 303 476 241 L476 93 Q692 194 836 323 L836 255 Q696 132 478 22 L478 -140 Q738 -1 834 75 L834 2 Z" /><glyph glyph-name="uni5021" unicode="&#x5021;" d="M955 641 Q956 774 819 774 L469 774 Q335 774 337 648 L337 338 L955 338 L955 641 ZM732 506 Q796 506 795 475 L795 462 L495 462 L495 506 L732 506 ZM495 606 L495 650 L732 650 Q796 650 796 619 L796 606 L495 606 ZM984 180 Q985 308 852 308 L425 308 Q300 308 299 187 L299 -148 L984 -148 L984 180 ZM763 16 Q827 16 826 -16 L826 -28 L456 -28 L456 16 L763 16 ZM456 139 L456 188 L763 188 Q827 188 827 154 L827 139 L456 139 ZM320 778 L159 778 Q126 612 40 554 L41 363 L104 388 L104 -166 L158 -166 Q267 -166 267 -78 L267 436 L167 435 Q274 558 320 778 Z" /><glyph glyph-name="uni8D85" unicode="&#x8d85;" d="M834 766 L509 766 L509 647 L596 647 Q569 578 511 537 L510 371 Q680 444 755 647 L780 647 Q817 647 815 599 L817 381 L893 380 Q970 386 969 443 L969 657 Q969 766 834 766 ZM965 235 Q967 353 858 354 L639 354 Q516 356 516 235 L516 8 L965 5 L965 235 ZM773 229 Q815 229 818 184 L817 136 L666 136 L666 229 L773 229 ZM40 314 L39 -167 L180 -166 L180 -106 Q200 -155 266 -165 L901 -167 Q984 -167 984 -81 L984 -36 L372 -36 L372 116 L466 116 L466 247 L372 247 L372 360 L474 360 L474 491 L353 491 L353 593 L470 593 L470 723 L353 723 L353 779 L189 779 L189 723 L45 723 L45 593 L122 593 Q189 593 189 542 L189 491 L41 491 L41 360 L130 360 Q219 360 219 291 L219 -31 Q181 -21 179 28 L179 314 L40 314 Z" /><glyph glyph-name="uni5632" unicode="&#x5632;" d="M509 266 Q542 266 542 236 L542 207 L469 207 L469 266 L509 266 ZM469 380 L469 435 L509 435 Q542 435 542 407 L542 380 L469 380 ZM611 -74 Q675 -74 675 -12 L675 49 L571 49 L571 92 L663 92 L663 473 Q664 550 597 550 L571 550 L571 605 L675 605 L675 727 L571 727 L571 778 L438 778 L438 727 L336 727 L336 605 L389 605 Q438 605 438 568 L438 550 L414 550 Q349 552 349 470 L349 92 L386 92 Q438 92 438 49 L333 49 L333 -74 L389 -74 Q438 -74 438 -120 L438 -166 L571 -166 L571 -74 L611 -74 ZM984 -98 L984 677 Q984 769 890 769 L785 769 Q688 769 687 679 L688 -160 L806 -160 L806 72 L832 72 Q869 72 869 29 L869 -162 L916 -163 Q983 -164 984 -98 ZM799 351 L826 351 Q865 351 865 307 L865 205 L799 205 L799 351 ZM799 638 L826 638 Q865 638 865 595 L865 494 L799 494 L799 638 ZM323 660 Q327 759 237 765 L150 765 Q39 765 41 659 L41 -163 L323 -163 L323 660 ZM157 634 L178 634 Q212 638 207 593 L207 -33 L157 -33 L157 634 Z" /><glyph glyph-name="uni6F6E" unicode="&#x6f6e;" d="M460 266 Q498 266 498 226 L498 207 L418 207 L418 266 L460 266 ZM418 380 L418 435 L460 435 Q498 435 498 398 L498 380 L418 380 ZM572 -74 Q644 -74 644 -3 L644 49 L530 49 L530 92 L630 92 L630 463 Q632 550 550 550 L530 550 L530 605 L644 605 L644 727 L530 727 L530 778 L382 778 L382 727 L270 727 L270 605 L320 605 Q382 605 382 568 L382 550 L366 550 Q284 552 284 460 L284 92 L326 92 Q382 92 382 49 L266 49 L266 -74 L330 -74 Q382 -74 382 -120 L382 -166 L530 -166 L530 -74 L572 -74 ZM984 -73 L984 677 Q984 769 892 769 L759 769 Q658 769 658 674 L658 -160 L788 -160 L788 72 L818 72 Q858 72 858 20 L858 -162 L920 -161 Q984 -156 984 -73 ZM780 361 L812 361 Q854 361 854 308 L854 215 L780 215 L780 361 ZM780 638 L812 638 Q854 638 854 585 L854 494 L780 494 L780 638 ZM186 -153 L114 -154 L40 -154 L92 77 Q144 306 42 346 L42 545 Q295 429 234 57 L186 -153 ZM53 677 Q53 712 80 737 Q107 762 143 762 Q179 762 206 737 Q233 712 233 677 Q233 640 206 615 Q179 590 143 590 Q107 590 80 615 Q53 640 53 677 Z" /><glyph glyph-name="uni8F66" unicode="&#x8f66;" d="M346 545 L976 545 L976 685 L414 685 L462 778 L284 778 L235 685 L48 685 L48 545 L166 545 L65 362 Q37 217 144 206 L397 206 Q474 206 472 156 L474 126 L40 126 L40 -14 L400 -14 Q474 -14 474 -77 L474 -166 L645 -166 L645 -14 L892 -14 Q984 -14 984 75 L984 126 L645 126 L645 206 L957 206 L957 345 L645 345 L645 481 L474 481 L474 345 L238 345 L346 545 Z" /><glyph glyph-name="uni6C89" unicode="&#x6c89;" d="M862 768 L428 768 Q328 770 328 674 L328 548 L492 548 L492 638 L754 638 Q806 638 806 592 L806 548 L970 548 L970 668 Q972 768 862 768 ZM884 -10 L884 400 Q886 504 786 504 L516 506 Q406 504 406 404 L368 -158 L534 -158 L570 372 L672 372 Q720 372 720 306 L720 -70 Q720 -166 820 -166 L984 -166 L984 -34 L910 -34 Q884 -34 884 -10 ZM192 -156 L118 -158 L40 -158 L108 76 Q184 330 42 366 L42 536 Q360 460 256 56 L192 -156 ZM66 688 Q66 726 94 752 Q122 778 160 778 Q196 778 224 752 Q252 726 252 688 Q252 648 224 622 Q196 596 160 596 Q122 596 94 622 Q66 648 66 688 Z" /><glyph glyph-name="uni9648" unicode="&#x9648;" d="M40 762 L262 762 Q378 762 378 644 L378 432 Q369 376 287 342 L378 342 L378 22 Q382 -98 276 -102 L197 -102 L197 36 L225 38 L225 638 L177 638 L177 -162 L40 -162 L40 762 ZM415 -146 L562 -148 L596 196 L452 196 L415 -146 ZM847 -148 L984 -148 L967 134 Q947 196 890 198 L786 198 L786 250 L983 250 L983 380 L786 380 L786 516 L631 516 L631 380 L567 380 L633 578 L983 578 L983 708 L677 708 L700 778 L552 778 L528 708 L418 708 L418 578 L485 578 L409 354 Q396 256 475 250 L567 250 Q631 250 631 192 L632 -160 L788 -160 L789 124 Q833 128 833 86 L847 -148 Z" /><glyph glyph-name="uni6491" unicode="&#x6491;" d="M284 -65 L284 243 L344 264 L344 416 L284 395 L284 552 L344 552 L344 681 L284 681 L284 778 L132 778 L132 681 L44 681 L44 552 L88 552 Q136 548 132 475 L132 346 L40 317 L40 164 L132 194 Q134 -32 125 -42.5 Q116 -53 100 -54 L70 -54 L70 -162 L192 -162 Q232 -162 260 -130 Q282 -100 284 -65 ZM744 467 Q790 467 790 433 L790 416 L552 416 L552 467 L744 467 ZM789 588 Q834 588 834 560 L834 551 L504 551 L504 588 L789 588 ZM377 307 L378 208 L546 208 Q598 208 598 177 L598 165 L378 165 L378 78 L546 78 Q598 78 598 47 L598 35 L360 35 L360 -64 L598 -64 L598 -76 Q598 -86 594 -95 Q590 -102 580 -103 L538 -103 L538 -166 L710 -166 Q752 -166 760 -119 L760 -64 L984 -64 L984 35 L760 35 L760 78 L960 78 L960 165 L760 165 L760 208 L914 208 Q970 211 970 259 L972 307 L377 307 ZM948 335 L948 452 Q948 502 928 521 L982 521 L982 619 Q982 698 906 698 L934 759 L792 759 Q788 698 738 698 L738 774 L610 774 L610 735 Q552 698 540 759 L408 759 L432 698 Q360 696 358 614 L358 521 L414 521 Q392 508 394 451 L394 333 L862 333 L948 335 ZM610 689 L566 687 L610 717 L610 689 Z" /><glyph glyph-name="uni79F0" unicode="&#x79f0;" d="M446 778 L446 670 Q452 556 578 568 L782 568 Q842 568 842 522 L842 398 L984 398 L984 578 Q982 698 862 698 L606 698 L606 778 L446 778 ZM590 381 L462 381 L428 -154 L564 -154 L590 381 ZM842 -154 L984 -154 L954 302 Q930 374 876 374 L786 374 L786 468 L622 468 L622 -166 L686 -166 Q770 -172 776 -102 L776 290 Q808 294 812 276 L842 -154 ZM430 438 L430 566 L316 566 L316 630 L364 630 Q420 636 420 696 L420 758 L42 757 L42 628 L104 628 Q166 628 166 588 L166 566 L40 566 L40 438 L82 438 Q166 438 166 322 L166 -166 L316 -166 L316 438 L430 438 ZM44 388 L44 -134 L92 -134 Q132 -126 132 -80 L132 334 Q132 388 88 388 L44 388 ZM338 184 Q338 268 351 328 Q364 388 380 388 Q398 388 410 328 Q422 268 422 184 Q422 98 410 38 Q398 -22 380 -22 Q364 -22 351 38 Q338 98 338 184 Z" /><glyph glyph-name="uni57CE" unicode="&#x57ce;" d="M326 581 L325 -166 L385 -166 Q469 -166 470 -72 L470 373 L530 373 L531 -166 L668 -165 L668 384 Q666 496 569 496 L470 496 L470 570 L662 570 L747 168 L692 111 L692 -65 L785 15 L825 -164 L978 -164 L918 129 L982 194 L983 387 L873 280 L815 570 L890 570 Q965 570 971 647 L945 763 L812 763 L825 700 L794 700 L784 778 L630 778 L641 700 L462 700 Q328 703 326 581 ZM247 -33 L247 492 L298 492 L298 621 L247 621 L247 778 L109 778 L109 621 L44 621 L44 492 Q109 493 109 430 L109 -33 L34 -33 L34 -163 L236 -163 Q307 -161 307 -88 L307 -33 L247 -33 Z" /><glyph glyph-name="uni6210" unicode="&#x6210;" d="M40 569 L41 -166 L110 -166 Q197 -166 198 -72 L198 335 L341 335 L341 -12 Q341 -36 306 -36 L258 -36 L256 -166 L400 -166 Q498 -166 499 -72 L499 335 Q499 465 377 465 L198 465 L198 574 L543 574 L668 178 L577 98 L576 -104 L720 25 L782 -166 L955 -166 L850 133 L982 252 L982 458 L798 290 L709 574 L858 574 Q974 568 959 683 L921 774 L760 774 L788 704 L677 704 L652 778 L481 778 L506 704 L178 704 Q42 704 40 569 Z" /><glyph glyph-name="uni7A0B" unicode="&#x7a0b;" d="M967 674 Q961 778 847 778 L563 778 Q449 778 448 681 L448 448 L966 448 L967 674 ZM761 660 Q814 660 817 605 L818 566 L604 566 L604 660 L761 660 ZM981 390 L450 390 L450 263 L546 263 Q623 263 623 211 L623 179 L443 179 L443 48 L546 48 Q623 48 623 1 L623 -27 L438 -27 L438 -158 L894 -158 Q984 -158 984 -73 L984 -27 L801 -27 L801 48 L982 48 L982 179 L801 179 L801 263 L981 263 L981 390 ZM428 444 L428 575 L312 575 L312 647 L356 648 Q414 656 419 722 L418 772 L39 773 L38 645 L100 645 Q161 645 161 610 L161 575 L36 575 L36 444 L78 444 Q161 444 161 340 L161 -164 L312 -164 L312 444 L428 444 ZM40 394 L41 -129 L78 -129 Q128 -122 128 -65 L128 321 Q127 394 84 394 L40 394 ZM335 189 Q335 273 347.5 334 Q360 395 377 395 Q394 395 406.5 334 Q419 273 419 189 Q419 103 406.5 42 Q394 -19 377 -19 Q360 -19 347.5 42 Q335 103 335 189 Z" /><glyph glyph-name="uni8BDA" unicode="&#x8bda;" d="M332 579 L333 -164 L380 -164 Q465 -164 466 -70 L466 336 L521 336 L521 -29 Q521 -54 513 -54 L490 -54 L490 -164 L578 -164 Q644 -164 645 -70 L645 345 Q645 466 553 466 L466 466 L466 565 L659 565 L736 184 L673 90 L673 -141 L786 12 L833 -162 L984 -164 L895 160 L984 270 L982 495 L857 322 L807 565 L927 565 Q1006 594 968 695 L941 774 L826 774 L847 704 L785 704 L773 778 L625 778 L637 704 L435 704 Q334 704 332 579 ZM80 676 Q80 713 106.5 739.5 Q133 766 171 766 Q208 766 235 739.5 Q262 713 262 676 Q262 639 235 612.5 Q208 586 171 586 Q133 586 106.5 612.5 Q80 639 80 676 ZM40 405 L123 405 L122 -85 Q125 -164 197 -166 L340 -166 L340 -52 L277 -52 L277 427 Q277 538 186 538 L40 538 L40 405 Z" /><glyph glyph-name="uni627F" unicode="&#x627f;" d="M864 778 L106 778 L106 643 L542 643 L430 595 L430 517 L276 517 L276 393 L366 393 Q430 393 430 333 L276 333 L276 201 L366 201 Q430 201 430 146 L270 146 L270 14 L378 14 Q430 14 430 -25 Q430 -59 406 -59 L330 -59 L332 -166 L496 -166 Q592 -166 592 -70 L592 14 L748 14 L748 146 L592 146 L592 201 L750 201 L750 333 L592 333 L592 393 L750 393 L750 517 L592 517 L592 542 L880 648 Q936 728 864 778 ZM264 450 Q258 552 180 552 L40 552 L40 406 L114 406 L50 -159 L202 -158 L264 450 ZM980 552 L844 552 Q764 552 764 465 L830 -156 L984 -156 L920 407 L980 407 L980 552 Z" /><glyph glyph-name="uni6301" unicode="&#x6301;" d="M410 366 L681 366 Q746 366 746 316 L746 303 L406 303 L406 173 L673 173 Q746 173 743 98 L744 2 Q745 -42 712 -43 L678 -43 L677 -163 L813 -163 Q905 -166 907 -48 L907 173 L969 173 L969 303 L907 303 L907 366 L980 366 L980 496 L784 496 L784 581 L984 581 L984 712 L784 712 L784 778 L623 778 L623 712 L408 712 L408 581 L557 581 Q623 581 622 526 L622 496 L410 496 L410 366 ZM462 30 Q462 64 487.5 89.5 Q513 115 550 115 Q584 115 609.5 89.5 Q635 64 635 30 Q635 -7 609.5 -32.5 Q584 -58 550 -58 Q513 -58 487.5 -32.5 Q462 -7 462 30 ZM311 -69 L311 240 L379 262 L379 415 L311 394 L311 551 L379 551 L379 681 L311 681 L311 778 L152 778 L152 681 L44 681 L44 551 L72 551 Q157 547 152 455 L152 345 L40 315 L40 162 L152 191 Q155 -25 145 -36 Q135 -47 106 -48 L71 -48 L71 -166 L209 -166 Q254 -166 285 -133 Q309 -103 311 -69 Z" /><glyph glyph-name="uni803B" unicode="&#x803b;" d="M705 779 L705 -36 L631 -36 L631 701 L486 701 L486 -53 Q484 -167 602 -167 L984 -167 L984 -36 L865 -36 L865 465 L972 465 L972 596 L865 596 L865 779 L705 779 ZM412 111 L412 631 L451 631 L451 762 L44 762 L44 631 L50 631 Q75 631 75 593 L75 111 L40 111 L40 -19 L180 -19 Q267 -19 267 -93 L267 -167 L412 -167 L412 -19 L447 -19 L447 111 L412 111 ZM213 205 L230 205 Q267 205 267 159 L267 111 L213 111 L213 205 ZM230 422 Q267 422 267 376 L267 328 L213 328 L213 422 L230 422 ZM213 545 L213 631 L230 631 Q267 631 267 589 L267 545 L213 545 Z" /><glyph glyph-name="uni5C3A" unicode="&#x5c3a;" d="M791 778 L226 778 Q47 778 47 604 L47 -166 L119 -166 Q220 -166 221 -70 L221 300 L567 300 L773 -166 L977 -166 L775 300 L950 300 L950 608 Q950 778 791 778 ZM665 644 Q776 644 778 541 L778 434 L221 434 L221 644 L665 644 Z" /><glyph glyph-name="uni5145" unicode="&#x5145;" d="M641 218 L641 -56 Q641 -165 745 -166 L899 -166 Q984 -166 984 -83 L984 -39 L826 -39 Q802 -39 802 -13 L802 218 L641 218 ZM186 224 L106 -162 L285 -161 L358 224 L186 224 ZM503 580 L980 580 L980 719 L593 719 L593 778 L422 778 L422 719 L40 719 L40 580 L270 580 L79 401 Q38 288 139 262 L679 262 Q772 267 783 347 L819 262 L980 262 L880 501 L715 501 L746 428 Q760 405 727 401 L309 401 L503 580 Z" /><glyph glyph-name="uni5D07" unicode="&#x5d07;" d="M207 397 L818 397 L818 362 L980 362 L980 427 Q976 519 881 519 L589 519 L589 578 L883 579 Q981 580 981 665 L981 751 L826 751 L826 700 L589 700 L589 778 L426 778 L426 700 L201 700 L201 747 L46 747 L44 666 Q46 578 139 578 L352 578 Q426 578 426 519 L143 519 Q45 520 45 434 L45 362 L207 362 L207 397 ZM63 330 L63 215 L959 215 L959 330 L63 330 ZM291 17 L127 17 L68 -166 L237 -166 L291 17 ZM974 168 L40 168 L40 46 L342 46 Q424 46 425 -14 L424 -163 L592 -163 L591 46 L974 46 L974 168 ZM706 15 L791 -162 L965 -162 L898 -14 Q875 15 837 15 L706 15 Z" /><glyph glyph-name="uni62BD" unicode="&#x62bd;" d="M984 570 Q982 692 872 692 L776 692 L776 774 L618 774 L618 692 L522 692 Q410 692 410 574 L410 -166 L984 -166 L984 570 ZM618 -36 L552 -36 L552 204 L576 204 Q618 204 618 143 L618 -36 ZM776 204 L798 204 Q840 204 840 143 L840 -36 L776 -36 L776 204 ZM618 334 L552 334 L552 562 L576 562 Q618 562 618 507 L618 334 ZM776 562 L798 562 Q840 562 840 507 L840 334 L776 334 L776 562 ZM308 -69 L308 240 L376 262 L376 415 L308 394 L308 551 L376 551 L376 681 L308 681 L308 778 L152 778 L152 681 L44 681 L44 551 L72 551 Q156 547 152 445 L152 345 L40 315 L40 162 L152 191 L152 -23 Q141 -49 106 -48 L72 -48 L72 -166 L208 -166 Q252 -166 284 -133 Q308 -103 308 -69 Z" /><glyph glyph-name="uni4EC7" unicode="&#x4ec7;" d="M942 -22 L942 555 Q941 700 802 701 L588 700 L593 778 L432 778 L426 700 L334 700 L334 560 L417 560 L345 -166 L509 -166 L579 560 L710 560 Q780 560 780 491 L780 -72 Q780 -165 875 -166 L984 -166 L984 -46 L966 -46 Q942 -46 942 -22 ZM315 770 L166 770 Q113 599 40 523 L41 330 L101 354 L101 -166 L156 -166 Q263 -166 263 -78 L263 410 L164 411 Q263 543 315 770 Z" /><glyph glyph-name="uni51FA" unicode="&#x51fa;" d="M634 -166 Q747 -168 790 -130 L790 -166 L956 -166 L956 275 L791 275 L792 18 Q793 -37 732 -37 L596 -37 L596 327 L807 327 Q954 327 954 461 L954 751 L785 751 L785 467 L596 466 L596 774 L419 774 L419 466 L216 466 L216 751 L47 751 L47 466 Q47 328 176 327 L303 327 Q419 327 419 218 L419 -37 L210 -37 L210 275 L45 275 L45 -25 Q45 -165 198 -166 L634 -166 Z" /><glyph glyph-name="uni695A" unicode="&#x695a;" d="M196 735 L40 735 L40 620 L132 620 Q196 620 196 559 L196 339 L348 339 L348 620 L493 620 L493 735 L348 735 L348 778 L196 778 L196 735 ZM522 581 L522 337 L605 337 Q652 341 647 402 L647 581 L522 581 ZM860 581 L860 343 L982 343 L982 581 L860 581 ZM670 735 L517 735 L517 620 L608 620 Q670 620 670 562 L670 339 L826 339 L826 620 L980 620 L980 735 L826 735 L826 778 L670 778 L670 735 ZM241 135 L84 135 L53 -168 L210 -168 L220 -75 Q249 -164 370 -166 L905 -166 Q984 -166 984 -102 L984 -44 L593 -44 L593 11 L949 11 L949 126 L593 126 L593 185 L811 185 L811 154 L972 154 L972 211 Q969 309 869 309 L48 309 L48 185 L320 185 Q422 185 422 92 L422 -44 L284 -44 Q230 -15 232 29 L241 135 ZM376 488 Q376 529 392.5 559 Q409 589 433 589 Q456 589 473 559 Q490 529 490 488 Q490 446 473 416 Q456 386 433 386 Q409 386 392.5 416 Q376 446 376 488 ZM41 581 L40 335 L112 335 Q172 341 168 402 L168 581 L41 581 Z" /><glyph glyph-name="uni7840" unicode="&#x7840;" d="M796 -37 L796 335 L886 335 Q976 335 977 421 L979 748 L842 748 L842 465 L796 464 L796 771 L633 771 L633 464 L587 464 L587 748 L450 748 L450 429 Q450 336 539 335 L570 335 Q633 335 633 284 L633 -37 L581 -37 L581 274 L440 274 L440 -59 Q440 -166 560 -166 L754 -166 Q800 -168 849 -133 L848 -166 L984 -166 L984 274 L844 274 L844 9 Q844 -36 820 -36 L796 -37 ZM79 -160 Q157 -160 159 -91 L158 634 L420 634 L420 762 L160 762 Q42 761 41 646 L40 -160 L79 -160 ZM189 -160 L189 480 Q189 584 273 584 L331 584 Q422 584 414 483 L414 -160 L189 -160 ZM287 -47 L323 -47 L323 419 Q323 462 304 462 L287 462 L287 -47 Z" /><glyph glyph-name="uni50A8" unicode="&#x50a8;" d="M291 687 Q291 722 316.5 747.5 Q342 773 379 773 Q413 773 439 747.5 Q465 722 465 687 Q465 653 439 627.5 Q413 602 379 602 Q342 602 316.5 627.5 Q291 653 291 687 ZM263 543 L395 543 Q470 543 470 463 L470 -38 L527 -38 L527 -151 L397 -151 Q331 -149 328 -72 L329 413 L263 413 L263 543 ZM293 775 L156 775 Q117 590 41 538 L40 332 L97 356 L97 -167 L146 -167 Q245 -167 245 -78 L245 414 L155 413 Q252 555 293 775 ZM966 -72 L966 188 Q964 313 840 313 L704 313 L738 376 L984 376 L984 506 L951 506 L966 558 L843 558 L828 506 L798 506 L798 595 L962 595 L962 721 L798 721 L798 779 L646 779 L646 721 L522 721 L522 595 L585 595 Q646 595 646 540 L646 506 L497 506 L497 376 L563 376 Q544 322 491 296 L491 139 L541 163 L541 -167 L965 -167 L966 -72 ZM763 12 Q814 12 814 -29 L814 -44 L693 -44 L693 12 L763 12 ZM693 127 L693 190 L763 190 Q814 190 814 149 L814 127 L693 127 Z" /><glyph glyph-name="uni89E6" unicode="&#x89e6;" d="M213 128 L171 128 L171 212 L192 212 Q213 212 213 175 L213 128 ZM343 212 L367 212 Q389 212 389 175 L389 128 L343 128 L343 212 ZM213 336 L171 336 L171 425 L192 425 Q213 425 213 391 L213 336 ZM343 425 L367 425 Q389 425 389 391 L389 336 L343 336 L343 425 ZM978 582 Q980 681 866 681 L826 681 L826 778 L689 778 L689 681 L645 681 Q538 681 538 582 L538 77 L611 77 Q689 77 689 7 L689 -24 L536 -24 L537 -154 L804 -154 Q860 -141 880 -90 L881 -150 L984 -150 L984 36 L876 36 L876 5 Q876 -7 869 -16 Q862 -24 845 -24 L826 -24 L826 77 L980 77 L978 582 ZM826 551 L839 551 Q872 551 872 517 L872 207 L826 207 L826 551 ZM689 207 L647 207 L647 551 L659 551 Q689 551 689 517 L689 207 ZM389 -166 L428 -166 Q505 -166 506 -88 L506 441 Q504 557 437 557 L476 642 Q491 732 398 739 L247 739 L267 778 L134 778 Q99 719 40 687 L41 555 Q114 574 173 624 L305 624 L271 568 L149 566 Q44 566 41 444 L43 -163 L170 -163 L171 4 L192 4 Q213 4 213 -32 L213 -159 L342 -159 L343 4 L367 4 Q389 4 389 -31 L389 -166 Z" /><glyph glyph-name="uni5904" unicode="&#x5904;" d="M573 778 L573 18 L657 18 Q726 18 724 90 L724 566 L728 566 Q735 562 744 524 L836 112 L984 110 L874 596 Q858 666 787 666 L724 666 L724 778 L573 778 ZM440 58 L539 528 Q567 662 461 676 L267 676 L283 774 L131 774 L40 284 L150 282 L245 46 Q164 -8 48 -22 L48 -164 Q223 -150 343 -68 Q460 -169 671 -166 L984 -166 L984 -32 L660 -32 Q501 -32 440 58 ZM327 228 L276 384 L221 384 L246 544 L388 544 L327 228 Z" /><glyph glyph-name="uni5DDD" unicode="&#x5ddd;" d="M91 769 L60 -161 L141 -161 Q230 -162 231 -90 L255 769 L91 769 ZM440 761 L440 -161 L604 -161 L604 761 L440 761 ZM804 769 L804 -161 L968 -161 L968 769 L804 769 Z" /><glyph glyph-name="uni7A7F" unicode="&#x7a7f;" d="M212 624 L812 624 L812 558 L973 558 L973 654 Q971 738 862 738 L594 738 L594 778 L433 778 L433 738 L149 738 Q50 738 50 648 L50 558 L212 558 L212 624 ZM495 -166 L761 -166 Q851 -164 851 -74 L851 42 L914 42 Q984 42 984 114 L984 166 L851 166 L851 262 L954 262 L954 378 L236 378 Q118 376 118 268 L118 162 L40 162 L40 42 L205 42 L91 -166 L270 -166 L379 42 L612 42 Q680 42 680 -12 Q680 -38 672 -48 Q666 -56 648 -56 L496 -56 L495 -166 ZM279 166 L279 262 L592 262 Q680 262 680 194 L680 166 L279 166 ZM553 592 Q606 384 965 398 L965 520 Q790 506 714 592 L553 592 ZM50 394 Q369 382 478 592 L301 592 Q253 518 50 516 L50 394 Z" /><glyph glyph-name="uni4F20" unicode="&#x4f20;" d="M566 -107 Q619 -157 668 -163 L867 -163 Q953 -162 952 -70 L951 141 Q951 266 848 266 L542 266 L569 354 L979 354 L979 491 L609 491 L639 564 L984 564 L984 696 L678 696 L704 779 L535 779 L508 696 L304 696 L304 564 L469 564 L440 491 L304 491 L304 354 L400 354 L378 283 Q339 143 476 143 L717 143 Q780 143 781 83 L782 0 Q782 -37 747 -38 L607 -39 Q560 -37 549 -13 L519 86 L357 86 L413 -159 L577 -159 L566 -107 ZM315 775 L166 775 Q130 585 40 524 L41 332 L101 356 L101 -167 L155 -167 Q263 -167 263 -78 L263 413 L164 413 Q278 534 315 775 Z" /><glyph glyph-name="uni8239" unicode="&#x8239;" d="M969 185 Q967 293 869 293 L662 293 Q552 293 550 181 L550 -164 L969 -164 L969 185 ZM660 765 Q554 765 554 668 L537 331 L680 331 L692 639 L801 639 L801 421 Q801 324 877 323 L984 323 L984 430 L964 430 Q940 430 940 454 L940 551 L937 665 Q940 765 841 765 L660 765 ZM765 165 Q836 165 830 104 L831 -41 L696 -41 L696 165 L765 165 ZM364 352 L220 352 L222 600 L276 600 Q364 600 364 531 L364 352 ZM240 75 Q240 103 254.5 123.5 Q269 144 289 144 Q308 144 322.5 123.5 Q337 103 337 75 Q337 46 322.5 25 Q308 4 289 4 Q269 4 254.5 25 Q240 46 240 75 ZM240 465 Q240 493 254.5 514 Q269 535 289 535 Q308 535 322.5 514 Q337 493 337 465 Q337 436 322.5 415.5 Q308 395 289 395 Q269 395 254.5 415.5 Q240 436 240 465 ZM507 -81 L507 612 Q506 731 373 731 L296 731 L313 778 L154 778 Q116 696 41 656 L41 502 L80 523 L80 352 L40 352 L40 210 L80 210 L80 -164 L221 -164 L220 210 L281 210 Q364 210 364 126 L364 -165 L435 -166 Q504 -164 507 -81 Z" /><glyph glyph-name="uni5598" unicode="&#x5598;" d="M984 429 L382 429 L382 298 L596 298 L574 247 L484 247 Q384 247 384 145 L384 -167 L524 -167 L524 116 L536 116 Q566 116 566 72 L566 -167 L658 -167 L658 116 L670 116 Q700 116 700 72 L700 -167 L788 -167 L788 116 L798 116 Q828 116 828 76 L828 -167 L896 -167 Q968 -167 970 -93 L970 149 Q968 247 874 247 L740 247 L762 298 L984 298 L984 429 ZM349 652 Q353 760 257 766 L147 766 Q40 766 42 650 L42 -167 L349 -167 L349 652 ZM161 635 L184 635 Q232 635 232 588 L232 -36 L161 -36 L161 635 ZM976 757 L822 757 L822 605 L760 604 L760 779 L598 779 L598 604 L540 604 L540 757 L386 757 L386 573 Q386 461 508 462 L870 462 Q976 462 976 570 L976 757 Z" /><glyph glyph-name="uni7A97" unicode="&#x7a97;" d="M204 605 L784 605 Q831 605 831 564 L831 542 L984 542 L984 636 Q981 730 881 730 L596 730 L596 778 L433 778 L433 730 L158 730 Q40 731 40 623 L40 542 L204 542 L204 605 ZM338 279 Q340 165 401 157 L598 157 L598 99 Q593 67 566 55 L500 138 L344 140 L415 54 L316 54 L317 -36 L575 -36 Q716 -34 724 101 L724 196 Q724 255 658 255 L473 255 L473 279 L696 279 Q764 279 764 223 L764 -61 L279 -62 L279 279 L338 279 ZM152 419 Q116 367 56 324 L56 171 L110 199 L110 -166 L934 -166 L932 267 Q933 392 804 392 L288 394 L309 418 L152 419 ZM554 580 Q608 414 973 424 L973 523 Q795 512 718 580 L554 580 ZM44 421 Q368 412 479 580 L299 580 Q250 520 44 519 L44 421 Z" /><glyph glyph-name="uni5E8A" unicode="&#x5e8a;" d="M201 581 L984 581 L984 712 L608 712 L608 778 L431 778 L431 712 L216 712 Q42 712 41 545 L40 -166 L113 -166 Q200 -166 201 -72 L201 581 ZM296 288 L266 -160 L426 -160 L454 288 L296 288 ZM685 358 L957 358 L957 488 L685 488 L685 535 L519 535 L519 488 L251 488 L251 358 L418 358 Q519 358 519 261 L519 -166 L685 -166 L685 358 ZM755 288 L787 -160 L951 -161 L927 217 Q926 290 843 288 L755 288 Z" /><glyph glyph-name="uni521B" unicode="&#x521b;" d="M645 758 L645 -144 L784 -144 L784 758 L645 758 ZM828 778 L828 -166 L896 -166 Q976 -162 984 -72 L983 778 L828 778 ZM122 407 Q88 398 86 329 L89 -75 Q89 -170 184 -171 L526 -171 Q613 -171 613 -85 L613 -38 L276 -38 Q251 -38 251 -13 L251 305 L361 305 Q408 305 408 265 L408 195 Q408 170 384 170 L314 170 L314 45 L475 45 Q569 45 570 141 L572 337 Q576 381 544 407 L637 407 L521 725 Q493 773 451 773 L222 773 Q152 768 131 695 L40 407 L122 407 ZM274 640 L387 640 L458 438 L206 438 Q219 454 226 477 L274 640 Z" /><glyph glyph-name="uni6625" unicode="&#x6625;" d="M983 444 L425 444 L453 492 L963 492 L963 592 L511 592 L539 639 L984 639 L984 747 L602 747 L621 779 L438 779 L419 747 L43 747 L43 639 L357 639 L329 592 L64 592 L64 492 L271 492 L240 444 L41 444 L41 337 L156 337 Q115 307 40 292 L40 159 L111 180 Q84 169 88 99 L88 -167 L933 -167 L934 90 Q937 170 913 178 L981 161 L981 292 Q904 298 847 337 L983 337 L983 444 ZM715 6 Q771 6 770 -32 L770 -51 L248 -51 L248 6 L715 6 ZM248 109 L248 159 L715 159 Q771 159 771 124 L771 109 L248 109 ZM634 337 L705 274 L314 274 L362 337 L634 337 Z" /><glyph glyph-name="uni6B21" unicode="&#x6b21;" d="M53 653 Q53 690 79.5 717 Q106 744 145 744 Q182 744 208.5 717 Q235 690 235 653 Q235 615 208.5 588 Q182 561 145 561 Q106 561 79.5 588 Q53 615 53 653 ZM315 778 L296 668 Q291 561 417 561 L717 561 Q806 561 806 506 L806 374 L964 374 L964 557 Q966 692 843 692 L466 692 L483 778 L315 778 ZM459 511 L451 349 Q416 136 288 39 L288 -163 Q484 -65 572 188 L632 187 Q693 187 703 157 L814 -166 L984 -166 L846 252 Q805 311 733 304 L595 304 L613 510 L459 511 ZM197 -159 L235 473 L78 473 L40 -159 L197 -159 Z" /><glyph glyph-name="uni806A" unicode="&#x806a;" d="M390 114 L390 638 L424 638 L424 769 L44 769 L44 638 L72 638 L72 114 L40 114 L40 -18 L200 -18 Q260 -18 260 -72 L260 -166 L390 -166 L390 -18 L412 -18 L412 114 L390 114 ZM194 208 L226 208 Q260 208 260 171 L260 114 L194 114 L194 208 ZM226 427 Q260 427 260 390 L260 332 L194 332 L194 427 L226 427 ZM194 551 L194 638 L226 638 Q260 638 260 604 L260 551 L194 551 ZM982 571 Q982 672 910 672 L968 778 L802 778 Q752 680 710 680 Q668 680 628 778 L462 778 L518 672 Q440 672 440 581 L440 247 L984 247 L982 571 ZM766 569 Q848 569 848 495 L848 379 L584 379 L584 569 L766 569 ZM436 212 L436 -161 L486 -161 Q538 -157 536 -98 L536 212 L436 212 ZM560 215 L560 -58 Q560 -162 664 -164 L904 -164 Q980 -164 980 -84 L980 -43 L684 -43 Q670 -43 670 -16 L670 215 L560 215 ZM798 220 L700 220 L698 17 Q704 -11 728 -13 L791 -13 Q806 -13 813 -1 L878 127 L878 -13 L974 -13 L974 185 Q970 223 946 223 L883 223 Q864 222 855 199 L813 119 Q800 100 796 122 L798 220 Z" /><glyph glyph-name="uni4ECE" unicode="&#x4ece;" d="M203 778 L40 -166 L207 -166 L281 260 L354 -164 L506 -162 L402 504 L326 504 L370 778 L203 778 ZM673 778 L512 -166 L682 -166 L751 248 L820 -164 L984 -162 L872 504 L796 504 L839 778 L673 778 Z" /><glyph glyph-name="uni7FE0" unicode="&#x7fe0;" d="M850 778 L548 778 L548 678 L750 678 Q806 678 806 628 L806 398 L878 398 Q960 398 960 496 L960 676 Q962 778 850 778 ZM604 246 L582 190 Q564 160 554 158 L496 158 Q478 162 468 170 L442 206 L312 206 L336 246 L604 246 ZM726 654 Q774 586 716 533 Q658 480 762 398 L616 398 Q524 484 588 540 Q652 596 576 654 L726 654 ZM222 650 Q270 584 212 531 Q154 478 258 394 L112 396 Q20 480 87 532 Q154 584 72 652 L222 650 ZM432 22 L42 22 L42 -90 L346 -90 Q432 -90 432 -166 L596 -166 L596 -90 L926 -90 Q984 -90 984 -34 L984 22 L596 22 L596 64 L640 64 Q690 64 710 100 L750 182 L812 64 L984 64 L902 210 L762 210 L776 246 L982 246 L982 352 L596 352 L596 410 L432 410 L432 352 L40 352 L40 246 L160 246 L40 60 L220 60 L296 168 L324 96 Q354 64 424 64 L432 64 L432 22 ZM400 398 Q476 410 482 490 L482 678 Q484 778 372 778 L46 778 L46 678 L264 678 Q318 678 318 628 L318 398 L400 398 Z" /><glyph glyph-name="uni5BF8" unicode="&#x5bf8;" d="M686 661 L40 661 L40 531 L542 531 Q686 531 686 396 L686 0 Q686 -16 678 -25 Q670 -35 650 -36 L518 -36 L518 -166 L750 -166 Q794 -166 822 -133 Q848 -103 848 -69 L848 531 L984 531 L984 661 L848 661 L848 778 L686 778 L686 661 ZM246 402 Q288 402 308 359 L414 46 L248 46 L118 402 L246 402 Z" /><glyph glyph-name="uni632B" unicode="&#x632b;" d="M592 778 L592 405 L586 405 Q579 405 578 440 L563 616 L504 616 L512 736 L403 736 L357 273 L425 273 Q472 282 471 348 L484 466 L488 432 Q486 275 557 275 L592 275 L592 195 L347 195 L347 65 L518 65 Q592 65 592 6 L592 -36 L342 -36 L342 -166 L906 -166 Q984 -166 984 -98 L984 -36 L734 -36 L734 65 L982 65 L982 195 L734 195 L734 277 L807 277 Q871 292 874 446 L881 271 L984 271 L966 616 L885 616 L893 736 L790 736 L764 444 L756 402 L734 401 L734 778 L592 778 ZM282 -69 L282 240 L343 262 L343 415 L282 394 L282 551 L343 551 L343 681 L282 681 L282 778 L130 778 L130 681 L44 681 L44 551 L67 551 Q134 547 130 445 L130 345 L40 315 L40 162 L130 191 Q133 -35 124 -45.5 Q115 -56 89 -57 L68 -57 L68 -166 L191 -166 Q231 -166 258 -133 Q281 -103 282 -69 Z" /><glyph glyph-name="uni9519" unicode="&#x9519;" d="M372 525 L54 525 L54 385 L83 385 Q140 385 140 327 L140 270 L40 270 L40 131 L77 131 Q140 131 140 55 L140 -59 Q146 -156 224 -166 L380 -166 L380 -38 L311 -38 Q288 -38 288 -10 L288 131 L380 131 L380 270 L288 270 L288 385 L372 385 L372 525 ZM47 768 L47 656 Q44 573 112 561 L374 561 L374 690 L185 690 L185 768 L47 768 ZM399 346 L984 346 L984 476 L900 476 L900 578 L982 578 L982 708 L900 708 L900 778 L752 778 L752 708 L627 708 L627 778 L478 778 L478 708 L405 708 L405 578 L432 578 Q478 578 478 528 L478 476 L399 476 L399 346 ZM627 476 L627 578 L694 578 Q752 578 752 528 L752 476 L627 476 ZM971 186 Q971 299 860 299 L525 299 Q415 299 415 185 L415 -166 L970 -166 L971 186 ZM771 11 Q826 11 826 -25 L826 -44 L568 -44 L568 11 L771 11 ZM568 118 L568 177 L771 177 Q826 177 826 138 L826 118 L568 118 Z" /><glyph glyph-name="uni642D" unicode="&#x642d;" d="M898 466 Q881 519 811 519 L516 519 Q463 519 444 465 L341 188 L450 188 Q495 188 518 217 L811 217 L822 188 L984 188 L898 466 ZM754 399 L772 333 L562 333 L586 399 L754 399 ZM946 60 Q949 166 849 166 L509 166 Q390 166 389 67 L389 -164 L948 -164 L946 60 ZM727 40 Q788 40 788 -14 L788 -38 L551 -38 L551 40 L727 40 ZM593 774 L432 774 L432 723 L365 723 L365 681 L299 681 L299 778 L147 778 L147 681 L44 681 L44 551 L61 551 Q151 547 147 454 L147 345 L40 315 L40 162 L147 191 Q150 -25 141 -36 Q132 -47 104 -48 L70 -48 L70 -166 L202 -166 Q245 -166 274 -133 Q298 -103 299 -69 L299 240 L365 262 L365 415 L299 394 L299 551 L365 551 L365 601 L388 601 Q432 601 432 555 L593 555 L593 601 L698 601 Q745 601 745 555 L907 555 L907 601 L980 601 L980 723 L907 723 L907 774 L745 774 L745 723 L593 723 L593 774 Z" /><glyph glyph-name="uni8FBE" unicode="&#x8fbe;" d="M535 511 Q489 350 317 203 L318 -2 Q555 169 639 341 Q724 167 964 -7 L964 203 Q800 334 718 511 L968 511 L968 642 L715 642 L715 779 L552 779 L552 642 L294 642 L294 511 L535 511 ZM251 21 L251 431 Q250 537 154 537 L40 537 L40 407 L93 407 L93 -167 L171 -167 Q251 -167 251 -108 Q281 -158 338 -167 L891 -167 Q984 -168 984 -89 L984 -34 L294 -34 Q256 -22 251 21 ZM67 680 Q67 716 94 742.5 Q121 769 158 769 Q194 769 221 742.5 Q248 716 248 680 Q248 643 221 616.5 Q194 590 158 590 Q121 590 94 616.5 Q67 643 67 680 Z" /><glyph glyph-name="uni7B54" unicode="&#x7b54;" d="M932 432 Q908 512 832 514 L214 514 Q124 514 102 434 L40 179 L134 179 Q198 179 214 222 L808 222 L824 179 L984 179 L932 432 ZM770 394 L784 336 L236 336 L250 394 L770 394 ZM948 49 Q952 168 822 168 L196 168 Q78 168 76 50 L76 -166 L948 -166 L948 49 ZM718 40 Q792 40 792 -14 L792 -39 L238 -39 L238 40 L718 40 ZM522 769 L166 769 Q51 769 50 677 L50 532 L152 532 Q205 534 208 575 L208 670 L227 670 L325 552 Q349 533 403 536 L609 536 Q698 532 703 591 L703 669 L737 669 L807 536 L968 536 L904 670 L968 670 L968 769 L664 769 Q548 769 547 678 L547 634 Q520 528 424 672 L522 672 L522 769 Z" /><glyph glyph-name="uni6253" unicode="&#x6253;" d="M984 762 L454 762 L454 622 L591 622 Q702 622 702 512 L702 0 Q702 -16 693 -25 Q683 -35 663 -36 L535 -36 L535 -166 L769 -166 Q818 -166 838 -133 Q865 -103 866 -69 L866 622 L984 622 L984 762 ZM322 -69 L322 240 L406 262 L406 415 L322 394 L322 551 L406 551 L406 681 L322 681 L322 778 L161 778 L161 681 L44 681 L44 551 L67 551 Q165 547 161 445 L161 345 L40 315 L40 162 L161 191 Q166 -25 154.5 -36 Q143 -47 112 -48 L74 -48 L74 -166 L222 -166 Q270 -166 293 -133 Q320 -103 322 -69 Z" /><glyph glyph-name="uni5927" unicode="&#x5927;" d="M392 472 Q300 232 58 42 L56 -160 Q342 2 512 318 Q670 4 968 -166 L968 36 Q734 214 614 472 L984 472 L984 622 L596 622 L596 778 L414 778 L414 622 L40 622 L40 472 L392 472 Z" /><glyph glyph-name="uni6234" unicode="&#x6234;" d="M410 662 L626 662 L626 746 L410 746 L410 778 L248 778 L248 746 L43 746 L43 662 L204 662 Q248 662 248 634 L248 625 L42 625 L42 529 L684 529 L744 177 L682 116 L682 -62 L782 23 L822 -166 L964 -166 L909 129 L984 203 L984 389 L871 281 L825 529 L918 529 Q991 538 978 625 L966 736 L845 736 L857 625 L818 625 L808 774 L666 774 L676 625 L410 625 L410 662 ZM40 -20 L657 -20 L657 65 L551 65 L551 102 L634 102 L634 183 L551 183 L551 222 L622 219 L621 398 Q621 503 529 503 L159 503 Q58 503 57 399 L57 221 L93 221 Q137 221 137 183 L52 183 L52 102 L90 102 Q137 102 137 74 L137 65 L40 65 L40 -20 ZM292 65 L292 102 L369 102 Q397 102 397 74 L397 65 L292 65 ZM292 183 L292 221 L369 221 Q397 221 397 192 L397 183 L292 183 ZM258 287 L182 287 L182 329 L229 329 Q258 329 258 298 L258 287 ZM421 329 L469 329 Q497 329 497 298 L497 287 L421 287 L421 329 ZM258 396 L182 396 L182 437 L229 437 Q258 437 258 406 L258 396 ZM421 437 L469 437 Q497 437 497 406 L497 396 L421 396 L421 437 ZM103 -37 L66 -123 Q65 -166 109 -164 L172 -163 Q197 -164 222 -154 L352 -80 L383 -79 Q407 -78 413 -95 L470 -161 L633 -161 L535 -51 Q517 -32 480 -34 L366 -34 Q342 -31 321 -44 L242 -80 L254 -37 L103 -37 Z" /><glyph glyph-name="uni5E26" unicode="&#x5e26;" d="M596 779 L434 779 L434 712 L328 712 L328 767 L166 767 L166 712 L40 712 L40 581 L112 581 Q166 581 166 536 L166 492 L328 492 L328 581 L390 581 Q434 581 434 536 L434 492 L596 492 L596 581 L658 581 Q702 581 702 536 L702 492 L864 492 L864 581 L984 581 L984 712 L864 712 L864 767 L702 767 L702 712 L596 712 L596 779 ZM864 464 L172 464 Q56 462 56 365 L58 244 L150 244 Q86 222 88 152 L88 -124 L250 -124 L250 124 L352 124 Q434 124 434 34 L434 -167 L596 -167 L596 124 L694 124 Q776 124 776 33 L776 -133 L852 -132 Q922 -132 936 -69 L936 149 Q940 212 882 241 L972 241 L972 366 Q974 464 864 464 ZM434 306 L434 255 L216 255 L216 333 L758 333 Q810 333 810 294 L810 255 L596 255 L596 306 L434 306 Z" /><glyph glyph-name="uni4EE3" unicode="&#x4ee3;" d="M544 419 Q560 364 592 291 L777 -166 L965 -167 L764 320 Q732 382 725 419 L913 419 Q1008 470 975 576 L938 696 L781 696 L820 566 L692 566 L673 776 L500 776 L520 566 L322 566 L322 419 L544 419 ZM319 778 L167 778 Q131 604 41 532 L40 338 L101 362 L101 -170 L156 -170 Q266 -170 266 -72 L266 418 L165 418 Q281 538 319 778 Z" /><glyph glyph-name="uni888B" unicode="&#x888b;" d="M408 182 L984 182 L984 308 L596 308 L596 400 L434 400 L434 308 L40 308 L40 182 L200 182 Q138 126 42 114 L42 -26 L150 -8 L150 -64 Q150 -164 264 -164 L506 -164 L506 -46 L344 -46 Q320 -46 320 -22 L320 66 Q373 108 408 182 ZM920 139 L630 139 Q494 133 558 14 L766 -166 L968 -166 L752 29 L924 29 L924 135 L920 139 ZM772 572 L906 572 Q990 608 960 680 L924 774 L782 774 L808 704 L726 704 L708 778 L540 778 L558 704 L328 704 L328 572 L580 572 Q676 352 980 336 L982 474 Q820 492 772 572 ZM384 776 L178 776 Q132 722 46 678 L46 528 L122 556 L122 348 L202 348 Q292 348 292 418 L292 612 L206 612 Q280 654 384 776 Z" /><glyph glyph-name="uni5F85" unicode="&#x5f85;" d="M578 719 L324 719 L324 589 L506 589 Q578 589 578 526 L578 500 L324 500 L324 370 L897 370 Q980 370 980 435 L980 500 L740 500 L740 589 L978 589 L978 719 L740 719 L740 778 L578 778 L578 719 ZM759 347 L759 278 L333 278 L333 150 L687 150 Q759 150 758 81 L758 -4 Q758 -40 718 -39 L657 -40 L657 -166 L806 -166 Q914 -165 916 -70 L916 150 L984 150 L984 278 L916 278 L916 348 L759 347 ZM326 763 L176 763 Q139 658 40 638 L41 470 Q121 485 174 526 Q125 433 41 407 L41 239 L111 258 L111 -166 L198 -166 Q283 -166 283 -74 L283 318 L191 318 Q270 389 326 535 L194 535 Q272 611 326 763 ZM488 99 L355 99 L437 -93 L599 -93 L537 69 Q520 97 488 99 Z" /><glyph glyph-name="uni62C5" unicode="&#x62c5;" d="M957 636 Q957 762 837 762 L520 762 Q400 762 401 641 L401 54 L957 54 L957 636 ZM728 343 Q795 343 795 273 L795 184 L562 184 L562 343 L728 343 ZM562 473 L562 632 L728 632 Q795 632 795 563 L795 473 L562 473 ZM365 -36 L365 -166 L899 -166 Q984 -166 984 -91 L984 -36 L365 -36 ZM299 -69 L299 240 L365 262 L365 415 L299 394 L299 551 L365 551 L365 681 L299 681 L299 778 L147 778 L147 681 L44 681 L44 551 L61 551 Q151 547 147 445 L147 345 L40 315 L40 162 L147 191 Q150 -25 141 -36 Q132 -47 104 -48 L70 -48 L70 -166 L202 -166 Q245 -166 274 -133 Q298 -103 299 -69 Z" /><glyph glyph-name="uni4E39" unicode="&#x4e39;" d="M938 636 Q938 778 792 778 L252 778 Q95 778 95 636 L95 288 L40 288 L40 156 L95 156 L95 -160 L255 -160 L256 -64 L256 156 L685 156 Q777 156 774 58 L773 -166 L854 -166 Q937 -160 938 -64 L938 156 L984 156 L984 288 L938 288 L938 636 ZM688 646 Q777 646 777 550 L777 288 L256 288 L256 646 L688 646 ZM411 468 Q411 508 440.5 538 Q470 568 511 568 Q551 568 580.5 538 Q610 508 610 468 Q610 424 580.5 395 Q551 366 511 366 Q470 366 440.5 395 Q411 424 411 468 Z" /><glyph glyph-name="uni5355" unicode="&#x5355;" d="M436 100 L40 100 L40 -31 L362 -31 Q436 -31 436 -99 L436 -167 L594 -167 L594 -31 L904 -31 Q984 -31 984 42 L984 100 L594 100 L594 155 L944 155 L942 557 Q942 673 834 673 L782 673 L862 779 L670 779 Q618 673 510 673 Q402 673 352 779 L160 779 L240 673 L192 673 Q84 673 84 556 L84 155 L366 155 Q436 155 436 118 L436 100 ZM436 278 L244 278 L244 352 L370 352 Q436 352 436 306 L436 278 ZM594 352 L720 352 Q782 352 782 301 L782 278 L594 278 L594 352 ZM436 475 L244 475 L244 550 L370 550 Q436 550 436 504 L436 475 ZM594 550 L720 550 Q782 550 782 504 L782 475 L594 475 L594 550 Z" /><glyph glyph-name="uni80C6" unicode="&#x80c6;" d="M958 644 Q958 778 816 778 L596 778 Q456 778 456 644 L456 58 L956 58 L958 644 ZM736 352 Q796 352 796 292 L796 190 L618 190 L618 352 L736 352 ZM618 484 L618 646 L736 646 Q796 646 796 586 L796 484 L618 484 ZM441 -28 L441 -160 L914 -160 Q984 -160 984 -84 L984 -28 L441 -28 ZM406 -96 L406 652 Q406 774 304 774 L156 774 Q40 774 42 644 L42 -164 L182 -164 L182 70 L234 70 Q268 70 268 22 L268 -166 L336 -166 Q406 -162 406 -96 ZM172 362 L228 362 Q264 362 264 316 L264 216 L172 216 L172 362 ZM172 642 L228 642 Q264 642 264 594 L264 506 L172 506 L172 642 Z" /><glyph glyph-name="uni4F46" unicode="&#x4f46;" d="M948 639 Q948 769 828 769 L472 769 Q354 769 354 639 L354 55 L947 55 L948 639 ZM709 347 Q786 347 786 279 L786 187 L515 187 L515 347 L709 347 ZM515 478 L515 638 L709 638 Q786 638 786 559 L786 478 L515 478 ZM308 -35 L308 -166 L902 -166 Q984 -166 984 -81 L984 -35 L308 -35 ZM327 778 L173 778 Q125 601 40 540 L41 344 L105 368 L105 -166 L162 -166 Q273 -166 273 -78 L273 417 L171 416 Q280 558 327 778 Z" /><glyph glyph-name="uni5F39" unicode="&#x5f39;" d="M594 98 L378 98 L378 -32 L506 -32 Q594 -32 594 -78 L594 -164 L768 -164 L768 -32 L906 -32 Q984 -32 984 52 L984 98 L768 98 L768 156 L978 156 L978 584 Q978 674 904 674 L894 674 L948 778 L772 778 Q738 690 686 690 Q634 690 600 778 L424 778 L476 674 L462 674 Q390 674 390 582 L390 156 L512 156 Q594 156 594 118 L594 98 ZM594 280 L534 280 L534 354 L564 354 Q594 354 594 316 L594 280 ZM768 354 L800 354 Q834 354 834 312 L834 280 L768 280 L768 354 ZM594 476 L534 476 L534 550 L564 550 Q594 550 594 514 L594 476 ZM768 550 L800 550 Q834 550 834 514 L834 476 L768 476 L768 550 ZM356 -72 L356 140 Q356 250 258 250 L204 250 L204 378 L356 378 L356 662 Q356 764 248 764 L40 764 L40 632 L134 632 Q208 632 208 572 L208 510 L140 512 Q58 508 58 412 L58 120 L142 120 Q208 120 208 54 L208 -36 L62 -36 L60 -166 L260 -166 Q354 -166 356 -72 Z" /><glyph glyph-name="uni86CB" unicode="&#x86cb;" d="M72 10 L348 10 Q429 10 429 -36 L429 -44 L41 -44 L40 -164 L705 -164 Q786 -154 811 -118 L827 -166 L984 -166 L941 -4 L780 -4 L785 -22 Q790 -44 743 -44 L602 -44 L602 10 L938 10 L939 190 Q930 294 828 294 L602 294 L602 328 L429 328 L429 294 L185 294 Q72 294 72 174 L72 10 ZM429 122 L230 122 L230 180 L363 180 Q429 180 429 142 L429 122 ZM602 180 L722 180 Q783 180 783 138 L783 122 L602 122 L602 180 ZM208 614 L60 614 L60 338 L205 338 L206 406 Q235 356 310 346 L908 346 Q981 346 981 415 L981 464 L587 464 L587 516 L941 516 L941 618 L587 618 L587 670 L813 670 L813 646 L977 646 L977 698 Q977 778 876 778 L47 778 L47 670 L320 670 Q413 670 413 586 L413 464 L312 464 Q239 470 208 532 L208 614 Z" /><glyph glyph-name="uni5F53" unicode="&#x5f53;" d="M47 -166 L976 -166 L977 448 Q977 559 874 559 L839 559 L934 750 L759 750 Q695 622 674 598 Q653 574 597 571 L597 778 L438 778 L438 701 Q321 571 269 704 L248 755 L68 755 L141 608 Q179 558 188 559 L51 559 L51 423 L702 423 Q802 423 802 341 L802 258 L55 258 L55 123 L704 123 Q802 123 802 45 L802 -31 L47 -31 L47 -166 ZM435 559 L343 560 Q401 574 433 642 L435 559 Z" /><glyph glyph-name="uni6321" unicode="&#x6321;" d="M382 -158 L984 -158 L984 440 Q984 558 896 557 L950 747 L824 747 Q788 620 758 570 L758 775 L616 775 L616 699 Q560 570 536 702 L522 753 L382 753 L428 598 Q448 556 474 557 L386 558 L386 424 L738 424 Q824 424 824 343 L824 261 L388 261 L388 127 L740 127 Q824 127 824 60 L824 -24 L382 -24 L382 -158 ZM614 558 L574 559 Q592 573 614 611 L614 558 ZM306 -69 L306 240 L372 262 L372 415 L306 394 L306 551 L372 551 L372 681 L306 681 L306 778 L140 778 L140 681 L44 681 L44 551 L62 551 Q144 547 140 454 L140 345 L40 315 L40 162 L140 191 Q144 -35 134 -45.5 Q124 -56 96 -57 L72 -57 L72 -166 L206 -166 Q250 -166 280 -133 Q304 -103 306 -69 Z" /><glyph glyph-name="uni5200" unicode="&#x5200;" d="M962 -60 L962 625 Q962 768 822 768 L62 768 L62 618 L281 618 L71 -156 L245 -156 L456 618 L704 618 Q788 618 788 527 L788 0 Q788 -25 764 -25 L656 -25 L656 -156 L866 -156 Q961 -156 962 -60 Z" /><glyph glyph-name="uni5012" unicode="&#x5012;" d="M656 770 L307 770 L307 639 L371 639 L304 480 L304 341 L359 341 Q404 341 404 283 L404 243 L315 243 L315 112 L354 112 Q404 112 404 54 L404 -32 L307 -32 L307 -163 L582 -163 Q664 -163 664 -77 L664 -32 L558 -32 L558 112 L652 112 L652 243 L558 243 L558 341 L573 341 Q677 341 670 431 L648 550 L516 550 L535 483 Q536 456 505 456 L452 456 L521 639 L656 639 L656 770 ZM692 758 L692 -154 L806 -154 L806 758 L692 758 ZM842 777 L842 -167 L898 -167 Q984 -166 984 -66 L984 777 L842 777 ZM300 779 L163 779 Q126 590 40 518 L41 336 L102 360 L102 -163 L154 -163 Q258 -163 258 -75 L258 416 L162 417 Q265 550 300 779 Z" /><glyph glyph-name="uni5C9B" unicode="&#x5c9b;" d="M403 481 Q403 515 428.5 539.5 Q454 564 491 564 Q526 564 551.5 539.5 Q577 515 577 481 Q577 447 551.5 422.5 Q526 398 491 398 Q454 398 428.5 422.5 Q403 447 403 481 ZM194 -139 L497 -139 Q588 -142 617 -102 L620 -139 L755 -139 L755 146 L598 146 L598 -8 L493 -9 L493 173 L311 173 L311 -9 L201 -9 L201 146 L44 146 L44 -9 Q44 -140 194 -139 ZM808 -166 L890 -166 Q972 -166 972 -72 L972 221 Q972 334 870 334 L297 334 L297 597 L643 597 Q703 597 704 522 L704 366 L786 366 Q868 366 869 450 L869 624 Q869 727 757 727 L308 727 L326 778 L173 778 Q129 709 51 660 L51 478 L131 532 L131 334 Q131 205 269 204 L740 204 Q807 204 808 136 L808 -166 Z" /><glyph glyph-name="uni5BFC" unicode="&#x5bfc;" d="M691 253 L40 253 L40 129 L615 129 Q691 129 691 51 L691 -4 Q691 -41 653 -42 L577 -43 L579 -167 L757 -166 Q800 -166 827 -133 Q851 -103 852 -68 L852 129 L984 129 L984 253 L852 253 L852 301 L976 301 L976 426 L254 426 Q230 426 230 450 L230 474 L952 474 L953 653 Q953 779 843 779 L202 779 Q68 778 68 655 L68 397 Q68 302 163 301 L613 301 Q691 301 691 258 L691 253 ZM732 654 Q792 654 792 603 L792 598 L230 598 L230 654 L732 654 ZM293 88 Q322 88 345 60 L461 -143 L290 -143 L153 88 L293 88 Z" /><glyph glyph-name="uni5230" unicode="&#x5230;" d="M592 766 L40 766 L40 635 L156 635 L46 452 Q26 335 146 341 L362 341 Q408 341 442 382 L462 335 L602 335 L528 558 L392 558 L404 514 Q416 471 360 472 L238 472 L334 635 L592 635 L592 766 ZM44 -167 L508 -167 Q596 -167 596 -81 L596 -36 L408 -36 L408 89 L588 89 L588 220 L408 220 L408 298 L234 298 L234 220 L48 220 L48 89 L152 89 Q234 89 234 17 L234 -36 L44 -36 L44 -167 ZM644 748 L644 -143 L784 -143 L784 748 L644 748 ZM830 779 L830 -165 L888 -167 Q984 -167 984 -64 L984 779 L830 779 Z" /><glyph glyph-name="uni9053" unicode="&#x9053;" d="M526 778 L351 778 L392 707 L266 707 L266 592 L548 592 L526 546 L409 546 Q298 546 298 435 L298 -1 L948 -1 L949 417 Q949 546 838 546 L704 546 L727 592 L980 592 L980 707 L850 707 L904 778 L729 778 Q686 707 621.5 707 Q557 707 526 778 ZM723 153 Q786 153 786 118 L786 103 L461 103 L461 153 L723 153 ZM461 245 L461 296 L723 296 Q786 296 786 261 L786 245 L461 245 ZM461 389 L461 442 L723 442 Q786 442 786 405 L786 389 L461 389 ZM251 22 L251 433 Q250 540 154 540 L40 540 L40 409 L93 409 L93 -166 L171 -166 Q251 -166 251 -108 Q281 -157 338 -166 L891 -166 Q984 -168 984 -88 L984 -33 L294 -33 Q256 -21 251 22 ZM67 683 Q67 719 94 745.5 Q121 772 158 772 Q194 772 221 745.5 Q248 719 248 683 Q248 646 221 619.5 Q194 593 158 593 Q121 593 94 619.5 Q67 646 67 683 Z" /><glyph glyph-name="uni76D7" unicode="&#x76d7;" d="M837 194 L184 194 Q79 194 79 86 L79 -33 L40 -33 L40 -166 L885 -166 Q984 -166 984 -79 L984 -33 L945 -33 L945 88 Q945 194 837 194 ZM240 65 L279 65 Q318 65 318 15 L318 -33 L240 -33 L240 65 ZM472 65 L512 65 Q553 65 553 15 L553 -33 L472 -33 L472 65 ZM707 65 L745 65 Q785 65 785 15 L785 -33 L707 -33 L707 65 ZM66 679 Q66 717 92.5 743.5 Q119 770 156 770 Q191 770 217 743.5 Q243 717 243 679 Q243 642 217 615 Q191 588 156 588 Q119 588 92.5 615 Q66 642 66 679 ZM202 220 L231 539 L75 539 L46 220 L202 220 ZM343 778 L343 697 Q340 587 429 587 L800 587 L800 493 L966 493 L966 616 Q967 729 853 729 L517 729 L518 778 L343 778 ZM520 558 Q466 419 306 366 L306 224 Q445 234 590 378 L647 379 Q682 385 709 357 L795 235 L984 235 L852 440 Q837 473 750 473 L637 473 L676 558 L520 558 Z" /><glyph glyph-name="uni5F97" unicode="&#x5f97;" d="M960 652 Q960 777 848 777 L464 777 Q352 777 352 650 L352 368 L960 368 L960 652 ZM736 524 Q796 524 796 491 L796 476 L518 476 L518 524 L736 524 ZM518 625 L518 669 L736 669 Q796 669 796 637 L796 625 L518 625 ZM736 163 L322 163 L322 47 L682 47 Q736 47 734 -10 Q736 -61 704 -62 L634 -62 L634 -166 L798 -166 Q898 -166 900 -65 L900 47 L984 47 L984 163 L900 163 L900 215 L984 215 L984 324 L328 324 L328 215 L674 215 Q736 215 736 180 L736 163 ZM342 778 L184 778 Q142 666 42 635 L42 481 Q126 497 182 538 Q130 444 42 418 L42 246 L96 266 L96 -164 L182 -164 Q266 -164 266 -70 L266 327 L178 327 Q286 388 342 547 L202 547 Q286 625 342 778 ZM507 15 L365 15 L432 -123 L606 -123 L561 -13 Q542 13 507 15 Z" /><glyph glyph-name="uni7684" unicode="&#x7684;" d="M513 610 Q513 723 406 723 L273 723 L289 778 L134 778 Q103 680 40 605 L40 416 L82 457 L82 -166 L512 -166 L513 610 ZM307 223 Q367 223 367 164 L367 -36 L228 -36 L228 223 L307 223 ZM228 353 L228 593 L307 593 Q367 593 367 532 L367 353 L228 353 ZM984 -52 L984 608 Q984 723 873 723 L770 723 L788 778 L639 778 Q613 696 557 627 L558 455 Q636 495 720 593 L770 593 Q820 593 820 542 L820 -12 Q820 -36 796 -36 L636 -36 L636 -166 L869 -166 Q984 -166 984 -52 ZM675 414 Q701 414 718 379 L781 118 L637 118 L568 414 L675 414 Z" /><glyph glyph-name="uni706F" unicode="&#x706f;" d="M984 725 L491 725 L491 596 L638 596 Q743 596 743 495 L743 5 Q743 -9 735 -20 Q728 -29 708 -29 L595 -29 L595 -158 L802 -158 Q846 -158 873 -127 Q897 -97 898 -64 L898 596 L984 596 L984 725 ZM470 708 L470 365 Q468 298 369 298 L369 708 L470 708 ZM177 778 L326 778 L326 301 L369 301 L501 -153 L356 -153 L270 126 Q195 -97 43 -166 L42 9 Q123 71 169 247 L177 327 L177 778 ZM138 701 L138 255 Q142 137 40 130 L40 701 L138 701 Z" /><glyph glyph-name="uni767B" unicode="&#x767b;" d="M257 342 Q305 370 338 405 L709 405 L750 342 L257 342 ZM643 36 Q633 -21 507 -23 Q381 -25 371 36 L643 36 ZM683 226 Q770 226 770 185 L770 152 L275 152 L275 226 L683 226 ZM40 260 L131 289 Q104 262 104 215 L104 36 L185 36 L220 -43 L52 -43 L52 -166 L895 -166 Q972 -166 972 -84 L972 -43 L795 -43 L830 40 L940 39 L940 219 Q940 257 914 285 L984 285 L873 462 L984 488 L984 601 L807 571 L783 612 L976 650 L977 766 L749 730 L736 778 L553 778 L652 521 L416 521 L470 606 L497 677 Q504 769 411 769 L57 769 L57 654 L311 654 L261 583 L257 583 L57 619 L56 490 L167 465 Q121 428 41 409 L40 260 Z" /><glyph glyph-name="uni7B49" unicode="&#x7b49;" d="M719 161 L44 161 L44 42 L638 42 Q719 42 719 8 L719 -31 Q719 -50 684 -50 L577 -50 L577 -166 L791 -166 Q833 -166 861 -135 Q885 -105 885 -72 L885 42 L977 42 L977 161 L885 161 L885 217 L977 217 L977 328 L591 328 L591 374 L980 374 L980 490 L591 490 L591 509 Q675 513 694 573 L703 656 L747 657 L831 513 L984 513 L908 658 L984 658 L984 778 L657 778 Q553 778 552 663 L552 617 Q493 511 415 660 L526 660 L526 778 L155 778 Q41 778 40 661 L41 511 L88 510 Q183 504 193 566 L193 660 L224 660 L322 537 Q350 504 427 508 L428 490 L46 490 L46 374 L348 374 Q428 374 428 328 L45 328 L45 217 L638 217 Q719 217 719 161 ZM300 -1 Q334 -1 359 -17 L493 -133 L294 -133 L138 -1 L300 -1 Z" /><glyph glyph-name="uni9093" unicode="&#x9093;" d="M468 766 L40 766 L40 636 L382 636 Q359 500 315 366 L231 566 L55 566 L216 178 Q146 80 46 16 L47 -166 Q177 -124 293 14 L375 -160 L572 -160 L411 172 Q509 374 544 620 Q575 734 468 766 ZM586 778 L841 778 Q984 780 984 658 L984 512 Q984 408 877 354 L984 354 L984 32 Q984 -90 876 -98 L771 -96 L771 44 L815 44 L815 654 L736 654 L736 -158 L586 -158 L586 778 Z" /><glyph glyph-name="uni4F4E" unicode="&#x4f4e;" d="M334 623 L334 112 Q334 18 429 17 L677 17 L677 148 L521 148 Q496 148 496 172 L496 358 L728 358 L822 -166 L984 -166 L889 358 L984 358 L984 490 L876 490 L853 625 L874 625 Q968 625 969 739 L969 775 L482 775 Q332 775 334 623 ZM496 490 L496 625 L691 625 L713 490 L496 490 ZM341 -35 L341 -166 L648 -166 Q728 -166 728 -81 L728 -35 L341 -35 ZM317 778 L167 778 Q131 588 40 526 L41 334 L102 358 L102 -166 L156 -166 Q264 -166 264 -78 L264 415 L165 416 Q280 536 317 778 Z" /><glyph glyph-name="uni6EF4" unicode="&#x6ef4;" d="M654 42 Q683 42 683 4 L683 -21 L601 -21 L601 42 L654 42 ZM307 614 L984 614 L984 733 L728 733 L728 778 L564 778 L564 733 L307 733 L307 614 ZM976 -72 L976 410 Q976 515 878 515 L881 515 L913 585 L741 585 Q709 515 643.5 515 Q578 515 543 585 L371 585 L406 515 L408 515 Q312 515 312 406 L312 -166 L459 -166 L459 393 L762 393 Q830 393 830 319 L830 -166 L880 -166 Q975 -166 976 -72 ZM793 75 Q795 157 741 157 L727 157 L727 204 L802 204 L802 319 L727 319 L727 354 L570 354 L570 319 L490 319 L490 204 L531 204 Q570 204 570 157 L542 157 Q493 157 491 83 L491 -135 L794 -135 L793 75 ZM192 -156 L117 -157 L40 -157 L107 68 Q164 312 40 346 L41 509 Q328 435 255 48 L192 -156 ZM48 669 Q48 706 75.5 732 Q103 758 141 758 Q178 758 205.5 732 Q233 706 233 669 Q233 631 205.5 605 Q178 579 141 579 Q103 579 75.5 605 Q48 631 48 669 Z" /><glyph glyph-name="uni8FEA" unicode="&#x8fea;" d="M961 111 L961 591 Q961 702 846 702 L709 702 L709 779 L542 779 L542 702 L417 702 Q302 702 303 591 L303 15 L963 15 L961 111 ZM542 148 L453 148 L453 295 L488 295 Q542 295 542 242 L542 148 ZM709 295 L760 295 Q810 295 810 242 L810 148 L709 148 L709 295 ZM542 429 L453 429 L453 568 L488 568 Q542 568 542 519 L542 429 ZM709 568 L760 568 Q810 568 810 519 L810 429 L709 429 L709 568 ZM251 21 L251 431 Q250 537 154 537 L40 537 L40 407 L93 407 L93 -167 L171 -167 Q251 -167 251 -108 Q281 -158 338 -167 L891 -167 Q984 -168 984 -70 L984 -34 L294 -34 Q256 -22 251 21 ZM67 680 Q67 716 94 742.5 Q121 769 158 769 Q194 769 221 742.5 Q248 716 248 680 Q248 643 221 616.5 Q194 590 158 590 Q121 590 94 616.5 Q67 643 67 680 Z" /><glyph glyph-name="uni654C" unicode="&#x654c;" d="M492 -72 L492 154 Q490 276 394 276 L348 276 L348 373 L502 373 L502 503 L348 503 L348 626 L408 626 Q488 626 498 694 L498 761 L48 761 L46 629 L124 629 Q202 629 202 566 L202 503 L40 503 L40 373 L122 373 Q202 373 202 306 L202 276 L154 276 Q50 276 48 159 L48 -166 L490 -166 L492 -72 ZM194 146 L292 146 Q346 146 346 83 L346 -36 L194 -36 L194 146 ZM516 463 L622 462 Q666 465 682 503 L694 539 L810 539 L736 328 L704 389 Q694 427 630 432 L534 432 L534 321 L570 323 Q600 320 614 282 L662 159 L528 -166 L690 -165 L756 -7 L826 -166 L984 -166 L834 154 L976 551 Q986 647 900 665 L728 665 L760 778 L608 778 L516 463 Z" /><glyph glyph-name="uni7FDF" unicode="&#x7fdf;" d="M402 778 L54 778 L54 664 L293 664 Q346 664 346 608 L346 424 L429 424 Q510 424 510 488 L510 672 Q513 778 402 778 ZM870 778 L529 778 L529 664 L761 664 Q814 664 814 608 L814 424 L896 424 Q978 424 978 488 L978 672 Q981 778 870 778 ZM86 -166 L916 -166 Q984 -166 984 -113 L984 -60 L676 -60 L676 -20 L983 -20 L983 66 L676 66 L676 112 L983 112 L983 198 L676 198 L676 242 L981 242 L981 348 L676 348 L676 396 L502 396 L502 348 L296 348 L320 392 L151 392 Q109 326 40 278 L41 118 L86 148 L86 -166 ZM250 -60 L250 -20 L435 -20 Q502 -20 502 -50 L502 -60 L250 -60 ZM250 66 L250 112 L435 112 Q502 112 502 80 L502 66 L250 66 ZM250 198 L250 242 L435 242 Q502 242 502 210 L502 198 L250 198 ZM247 634 Q269 578 239 534 Q209 490 289 422 L145 422 Q76 492 115 535 Q154 578 96 634 L247 634 ZM718 634 Q741 578 711 534 Q681 490 761 422 L616 422 Q547 492 586.5 535 Q626 578 568 634 L718 634 Z" /><glyph glyph-name="uni5E95" unicode="&#x5e95;" d="M196 609 L981 609 L981 731 L592 731 L592 778 L427 778 L427 731 L197 731 Q40 731 40 583 L40 -156 L109 -156 Q195 -156 196 -63 L196 609 ZM244 437 L244 112 Q244 -4 343 -5 L606 -5 L606 116 L434 116 Q404 116 404 135 L404 213 L688 213 L794 -166 L984 -166 L868 213 L984 213 L984 343 L841 343 L823 430 L900 430 Q964 430 966 505 L966 565 L386 565 Q242 565 244 437 ZM404 343 L404 430 L643 430 L661 343 L404 343 ZM252 -36 L252 -156 L590 -156 Q669 -156 669 -86 L669 -36 L252 -36 Z" /><glyph glyph-name="uni5730" unicode="&#x5730;" d="M957 106 L957 590 Q950 693 841 695 L750 671 L750 776 L590 776 L590 627 L520 602 L520 728 L366 728 L366 554 L319 540 L319 386 L366 396 L366 -43 Q366 -165 480 -166 L878 -166 Q984 -166 984 -81 L984 -36 L544 -36 Q520 -36 520 -12 L520 448 L592 471 L592 23 L750 23 L750 518 L771 524 Q815 547 818 491 L817 17 L888 18 L958 19 L957 106 ZM276 -29 L276 455 L342 455 L342 594 L276 594 L276 768 L122 768 L122 594 L41 594 L41 455 L68 453 Q122 444 122 380 L122 -29 L40 -29 L40 -158 L277 -158 Q342 -156 342 -93 L342 -29 L276 -29 Z" /><glyph glyph-name="uni7B2C" unicode="&#x7b2c;" d="M40 507 L40 390 L360 390 Q430 390 430 349 L430 328 L168 328 Q48 328 48 218 L48 32 L352 32 Q430 32 430 -40 L430 -166 L606 -166 L606 32 L770 32 Q816 32 816 -11 L816 -53 L732 -53 L732 -165 L884 -166 Q984 -166 984 -69 L984 40 Q984 151 860 151 L606 151 L606 211 L984 211 L984 399 Q984 507 870 507 L40 507 ZM754 390 Q816 390 816 344 L816 328 L606 328 L606 390 L754 390 ZM212 151 L212 211 L366 211 Q430 211 430 171 L430 151 L212 151 ZM140 0 L62 -166 L232 -165 L304 0 L140 0 ZM526 778 L158 778 Q42 778 42 669 L42 532 L123 532 Q202 538 204 600 L204 668 L226 668 L325 559 Q352 532 414 532 L594 532 Q684 532 704 588 L714 665 L748 665 L830 532 L984 532 L908 666 L984 666 L984 778 L653 778 Q554 778 552 669 L552 628 Q520 538 416 668 L526 668 L526 778 Z" /><glyph glyph-name="uni5E1D" unicode="&#x5e1d;" d="M433 233 L188 233 Q76 230 76 133 L76 -138 L239 -138 L239 97 L355 97 Q433 97 433 17 L433 -167 L606 -167 L606 97 L710 97 Q785 97 785 19 L785 -141 L881 -141 Q948 -138 949 -77 L949 131 Q949 233 838 233 L606 233 L606 320 L433 320 L433 233 ZM204 349 L773 349 Q821 349 821 306 L821 263 L984 263 L984 382 Q984 479 896 479 L783 479 L846 589 L981 589 L981 719 L596 719 L596 779 L433 779 L433 719 L43 719 L43 589 L184 589 L241 479 L136 479 Q40 479 40 384 L40 271 L204 271 L204 349 ZM667 589 Q623 479 512 479 Q401 479 363 589 L667 589 Z" /><glyph glyph-name="uni5F1F" unicode="&#x5f1f;" d="M40 564 L338 564 Q427 564 427 500 L427 474 L178 474 Q52 474 53 364 L53 134 L335 134 Q427 134 427 47 L427 -167 L604 -167 L604 134 L732 134 Q813 134 813 55 L814 -164 L892 -165 Q979 -167 980 -72 L980 138 Q980 260 858 260 L604 260 L604 347 L983 347 L984 585 Q984 690 870 690 L829 690 L896 779 L697 779 Q630 690 517 690 Q404 690 344 779 L145 779 L205 690 L40 690 L40 564 ZM220 260 L220 347 L342 347 Q427 347 427 285 L427 260 L220 260 ZM734 564 Q817 564 816 505 L817 474 L604 474 L604 564 L734 564 ZM136 82 L59 -167 L233 -167 L307 82 L136 82 Z" /><glyph glyph-name="uni9012" unicode="&#x9012;" d="M283 582 L504 582 Q560 582 560 544 L560 526 L411 526 Q292 526 293 421 L293 225 L492 225 Q560 225 560 158 L560 -5 L720 -5 L720 225 L763 225 Q821 225 821 155 L821 -2 L890 -4 Q961 -5 962 74 L962 253 Q962 349 853 349 L720 349 L720 402 L965 402 L964 613 Q964 706 875 706 L852 706 L921 779 L757 779 Q709 706 627.5 706 Q546 706 502 779 L330 779 L392 706 L283 706 L283 582 ZM432 349 L432 402 L498 402 Q560 402 560 365 L560 349 L432 349 ZM774 582 Q824 582 822 540 L824 526 L720 526 L720 582 L774 582 ZM347 192 L299 -5 L453 -5 L493 192 L347 192 ZM251 21 L251 431 Q250 537 154 537 L40 537 L40 407 L93 407 L93 -167 L171 -167 Q251 -167 251 -108 Q281 -158 338 -167 L891 -167 Q984 -168 984 -89 L984 -34 L294 -34 Q256 -22 251 21 ZM67 680 Q67 716 94 742.5 Q121 769 158 769 Q194 769 221 742.5 Q248 716 248 680 Q248 643 221 616.5 Q194 590 158 590 Q121 590 94 616.5 Q67 643 67 680 Z" /><glyph glyph-name="uni70B9" unicode="&#x70b9;" d="M431 597 L951 597 L951 734 L431 734 L431 778 L266 778 L266 556 L196 556 Q60 556 59 416 L59 123 L955 123 L956 219 L956 419 Q956 556 818 556 L431 556 L431 597 ZM730 424 Q790 424 790 357 L790 255 L225 255 L225 424 L730 424 ZM101 87 L52 -164 L211 -165 L255 87 L101 87 ZM869 84 Q896 84 917 54 L974 -160 L815 -160 L740 84 L869 84 ZM652 84 Q679 84 699 54 L757 -160 L589 -160 L523 84 L652 84 ZM432 84 Q460 84 480 54 L538 -160 L370 -160 L303 84 L432 84 Z" /><glyph glyph-name="uni5178" unicode="&#x5178;" d="M953 184 L953 610 Q952 728 830 728 L720 728 L720 778 L563 778 L563 728 L462 728 L462 778 L305 778 L305 728 L210 728 Q72 728 72 602 L72 184 L40 184 L40 48 L984 48 L984 184 L953 184 ZM221 326 L254 326 Q305 326 305 272 L305 184 L221 184 L221 326 ZM462 326 L512 326 Q563 326 563 272 L563 184 L462 184 L462 326 ZM720 326 L753 326 Q804 326 804 272 L804 184 L720 184 L720 326 ZM563 454 L462 454 L462 610 L512 610 Q563 610 563 552 L563 454 ZM720 610 L753 610 Q804 610 804 552 L804 454 L720 454 L720 610 ZM305 454 L221 454 L221 610 L254 610 Q305 610 305 552 L305 454 ZM140 26 L102 -84 Q91 -170 181 -166 L237 -166 Q275 -166 315 -152 L583 -66 L622 -60 Q677 -58 696 -84 L757 -162 L959 -162 L862 -12 Q829 32 771 30 L653 30 Q609 30 566 18 L289 -50 L314 26 L140 26 Z" /><glyph glyph-name="uni7535" unicode="&#x7535;" d="M948 168 L948 543 Q946 680 812 680 L585 680 L585 778 L408 778 L408 680 L175 680 Q40 680 41 543 L41 72 L408 72 L408 -41 Q408 -165 537 -166 L893 -166 Q984 -166 984 -80 L984 -34 L610 -34 Q585 -34 585 -10 L585 72 L947 72 L948 168 ZM408 204 L209 204 L209 310 L330 310 Q408 310 408 257 L408 204 ZM585 310 L704 310 Q779 310 779 256 L779 204 L585 204 L585 310 ZM408 442 L209 442 L209 548 L330 548 Q408 548 408 495 L408 442 ZM585 548 L704 548 Q779 548 779 495 L779 442 L585 442 L585 548 Z" /><glyph glyph-name="uni5E97" unicode="&#x5e97;" d="M207 576 L984 576 L984 716 L638 716 L638 778 L471 778 L471 716 L185 716 Q41 716 40 576 L40 -166 L103 -166 Q206 -166 207 -90 L207 576 ZM957 158 Q957 268 843 268 L650 268 L650 356 L973 356 L973 482 L650 482 L650 544 L483 544 L483 268 L382 268 Q259 268 258 154 L258 -166 L956 -166 L957 158 ZM707 138 Q790 138 790 76 L790 -36 L424 -36 L424 138 L707 138 Z" /><glyph glyph-name="uni6DC0" unicode="&#x6dc0;" d="M347 -28 Q346 -166 486 -166 L984 -166 L984 -36 L765 -36 L765 104 L961 104 L961 226 L765 226 L765 340 L967 340 L967 470 L323 470 L323 340 L498 340 Q597 340 597 240 L597 -34 L551 -36 Q504 -38 506 18 L506 278 L347 278 L347 -28 ZM491 582 L735 582 Q799 582 799 538 L799 520 L975 520 L975 610 Q975 712 863 712 L727 712 L727 778 L551 778 L551 712 L436 712 Q315 712 315 610 L315 520 L491 520 L491 582 ZM192 -156 L40 -156 L107 74 Q183 324 42 360 L41 528 Q346 457 254 54 L192 -156 ZM65 682 Q65 718 91.5 743 Q118 768 155 768 Q190 768 216.5 743 Q243 718 243 682 Q243 646 216.5 621 Q190 596 155 596 Q118 596 91.5 621 Q65 646 65 682 Z" /><glyph glyph-name="uni6389" unicode="&#x6389;" d="M969 465 Q969 577 858 577 L736 577 L736 635 L969 635 L969 742 L736 742 L736 778 L575 778 L575 577 L512 577 Q396 577 397 469 L397 150 L530 150 Q606 150 606 96 L606 80 L365 80 L365 -50 L526 -50 Q606 -50 606 -118 L606 -166 L767 -166 L767 -50 L921 -50 Q984 -50 984 15 L984 80 L767 80 L767 150 L968 150 L969 465 ZM750 314 Q807 314 807 279 L807 265 L558 265 L558 314 L750 314 ZM558 417 L558 462 L750 462 Q807 462 807 429 L807 417 L558 417 ZM301 -69 L301 240 L368 262 L368 415 L301 394 L301 551 L368 551 L368 681 L301 681 L301 778 L148 778 L148 681 L44 681 L44 551 L71 551 Q152 547 148 454 L148 345 L40 315 L40 162 L148 191 Q151 -25 142 -36 Q133 -47 105 -48 L70 -48 L70 -166 L202 -166 Q247 -166 276 -133 Q300 -103 301 -69 Z" /><glyph glyph-name="uni8C03" unicode="&#x8c03;" d="M504 318 L804 318 L804 426 L728 426 L728 466 L804 466 L804 575 L728 575 L728 615 L576 615 L576 575 L504 575 L504 466 L540 466 Q576 466 576 447 L576 426 L504 426 L504 318 ZM630 171 L648 171 Q686 171 686 130 L686 18 L630 18 L630 171 ZM808 177 Q808 274 718 274 L608 274 Q506 274 506 179 L506 -104 L808 -104 L808 177 ZM326 -166 L468 -166 L468 650 L754 650 Q844 650 844 565 L846 -164 L904 -163 Q984 -167 984 -77 L984 641 Q984 774 844 774 L460 774 Q328 774 326 638 L326 -166 ZM82 687 Q82 724 109 751 Q136 778 174 778 Q210 778 237 751 Q264 724 264 687 Q264 648 237 621 Q210 594 174 594 Q136 594 109 621 Q82 648 82 687 ZM40 413 L124 413 L124 -79 Q126 -163 198 -165 L342 -165 L342 -44 L280 -44 L280 463 Q280 545 208 545 L40 545 L40 413 Z" /><glyph glyph-name="uni8DCC" unicode="&#x8dcc;" d="M418 -30 L329 -31 L329 127 L405 127 L405 256 L329 256 L329 382 L411 382 L411 660 Q411 771 298 771 L173 771 Q41 771 41 659 L41 376 L112 376 Q182 379 190 327 L190 -31 L155 -31 L155 263 Q160 352 40 335 L40 -61 Q41 -160 144 -160 L416 -160 L418 -30 ZM173 654 L235 654 Q279 654 279 609 L279 494 L173 495 L173 654 ZM631 239 Q577 56 455 1 L456 -166 Q605 -140 704 3 L738 65 L829 -166 L984 -166 L869 169 L789 169 L803 239 L980 239 L980 369 L816 369 L816 528 L964 528 L964 658 L816 658 L816 778 L653 778 L653 658 L610 658 L621 736 L483 736 L432 450 L523 450 Q575 450 585 486 L595 528 L653 528 L653 369 L453 369 L453 239 L631 239 Z" /><glyph glyph-name="uni8FED" unicode="&#x8fed;" d="M583 430 L294 430 L294 300 L531 300 Q488 204 320 145 L320 -8 Q536 48 657 176 L691 176 Q710 170 732 134 L807 8 L978 8 L871 216 Q855 240 824 252 L698 252 L717 289 Q721 294 725 300 L984 300 L984 430 L746 430 L746 555 L980 555 L980 685 L746 685 L746 778 L583 778 L583 685 L499 685 L520 755 L373 755 L302 477 L359 477 Q449 469 461 512 L474 555 L524 555 Q583 555 583 493 L583 430 ZM251 21 L251 428 Q250 534 154 534 L40 534 L40 404 L93 404 L93 -166 L171 -166 Q251 -166 251 -108 Q281 -157 338 -166 L891 -166 Q984 -168 984 -89 L984 -34 L294 -34 Q256 -22 251 21 ZM67 676 Q67 712 94 738.5 Q121 765 158 765 Q194 765 221 738.5 Q248 712 248 676 Q248 639 221 612.5 Q194 586 158 586 Q121 586 94 612.5 Q67 639 67 676 Z" /><glyph glyph-name="uni4E01" unicode="&#x4e01;" d="M984 778 L40 778 L40 624 L333 624 Q454 624 454 502 L454 6 Q454 -10 447 -20 Q438 -30 418 -32 L296 -32 L297 -166 L519 -166 Q582 -166 612 -132 Q636 -102 637 -66 L637 624 L984 624 L984 778 Z" /><glyph glyph-name="uni9876" unicode="&#x9876;" d="M973 32 L973 483 Q973 579 882 579 L783 579 L804 654 L983 654 L983 778 L435 778 L435 654 L640 654 L620 579 L542 579 Q441 579 441 484 L441 32 L585 32 L585 448 L760 448 Q829 448 829 394 L829 35 L789 35 L791 397 L628 397 L628 83 Q591 9 431 -27 L432 -163 Q624 -154 724 -43 L753 -40 Q772 -39 782 -73 L824 -166 L984 -164 L912 8 Q893 29 863 32 L973 32 ZM407 778 L40 778 L40 651 L92 651 Q177 651 177 563 L177 8 Q177 -7 171 -17 Q164 -27 159 -28 L79 -28 L78 -160 L246 -160 Q299 -160 320 -127 Q339 -97 340 -61 L340 651 L407 651 L407 778 Z" /><glyph glyph-name="uni5B9A" unicode="&#x5b9a;" d="M203 581 L769 581 Q815 581 815 558 L815 534 L977 534 L977 609 Q977 720 868 720 L594 720 L594 771 L422 771 L422 720 L163 720 Q40 720 40 617 L40 534 L203 534 L203 581 ZM94 286 L67 -166 L220 -166 L226 -67 Q252 -141 337 -166 L883 -166 Q974 -166 974 -78 L974 -27 L608 -27 L608 90 L970 90 L970 231 L608 231 L608 335 L974 335 L974 483 L47 483 L47 335 L332 335 Q435 335 435 237 L435 -27 L339 -27 Q288 -24 238 82 L246 286 L94 286 Z" /><glyph glyph-name="uni4E1C" unicode="&#x4e1c;" d="M118 165 L55 -149 L230 -149 L286 165 L118 165 ZM601 231 L954 231 L954 374 L601 374 L601 512 L427 512 L427 374 L255 374 L344 564 L976 564 L976 706 L403 706 L435 778 L254 778 L220 706 L40 706 L40 564 L161 564 L78 390 Q45 252 158 231 L327 231 Q427 231 426 136 L426 -166 L601 -167 L601 231 ZM725 166 L794 -151 L960 -152 L903 120 Q892 167 825 167 L725 166 Z" /><glyph glyph-name="uni8463" unicode="&#x8463;" d="M372 185 Q426 185 426 159 L426 153 L206 153 L206 185 L372 185 ZM206 258 L206 290 L372 290 Q426 290 426 263 L426 258 L206 258 ZM762 185 Q804 185 804 159 L804 153 L588 153 L588 185 L762 185 ZM588 258 L588 290 L762 290 Q804 290 804 263 L804 258 L588 258 ZM42 -166 L872 -166 Q967 -166 967 -94 L967 -60 L588 -60 L588 -29 L965 -29 L965 38 L588 38 L588 70 L960 70 L961 273 Q961 373 863 373 L588 373 L588 401 L967 401 L967 484 L588 484 L588 519 L895 518 Q967 518 964 572 L965 606 L45 606 L46 515 L377 515 Q426 515 426 491 L426 484 L42 484 L42 401 L366 401 Q426 401 426 378 L426 373 L146 373 Q49 373 49 272 L49 70 L369 70 Q426 70 426 45 L426 38 L40 38 L40 -29 L374 -29 Q426 -29 426 -53 L426 -60 L42 -60 L42 -166 ZM846 624 L846 643 L967 643 L967 736 L846 736 L846 766 L689 766 L689 736 L333 736 L333 766 L176 766 L176 736 L42 736 L42 643 L176 643 L176 625 L333 625 L333 643 L689 643 L689 625 L846 624 Z" /><glyph glyph-name="uni61C2" unicode="&#x61c2;" d="M40 721 L40 -143 L90 -143 Q140 -143 140 -90 L140 721 L40 721 ZM599 139 L501 139 L501 167 L559 167 Q599 167 599 144 L599 139 ZM761 167 L811 167 Q848 167 848 144 L849 139 L761 139 L761 167 ZM599 227 L501 227 L501 259 L559 259 Q599 259 599 234 L599 227 ZM761 259 L811 259 Q849 259 849 234 L849 227 L761 227 L761 259 ZM366 -162 L915 -162 Q974 -162 974 -106 L974 -72 L761 -72 L761 -44 L972 -44 L972 32 L761 32 L761 63 L971 63 L972 158 L972 253 Q972 334 882 334 L761 334 L761 369 L974 369 L974 460 L761 460 L761 494 L898 494 Q971 496 971 553 L971 590 L386 591 L386 499 L547 499 Q599 499 599 471 L599 460 L376 460 L376 578 L330 578 L330 771 L176 771 L176 -166 L330 -166 L330 449 L373 449 L373 369 L553 369 Q599 369 599 342 L599 334 L466 334 Q377 333 377 249 L377 63 L556 63 Q599 63 599 38 L599 32 L366 32 L366 -44 L559 -44 Q599 -44 599 -67 L599 -72 L366 -72 L366 -162 ZM899 602 L900 637 L977 637 L977 743 L900 743 L900 771 L746 771 L746 743 L613 743 L613 771 L459 771 L459 743 L384 743 L384 637 L421 637 Q459 637 459 622 L459 606 L613 606 L613 637 L708 637 Q746 637 746 620 L746 602 L899 602 Z" /><glyph glyph-name="uni52A8" unicode="&#x52a8;" d="M58 754 L58 624 L488 624 L488 754 L58 754 ZM512 453 L42 453 L42 323 L168 323 L40 -35 Q40 -151 134 -151 L274 -151 Q352 -151 386 -106 L400 -154 L552 -153 L464 135 L316 135 L352 0 Q366 -21 316 -21 L212 -21 L332 323 L512 323 L512 453 ZM554 -157 L718 -158 L750 580 L794 580 Q836 580 836 514 L836 -12 Q836 -36 820 -36 L778 -36 L780 -166 L888 -166 Q984 -166 984 -72 L984 590 Q984 719 860 719 L750 719 L750 778 L596 778 L596 719 L528 719 L528 580 L596 580 L554 -157 Z" /><glyph glyph-name="uni680B" unicode="&#x680b;" d="M447 -147 L585 -147 L616 196 L478 196 L447 -147 ZM857 -149 L984 -149 L967 134 Q950 195 897 197 L801 197 L801 250 L982 250 L982 380 L801 380 L801 516 L657 516 L657 380 L608 380 L669 578 L982 578 L982 708 L709 708 L731 778 L584 778 L561 708 L460 708 L460 578 L522 578 L457 382 Q440 256 529 250 L578 250 Q657 250 657 154 L657 -157 L805 -158 L804 124 Q843 127 843 86 L857 -149 ZM440 571 L440 702 L320 702 L320 780 L173 780 L173 702 L36 702 L36 571 L86 571 Q173 568 173 460 L173 -166 L320 -166 L320 571 L440 571 ZM42 505 L42 -121 L91 -121 Q143 -107 141 -47 L141 394 Q144 495 84 504 L42 505 ZM340 242 Q340 325 352.5 385.5 Q365 446 383 446 Q400 446 412.5 385.5 Q425 325 425 242 Q425 156 412.5 96.5 Q400 37 383 37 Q365 37 352.5 96.5 Q340 156 340 242 Z" /><glyph glyph-name="uni51BB" unicode="&#x51bb;" d="M40 687 Q40 721 65.5 745.5 Q91 770 127 770 Q162 770 187.5 745.5 Q213 721 213 687 Q213 652 187.5 627 Q162 602 127 602 Q91 602 65.5 627 Q40 652 40 687 ZM186 -166 L219 479 L77 479 L44 -166 L186 -166 ZM323 188 L269 -159 L426 -160 L476 188 L323 188 ZM700 243 L968 243 L968 375 L700 375 L700 513 L541 513 L541 375 L426 375 L497 575 L984 575 L984 707 L544 707 L570 778 L414 778 L388 707 L245 707 L245 575 L341 575 L275 391 Q234 278 339 243 L471 243 Q541 243 541 180 L540 -163 L702 -163 L701 107 L736 107 Q763 106 768 81 L826 -162 L980 -161 L908 135 Q894 187 836 191 L699 191 L700 243 Z" /><glyph glyph-name="uni6597" unicode="&#x6597;" d="M846 147 L846 778 L676 778 L676 147 L40 147 L40 7 L554 7 Q676 7 676 -93 L676 -166 L846 -166 L846 7 L984 7 L984 147 L846 147 ZM402 450 Q278 458 360 359 L494 199 L286 200 L142 377 Q66 472 158 520 L308 539 L82 747 L268 746 Q310 745 332 723 L490 570 Q550 506 470 460 L402 450 Z" /><glyph glyph-name="uni90FD" unicode="&#x90fd;" d="M556 240 Q556 334 449 334 L286 334 L331 394 L572 394 L572 520 L515 520 L544 570 L412 570 L371 520 L368 520 L368 604 L564 604 L564 726 L368 726 L368 778 L204 778 L204 726 L57 726 L57 604 L122 604 Q204 604 204 542 L204 520 L41 520 L41 394 L130 394 Q97 350 41 314 L40 144 L92 174 L92 -164 L555 -164 L556 240 ZM352 28 Q412 28 412 -18 L412 -42 L236 -42 L236 28 L352 28 ZM236 142 L236 212 L348 212 Q412 212 412 168 L412 142 L236 142 ZM607 778 L857 778 Q984 780 984 658 L984 510 Q984 408 882 352 L984 352 L984 30 Q984 -104 871 -102 L783 -100 L783 40 L827 40 L824 654 L749 654 L749 -162 L607 -162 L607 778 Z" /><glyph glyph-name="uni8BFB" unicode="&#x8bfb;" d="M80 680 Q80 717 106 741.5 Q132 766 168 766 Q203 766 229 741.5 Q255 717 255 680 Q255 644 229 619 Q203 594 168 594 Q132 594 106 619 Q80 644 80 680 ZM40 540 L186 540 Q277 540 277 445 L277 -40 L339 -40 L339 -165 L215 -165 Q125 -166 128 -64 L127 407 L40 408 L40 540 ZM748 607 L952 607 L952 731 L748 731 L748 778 L576 778 L576 731 L374 731 L374 607 L519 607 Q576 607 576 577 L576 566 L383 566 L383 433 L778 433 Q826 433 826 385 L826 291 L965 291 L965 459 Q965 566 855 566 L748 566 L748 607 ZM779 167 L779 406 L618 406 L618 167 L370 167 L370 45 L565 45 Q515 -8 375 -36 L376 -166 Q544 -159 693 -48 L717 -48 Q745 -54 765 -88 L812 -165 L984 -164 L888 -15 Q871 10 841 11 L735 11 L757 45 L978 45 L978 167 L779 167 ZM529 286 Q461 289 514 261 L609 189 L465 189 L375 256 Q340 300 395 313 L452 319 L354 400 L480 401 Q509 399 520 390 L569 343 Q608 307 565 290 L529 286 Z" /><glyph glyph-name="uni675C" unicode="&#x675c;" d="M454 -162 L888 -162 Q984 -162 984 -77 L984 -32 L799 -32 L799 520 L962 520 L962 650 L799 650 L799 778 L640 778 L640 650 L480 650 L480 520 L544 520 Q640 520 640 420 L640 -32 L454 -32 L454 -162 ZM452 571 L452 702 L328 702 L328 780 L177 780 L177 702 L36 702 L36 571 L87 571 Q177 568 177 460 L177 -166 L328 -166 L328 571 L452 571 ZM42 505 L42 -121 L93 -121 Q146 -107 144 -47 L144 394 Q147 495 85 504 L42 505 ZM349 242 Q349 325 362 385.5 Q375 446 393 446 Q411 446 424 385.5 Q437 325 437 242 Q437 156 424 96.5 Q411 37 393 37 Q375 37 362 96.5 Q349 156 349 242 Z" /><glyph glyph-name="uni5EA6" unicode="&#x5ea6;" d="M198 608 L968 608 L968 732 L632 732 L632 778 L469 778 L469 732 L176 732 Q45 732 45 608 L45 -162 L117 -160 Q197 -160 198 -72 L198 608 ZM768 530 L464 530 L464 582 L297 582 L297 530 L241 530 L241 424 L297 424 L297 368 Q297 276 416 276 L804 276 Q925 276 925 366 L925 424 L964 424 L964 530 L925 530 L925 578 L768 578 L768 530 ZM768 424 L768 370 L464 368 L464 424 L768 424 ZM246 254 L248 140 L763 138 L698 56 L594 94 Q425 146 290 74 Q190 -14 276 -122 Q347 -162 404.5 -165 Q462 -168 567 -158 L686 -124 L744 -166 L980 -166 L817 -28 L945 128 Q996 232 900 254 L246 254 ZM381 -18 Q381 -6 405.5 2 Q430 10 461 10 Q519 4 570 -24 Q526 -42 471 -48 Q430 -46 405.5 -38 Q381 -30 381 -18 Z" /><glyph glyph-name="uni77ED" unicode="&#x77ed;" d="M476 767 L476 636 L981 636 L981 767 L476 767 ZM965 463 Q967 581 839 581 L618 581 Q493 581 493 469 L493 160 L967 160 L965 463 ZM645 460 L743 460 Q813 460 813 391 L813 281 L645 281 L645 460 ZM969 117 L807 117 Q766 -35 731.5 -35 Q697 -35 666 117 L504 117 L535 -35 L481 -35 L482 -166 L984 -166 L984 -35 L928 -35 L969 117 ZM146 275 L50 -156 L156 -156 Q198 -158 218 -117 L275 113 Q303 113 307 79 L330 -161 L473 -160 L431 149 Q419 208 353 210 L297 210 L305 275 L432 275 L432 409 L324 409 L324 561 L432 561 L432 692 L261 692 L298 778 L144 778 Q103 688 41 634 L40 465 Q106 492 166 556 L166 406 L42 406 L42 275 L146 275 Z" /><glyph glyph-name="uni953B" unicode="&#x953b;" d="M318 532 L54 532 L54 391 L64 391 Q122 391 122 332 L122 275 L40 275 L40 134 L58 134 Q122 134 122 57 L122 -58 Q128 -156 184 -166 L322 -166 L322 -37 L284 -37 Q266 -37 266 -8 L266 134 L322 134 L322 275 L266 275 L266 391 L318 391 L318 532 ZM46 778 L46 664 Q44 580 120 569 L318 569 L318 699 L190 699 L190 778 L46 778 ZM354 655 L354 74 L328 74 L328 -57 L354 -57 L354 -166 L496 -166 L496 -57 L624 -57 L624 74 L496 74 L496 184 L618 184 L618 308 L496 308 L496 416 L618 416 L618 540 L496 540 L496 651 L592 653 Q652 660 648 775 L444 775 Q354 776 354 655 ZM954 542 L954 682 Q956 771 880 771 L748 771 Q674 771 664 687 L656 410 L785 409 L787 640 L834 640 L834 502 Q834 407 918 406 L980 406 L980 518 L972 518 Q954 518 954 542 ZM654 378 L654 241 L844 240 L826 171 Q724 240 662 137 Q612 34 652 -78 Q680 -138 713 -152.5 Q746 -167 804 -146 L838 -120 L854 -158 L984 -158 L922 25 L972 243 Q990 361 900 378 L654 378 ZM734 19 Q734 38 742 50.5 Q750 63 762 63 Q784 56 798 20 Q784 -14 762 -25 Q750 -25 742 -13 Q734 -1 734 19 Z" /><glyph glyph-name="uni6BB5" unicode="&#x6bb5;" d="M76 656 L76 74 L40 74 L40 -58 L76 -58 L76 -166 L228 -166 L228 -58 L468 -58 L468 74 L228 74 L228 184 L456 184 L456 308 L228 308 L228 416 L456 416 L456 540 L228 540 L228 652 L434 652 Q502 660 498 728 L498 778 L208 776 Q76 778 76 656 ZM942 544 L942 672 Q942 772 834 772 L658 772 Q550 772 538 670 L522 410 L670 410 L684 640 L794 640 L794 502 Q794 408 888 406 L978 406 L978 520 L966 520 Q942 520 942 544 ZM510 378 L510 230 L812 228 L776 136 L722 170 Q604 234 520 136 Q458 24 506 -78 Q546 -138 594 -153 Q642 -168 726 -146 L780 -104 L814 -158 L984 -158 L876 18 L966 218 Q1000 350 896 378 L510 378 ZM606 18 Q606 38 620 50 Q634 62 654 62 Q692 56 718 20 Q692 -14 654 -26 Q634 -26 620 -13 Q606 0 606 18 Z" /><glyph glyph-name="uni65AD" unicode="&#x65ad;" d="M186 -36 L186 778 L40 778 L40 -42 Q40 -166 175 -166 L481 -166 Q579 -166 583 -92 L583 -36 L186 -36 ZM611 -166 L673 -166 Q759 -166 760 -72 L760 390 Q818 402 815 346 L815 -166 L957 -166 L957 400 Q965 510 855 522 L760 522 L760 626 L927 624 Q992 636 984 712 L984 764 L693 764 Q601 740 612 640 L611 -166 ZM227 364 L226 12 L241 12 Q269 12 287 30 Q303 46 303 64 L303 364 L227 364 ZM494 226 Q494 286 505.5 329 Q517 372 533 372 Q549 372 560.5 329 Q572 286 572 226 Q572 166 560.5 122 Q549 78 533 78 Q517 78 505.5 122 Q494 166 494 226 ZM584 516 L467 516 L467 644 L509 666 L497 560 L571 562 L590 714 Q582 774 525 746 L467 720 L467 778 L327 778 L327 654 L298 642 L287 756 L217 750 L217 748 L225 612 Q233 556 268 561 Q303 566 326 584 L327 516 L215 516 L215 408 L277 408 Q327 408 327 343 L327 -12 L467 -12 L467 408 L584 408 L584 516 Z" /><glyph glyph-name="uni961F" unicode="&#x961f;" d="M399 -158 L568 -158 L665 362 L825 -152 L984 -152 L790 504 L694 504 L745 772 L580 772 L399 -158 ZM40 778 L304 778 Q410 780 410 658 L410 510 Q410 408 310 352 L410 352 L410 30 Q410 -118 212 -100 L212 40 L256 40 L254 654 L179 654 L179 -162 L40 -162 L40 778 Z" /><glyph glyph-name="uni5BF9" unicode="&#x5bf9;" d="M773 674 L506 674 L506 545 L673 545 Q773 545 773 446 L773 4 Q773 -12 765 -21 Q756 -31 736 -32 L662 -32 L661 -160 L837 -160 Q882 -160 911 -128 Q936 -98 937 -64 L937 545 L984 545 L984 674 L937 674 L937 778 L773 778 L773 674 ZM426 741 L40 741 L40 615 L328 615 Q320 490 276 367 L205 548 L53 548 L192 191 Q131 91 47 26 L46 -166 Q162 -97 273 38 L368 -160 L539 -160 L370 179 Q455 410 482 596 Q513 717 426 741 ZM601 438 L492 438 L560 100 L719 100 L666 402 Q650 435 601 438 Z" /><glyph glyph-name="uni591A" unicode="&#x591a;" d="M936 270 L354 270 L380 318 L688 318 Q749 318 789 369 L964 636 Q998 721 926 748 L380 747 L402 779 L212 779 Q174 707 59 663 L60 512 Q207 537 296 624 L772 624 L654 458 Q647 452 605 450 L489 581 L283 581 L399 450 L40 450 L41 318 L190 318 Q157 251 59 203 L60 50 Q176 70 261 142 L771 142 L648 -36 Q641 -42 600 -44 L481 101 L275 101 L394 -44 L44 -44 L45 -167 L688 -167 Q749 -167 789 -115 L966 155 Q995 227 936 270 Z" /><glyph glyph-name="uni60F0" unicode="&#x60f0;" d="M634 632 L984 632 L984 739 L676 739 L692 778 L527 778 L512 739 L395 739 L395 632 L472 632 L406 474 L505 474 Q557 471 569 493 L595 493 Q620 493 620 466 L620 438 L399 438 L399 331 L981 331 L981 438 L789 438 L789 493 L981 493 L981 584 L616 584 L634 632 ZM841 292 L556 292 Q420 293 420 177 L420 -166 L585 -166 L585 -93 L796 -93 L795 -165 L862 -166 Q960 -166 961 -73 L961 173 Q963 292 841 292 ZM751 48 Q796 48 796 14 L796 1 L585 1 L585 48 L751 48 ZM751 185 Q796 185 796 151 L796 137 L585 137 L585 185 L751 185 ZM40 728 L40 -135 L95 -135 Q150 -135 150 -79 L150 728 L40 728 ZM195 778 L195 -166 L350 -166 L350 458 L399 458 L399 588 L350 588 L350 778 L195 778 Z" /><glyph glyph-name="uni989D" unicode="&#x989d;" d="M528 24 Q528 129 426 129 L169 129 Q67 129 67 30 L67 -165 L528 -165 L528 24 ZM344 17 Q393 17 393 -22 L393 -63 L203 -63 L203 17 L344 17 ZM149 279 Q149 292 160.5 301.5 Q172 311 190 311 Q221 305 257 280 Q221 254 190 246 Q172 246 160.5 255 Q149 264 149 279 ZM95 563 L73 524 Q53 430 179 425 L356 425 L324 361 L279 390 Q148 442 75 371 Q15 303 59 199 Q102 164 147.5 154 Q193 144 261 159 L332 188 L358 160 L529 160 L428 284 L502 417 Q535 504 458 524 L213 524 L235 568 L186 568 L186 626 L356 626 Q400 626 400 594 L400 562 L539 562 L539 657 Q538 739 450 739 L380 739 L380 779 L218 779 L218 739 L145 739 Q47 738 47 657 L47 562 L95 563 ZM658 442 L820 442 Q869 442 869 393 L869 54 L831 55 L831 391 L694 391 L694 98 Q657 19 553 -17 L553 -167 Q673 -146 771 -37 L838 -161 L984 -161 L879 47 L972 47 L972 484 Q972 572 893 572 L812 572 L829 647 L979 647 L979 770 L549 770 L549 647 L685 647 L667 572 L635 572 Q555 572 555 477 L555 47 L658 47 L658 442 Z" /><glyph glyph-name="uni5A25" unicode="&#x5a25;" d="M730 407 L755 145 L690 98 L691 -61 L782 -4 L806 -164 L935 -164 L901 90 L982 150 L981 324 L882 239 L865 407 L925 407 Q983 406 984 485 L961 720 L870 720 L885 537 L854 537 L835 778 L700 778 L719 537 L638 537 L638 646 Q639 647 639 648 L672 658 L672 778 L423 745 L423 609 L497 620 L497 537 L429 537 L429 407 L463 407 Q497 407 497 359 L497 254 L429 235 L429 82 L497 101 L497 -7 Q497 -23 489 -32 Q473 -42 453 -42 L440 -42 L459 -164 L552 -164 Q595 -164 613 -132 Q637 -103 638 -69 L638 155 L693 170 L693 323 L638 308 L638 407 L730 407 ZM67 540 L67 170 L138 57 Q96 6 42 -14 L40 -166 Q143 -141 212 -59 L283 -164 L444 -164 L316 47 L389 170 L389 540 L424 540 L424 669 L389 669 L389 778 L254 778 L254 669 L202 669 L202 778 L67 778 L67 669 L41 669 L41 540 L67 540 ZM254 224 L228 176 L202 224 L202 540 L254 540 L254 224 Z" /><glyph glyph-name="uni9102" unicode="&#x9102;" d="M130 -162 L468 -162 Q563 -162 564 -68 L564 28 Q564 124 464 124 L265 124 L314 176 L584 176 L584 300 L40 300 L40 176 L134 176 L70 110 Q34 10 141 0 L392 0 L392 -30 Q392 -54 367 -54 L132 -54 L130 -162 ZM40 460 L40 344 L582 344 L582 460 L40 460 ZM574 684 Q575 778 495 778 L406 778 Q325 778 327 680 L327 500 L573 500 L574 684 ZM421 680 L453 680 Q485 680 485 642 L485 598 L421 598 L421 680 ZM294 684 Q295 778 215 778 L126 778 Q45 778 47 680 L47 500 L293 500 L294 684 ZM139 680 L170 680 Q203 680 203 642 L203 598 L139 598 L139 680 ZM608 778 L842 778 Q984 780 984 658 L984 510 Q984 408 882 352 L984 352 L984 40 Q984 -110 855 -102 L783 -100 L783 40 L825 40 L824 654 L749 654 L749 -162 L608 -162 L608 778 Z" /><glyph glyph-name="uni800C" unicode="&#x800c;" d="M984 778 L40 778 L40 646 L453 646 L403 532 L180 532 Q64 532 64 398 L64 -166 L217 -166 L217 380 L263 380 Q311 380 311 310 L311 -165 L464 -164 L464 380 L514 380 Q561 382 558 310 L557 -166 L714 -166 L714 380 L762 380 Q812 380 812 308 L812 -166 L870 -166 Q964 -166 965 -70 L965 428 Q965 532 850 532 L589 532 L639 646 L984 646 L984 778 Z" /><glyph glyph-name="uni5C14" unicode="&#x5c14;" d="M274 575 L719 575 Q785 575 785 519 L785 391 L951 391 L951 590 Q950 707 817 707 L319 707 L338 778 L179 778 Q134 632 48 565 L48 371 Q183 443 274 575 ZM160 325 L40 -150 L210 -151 L325 325 L160 325 ZM400 481 L400 -166 L565 -166 L565 216 L636 216 Q682 216 701 160 L802 -145 L984 -145 L859 229 Q835 299 751 310 L566 310 L566 481 L400 481 Z" /><glyph glyph-name="uni4E8C" unicode="&#x4e8c;" d="M68 725 L68 580 L923 580 L923 725 L68 725 ZM38 11 L38 -134 L893 -134 Q982 -134 982 -55 L982 11 L38 11 Z" /><glyph glyph-name="uni53D1" unicode="&#x53d1;" d="M624 708 Q624 734 659 753 Q694 772 744 772 Q792 772 827 753 Q862 734 862 708 Q862 682 827 662 Q792 642 744 642 Q694 642 659 662 Q624 682 624 708 ZM469 26 Q469 52 491 69 Q513 86 545 86 Q602 76 643 26 Q602 -20 545 -34 Q513 -34 491 -17 Q469 0 469 26 ZM376 276 L786 274 L719 152 L666 194 Q508 270 385 166 Q300 78 352 -66 Q405 -148 484.5 -162 Q564 -176 657 -150 L723 -106 L766 -164 L976 -164 L840 28 L963 260 Q995 380 877 416 L416 416 L442 496 L984 496 L984 628 L472 628 L511 778 L342 778 L301 628 L216 628 L255 756 L87 756 L44 624 Q39 496 131 496 L267 496 L40 -166 L220 -166 L376 276 Z" /><glyph glyph-name="uni4E4F" unicode="&#x4e4f;" d="M85 -9 Q-1 -86 91 -166 L863 -166 Q965 -166 965 -74 L965 -20 L391 -20 L896 297 Q985 396 875 463 L573 463 L573 615 L855 616 Q949 615 949 696 L949 759 L59 759 L59 617 L310 616 Q408 614 408 537 L408 463 L40 463 L40 317 L640 317 L85 -9 Z" /><glyph glyph-name="uni6CD5" unicode="&#x6cd5;" d="M502 270 L356 -48 Q356 -164 441 -164 L704 -164 Q760 -164 809 -116 L826 -164 L984 -166 L902 160 L734 160 L784 -5 Q795 -34 750 -34 L562 -34 L700 270 L962 270 L962 410 L727 410 L727 556 L962 556 L962 696 L727 696 L727 778 L549 778 L549 696 L327 696 L327 556 L467 556 Q549 556 549 483 L549 410 L329 410 L329 270 L502 270 ZM208 -154 L40 -155 L107 76 Q174 290 40 358 L41 531 Q348 445 265 56 L208 -154 ZM55 675 Q55 713 83.5 740 Q112 767 153 767 Q191 767 219.5 740 Q248 713 248 675 Q248 634 219.5 607 Q191 580 153 580 Q112 580 83.5 607 Q55 634 55 675 Z" /><glyph glyph-name="uni5E06" unicode="&#x5e06;" d="M949 -26 L949 666 Q947 769 843 769 L610 769 Q506 769 505 661 L505 -159 L579 -159 Q653 -159 654 -90 L654 639 L727 639 Q800 639 800 572 L800 128 L756 557 L659 557 L720 -3 L800 -3 L800 -67 Q800 -161 896 -162 L984 -162 L984 -51 L973 -51 Q949 -51 949 -26 ZM473 -96 L473 610 Q473 712 382 712 L333 712 L333 778 L184 778 L184 712 L139 712 Q40 712 40 608 L40 -129 L146 -129 L146 582 Q184 582 184 537 L184 -164 L333 -166 L333 582 Q366 582 366 536 L367 -133 Q457 -142 473 -96 Z" /><glyph glyph-name="uni7FFB" unicode="&#x7ffb;" d="M984 -69 L984 666 Q984 769 896 769 L790 769 L790 638 L829 638 Q868 637 868 598 L868 -17 Q860 -41 838 -41 L813 -41 L813 -164 L899 -164 Q984 -164 984 -69 ZM762 659 Q761 769 657 769 L553 769 L553 638 L598 638 Q643 638 643 602 L643 -17 Q637 -41 616 -41 L590 -41 L590 -164 L677 -164 Q761 -164 762 -69 L762 659 ZM788 0 Q775 152 787 238 Q799 324 798.5 371.5 Q798 419 767 585 L827 585 Q852 452 854 390 Q856 328 851 281.5 Q846 235 838.5 180.5 Q831 126 849 0 L788 0 ZM561 -4 Q549 148 560.5 234 Q572 320 572 367.5 Q572 415 541 581 L599 581 Q624 448 626 385.5 Q628 323 623.5 277 Q619 231 611 177 Q603 123 621 -4 L561 -4 ZM55 777 L56 650 L161 650 Q223 651 223 605 L223 558 Q196 558 183 615 L76 615 L90 558 L47 558 L47 443 L161 443 Q223 443 223 383 L223 302 L159 302 Q188 343 202 414 L96 414 Q80 363 40 345 L41 191 L90 227 Q70 207 69 142 L69 -166 L511 -166 L511 135 Q513 186 497 214 L531 191 L530 345 Q502 367 490 414 L381 414 Q398 338 420 302 L356 302 L356 443 L534 443 L534 558 L497 558 L511 615 L405 615 Q391 558 356 558 L356 646 L449 645 Q526 649 526 724 L526 778 L55 777 ZM202 16 Q223 16 223 -17 L223 -51 L175 -51 L175 16 L202 16 ZM175 124 L175 187 L202 187 Q223 187 223 156 L223 124 L175 124 ZM376 16 Q405 16 405 -17 L405 -51 L356 -51 L356 16 L376 16 ZM356 124 L356 187 L376 187 Q405 187 405 156 L405 124 L356 124 Z" /><glyph glyph-name="uni51E1" unicode="&#x51e1;" d="M905 -4 L902 606 Q904 755 765 755 L189 755 Q51 755 51 612 L51 -159 L111 -159 Q210 -159 211 -64 L211 625 L653 625 Q744 625 744 540 L744 -64 Q744 -159 838 -159 L952 -159 L952 -29 L929 -29 Q905 -29 905 -4 ZM493 17 L675 18 L504 462 Q494 504 446 502 L311 502 L493 17 Z" /><glyph glyph-name="uni70E6" unicode="&#x70e6;" d="M451 708 L451 365 Q449 298 354 298 L354 708 L451 708 ZM171 778 L313 778 L313 301 L354 301 L481 -153 L342 -153 L264 102 Q186 -75 43 -166 L42 9 Q119 71 163 247 L171 327 L171 778 ZM134 701 L134 255 Q138 137 40 130 L40 701 L134 701 ZM611 443 L795 443 Q851 443 851 395 L851 60 L808 61 L808 393 L652 393 L652 103 Q612 17 490 -18 L490 -158 Q628 -138 739 -30 L816 -153 L984 -153 L863 52 L969 52 L969 485 Q969 572 870 572 L787 572 L807 646 L977 646 L977 767 L486 767 L486 646 L642 646 L621 572 L595 572 Q492 572 492 478 L492 52 L611 52 L611 443 Z" /><glyph glyph-name="uni8303" unicode="&#x8303;" d="M691 720 L330 720 L330 778 L169 778 L169 720 L40 720 L40 590 L84 590 Q169 590 169 552 L169 532 L330 532 L330 590 L607 590 Q691 590 691 552 L691 532 L852 532 L852 590 L984 590 L984 720 L852 720 L852 778 L691 778 L691 720 ZM894 -166 Q984 -166 984 -84 L984 -22 L586 -22 Q562 -22 562 2 L562 352 L733 352 Q795 352 795 284 L795 214 L673 214 L674 70 L862 70 Q956 70 957 168 L957 378 Q956 496 847 496 L521 496 Q401 494 401 388 L401 -48 Q401 -164 505 -166 L894 -166 ZM275 218 Q217 320 58 354 L57 204 Q246 104 59 -6 L58 -166 Q219 -120 276 -2 Q333 116 275 218 ZM100 430 Q100 466 125.5 490 Q151 514 186 514 Q220 514 245 490 Q270 466 270 430 Q270 394 245 369 Q220 344 186 344 Q151 344 125.5 369 Q100 394 100 430 Z" /><glyph glyph-name="uni996D" unicode="&#x996d;" d="M74 484 L74 -46 Q74 -162 177 -162 L339 -162 L339 -44 L274 -44 Q230 -44 230 0 L230 484 L74 484 ZM40 776 L40 646 Q40 558 123 550 L217 550 Q258 550 258 506 L258 290 L392 290 L392 554 Q398 674 293 674 L187 674 L187 778 L43 778 L40 776 ZM808 414 L766 294 L733 346 Q705 378 657 372 L562 372 L562 414 L808 414 ZM419 644 L419 -12 Q419 -36 419 -162 L482 -162 Q559 -166 564 -82 L564 286 L592 286 L683 126 L557 -166 L687 -166 Q724 -164 738 -134 L770 -64 L824 -166 L984 -166 L857 106 L969 412 Q997 528 893 544 L570 544 L570 634 L883 634 Q961 632 961 722 L961 772 L534 772 Q418 768 419 644 Z" /><glyph glyph-name="uni82B3" unicode="&#x82b3;" d="M307 123 L713 123 Q779 123 779 61 L779 -20 Q779 -44 755 -44 L663 -44 L661 -166 L845 -166 Q939 -166 940 -72 L940 142 Q939 253 811 253 L325 253 L336 338 L984 338 L984 465 L595 465 L595 535 L434 535 L434 465 L40 465 L40 335 L171 335 L95 -161 L266 -159 L307 123 ZM692 704 L341 704 L341 778 L180 778 L180 704 L40 704 L40 574 L129 574 Q180 574 180 501 L341 501 L341 574 L625 574 Q692 574 692 501 L853 501 L853 574 L984 574 L984 704 L853 704 L853 778 L692 778 L692 704 Z" /><glyph glyph-name="uni65B9" unicode="&#x65b9;" d="M322 575 L984 575 L984 708 L596 708 L596 778 L424 778 L424 708 L40 708 L40 578 L154 578 L76 -161 L248 -160 L302 318 L708 318 Q778 318 778 256 L778 -12 Q778 -36 754 -36 L610 -36 L610 -166 L854 -166 Q948 -166 950 -72 L950 323 Q948 457 820 457 L306 457 L322 575 Z" /><glyph glyph-name="uni8BBF" unicode="&#x8bbf;" d="M80 671 Q80 710 108 737.5 Q136 765 177 765 Q216 765 244.5 737.5 Q273 710 273 671 Q273 631 244.5 603 Q216 575 177 575 Q136 575 108 603 Q80 631 80 671 ZM40 537 L203 537 Q289 537 289 436 L289 -48 L354 -48 L354 -162 L214 -162 Q129 -160 126 -62 L127 405 L40 405 L40 537 ZM453 568 L387 -164 L545 -164 L592 312 L750 312 Q817 312 817 243 L817 -12 Q817 -36 789 -36 L717 -36 L716 -166 L864 -166 Q971 -166 972 -72 L972 323 Q971 442 852 442 L603 442 L614 568 L984 568 L984 708 L781 708 L781 778 L596 778 L596 708 L378 708 L378 568 L453 568 Z" /><glyph glyph-name="uni653E" unicode="&#x653e;" d="M92 568 L59 -156 L207 -156 L231 314 L311 314 Q361 314 361 266 L361 -6 Q361 -30 340 -30 L306 -30 L306 -160 L431 -160 Q515 -160 516 -66 L516 336 Q515 444 406 444 L232 444 L236 568 L525 568 L525 706 L365 706 L365 776 L211 776 L211 706 L40 706 L40 568 L92 568 ZM535 466 L641 466 Q688 466 698 504 L708 540 L815 540 L756 338 L721 394 Q699 428 637 434 L544 434 L545 312 L578 314 Q608 310 622 284 L674 170 Q619 68 534 8 L533 -166 Q639 -130 742 6 L818 -160 L984 -160 L846 156 L975 538 Q992 642 901 664 L732 664 L755 778 L601 778 L535 466 Z" /><glyph glyph-name="uni975E" unicode="&#x975e;" d="M291 99 L40 99 L40 -31 L194 -31 Q291 -31 291 -108 L291 -166 L453 -166 L453 778 L291 778 L291 702 L40 702 L40 576 L194 576 Q291 576 291 489 L291 403 L42 403 L42 273 L190 273 Q291 273 291 187 L291 99 ZM727 -31 L984 -31 L984 99 L727 99 L727 273 L982 273 L982 403 L727 403 L727 574 L980 574 L980 704 L727 704 L727 778 L564 778 L564 -166 L727 -166 L727 -31 Z" /><glyph glyph-name="uni5561" unicode="&#x5561;" d="M424 138 L424 8 L450 8 Q516 8 516 -60 L516 -167 L680 -167 L680 779 L516 779 L516 716 L424 716 L424 585 L450 585 Q516 585 516 527 L516 429 L426 429 L426 298 L452 298 Q516 298 516 238 L516 138 L424 138 ZM984 12 L984 142 L898 142 L898 298 L972 298 L972 429 L898 429 L898 585 L976 585 L976 716 L898 716 L898 779 L732 779 L732 -167 L898 -167 L898 12 L984 12 ZM398 652 Q402 760 304 766 L152 766 Q40 766 42 650 L42 -167 L398 -167 L398 652 ZM180 635 L226 635 Q260 635 260 588 L260 -36 L180 -36 L180 635 Z" /><glyph glyph-name="uni8D39" unicode="&#x8d39;" d="M291 742 L41 742 L41 652 L246 652 Q291 652 291 624 L291 612 L124 612 Q46 612 46 540 L46 394 L291 394 L291 384 Q291 370 284 364 Q278 356 262 356 L42 356 L40 280 L374 280 Q411 280 434 306 Q455 330 455 358 L455 394 L500 394 Q546 394 546 354 L546 280 L711 280 L711 394 L766 394 Q822 394 822 340 L822 284 L910 284 Q978 284 979 336 L979 406 Q979 486 898 486 L711 486 L711 522 L958 522 L959 652 Q959 742 860 742 L711 742 L711 778 L546 778 L546 742 L455 742 L455 778 L291 778 L291 742 ZM500 652 Q546 652 546 624 L546 612 L455 612 L455 652 L500 652 ZM291 486 L203 486 L203 522 L256 522 Q291 522 291 494 L291 486 ZM455 522 L500 522 Q546 522 546 494 L546 486 L455 486 L455 522 ZM756 652 Q802 652 802 624 L802 612 L711 612 L711 652 L756 652 ZM838 254 L185 254 Q62 256 62 144 L62 -13 L227 -13 L227 148 L726 148 Q783 148 783 91 L783 -14 L947 -14 L947 142 Q949 254 838 254 ZM705 -158 L984 -160 L698 8 L579 8 L579 114 L415 114 L415 14 Q335 -56 41 -52 L42 -166 Q390 -178 547 -64 L705 -158 Z" /><glyph glyph-name="uni6C1B" unicode="&#x6c1b;" d="M847 514 L43 514 L43 408 L748 408 Q818 408 818 332 L818 -74 Q818 -164 898 -167 L979 -166 L979 400 Q979 514 847 514 ZM984 544 L984 624 L52 624 L52 542 L984 544 ZM980 648 L980 744 L233 744 L233 778 L47 778 L46 704 Q49 648 134 648 L980 648 ZM768 -83 L768 62 Q768 168 671 168 L55 168 L55 54 L163 54 L73 -162 L248 -162 L331 54 L524 54 Q592 54 592 10 L592 -56 Q592 -68 553 -68 L457 -68 L456 -162 L690 -162 Q766 -162 768 -83 ZM184 184 Q230 182 248 206 L346 302 L433 302 Q460 300 479 290 L600 180 L799 180 L652 344 Q629 380 561 380 L254 380 Q188 380 167 344 L40 184 L184 184 Z" /><glyph glyph-name="uni5206" unicode="&#x5206;" d="M854 732 Q827 778 768 778 L377 778 L377 646 L651 646 Q699 646 716 610 L797 406 L984 408 L854 732 ZM178 770 L40 412 L143 412 Q217 410 237 454 L349 770 L178 770 ZM817 358 L56 358 L56 216 L199 216 L84 -164 L275 -164 L388 216 L706 216 Q772 216 772 156 L772 -10 Q772 -34 747 -34 L672 -34 L670 -166 L849 -166 Q944 -166 945 -70 L945 230 Q947 358 817 358 Z" /><glyph glyph-name="uni594B" unicode="&#x594b;" d="M834 315 L200 315 Q58 315 58 183 L58 -166 L968 -166 L969 -71 L969 182 Q968 315 834 315 ZM434 -43 L221 -43 L221 17 L366 17 Q434 17 434 -22 L434 -43 ZM597 17 L740 17 Q805 17 805 -28 L805 -43 L597 -43 L597 17 ZM434 132 L221 132 L221 191 L366 191 Q434 191 434 153 L434 132 ZM597 191 L740 191 Q805 191 805 153 L805 132 L597 132 L597 191 ZM512 481 Q646 321 984 332 L984 475 Q765 465 652 562 L977 562 L977 715 L595 715 L595 778 L428 778 L428 715 L53 715 L53 562 L355 562 Q283 476 41 475 L40 332 Q386 327 512 481 Z" /><glyph glyph-name="uni4EFD" unicode="&#x4efd;" d="M317 772 L167 772 Q131 582 40 522 L41 330 L102 354 L102 -166 L156 -166 Q265 -166 265 -78 L265 410 L165 412 Q280 532 317 772 ZM955 -68 L955 260 Q955 368 827 368 L320 368 L320 230 L429 230 L327 -166 L499 -166 L598 230 L713 230 Q785 230 785 164 L785 -22 Q785 -48 752 -48 L677 -48 L677 -166 L823 -166 Q954 -166 955 -68 ZM437 398 Q490 396 507 442 L572 674 L682 674 Q708 672 725 650 L810 392 L984 392 L883 706 Q864 778 793 778 L497 778 Q427 778 408 708 L316 398 L437 398 Z" /><glyph glyph-name="uni6124" unicode="&#x6124;" d="M761 632 L981 632 L981 746 L761 746 L761 778 L597 778 L597 746 L381 746 L381 632 L549 632 Q597 632 597 581 L761 581 L761 632 ZM789 554 L573 554 L573 597 L425 597 L425 554 L377 554 L377 431 Q425 431 425 397 L573 397 L573 431 L747 431 Q789 431 789 397 L937 397 L937 431 L984 431 L984 554 L937 554 L937 597 L789 597 L789 554 ZM40 728 L40 -135 L95 -135 Q150 -135 150 -79 L150 728 L40 728 ZM180 778 L180 -166 L320 -166 L320 458 L364 458 L364 588 L320 588 L320 778 L180 778 ZM752 -8 L752 221 L587 221 L587 18 Q534 -37 371 -35 L371 -165 L455 -165 Q586 -161 709 -73 L790 -164 L975 -165 L856 -16 L971 -16 L971 255 Q971 377 873 377 L496 377 Q382 377 382 258 L382 -7 L526 -7 L526 258 L754 258 Q826 258 826 194 L826 -9 L752 -8 Z" /><glyph glyph-name="uni4E30" unicode="&#x4e30;" d="M428 673 L44 673 L44 543 L324 543 Q428 543 428 456 L428 388 L48 388 L48 258 L326 258 Q428 258 428 173 L428 107 L40 107 L40 -23 L322 -23 Q428 -23 428 -114 L428 -166 L609 -166 L609 -23 L914 -23 Q984 -23 984 52 L984 107 L609 107 L609 258 L982 258 L982 388 L609 388 L609 543 L980 543 L980 673 L609 673 L609 778 L428 778 L428 673 Z" /><glyph glyph-name="uni5C01" unicode="&#x5c01;" d="M785 673 L527 673 L527 543 L680 543 Q785 543 785 439 L785 0 Q785 -16 777 -25 Q768 -35 749 -36 L666 -36 L668 -166 L848 -166 Q892 -166 920 -133 Q945 -103 945 -69 L945 543 L984 543 L984 673 L945 673 L945 778 L785 778 L785 673 ZM40 327 L495 327 L495 457 L348 457 L348 578 L500 578 L500 708 L348 708 L348 774 L187 774 L187 708 L42 708 L42 578 L109 578 Q187 578 187 508 L187 457 L40 457 L40 327 ZM348 285 L187 285 L187 218 L42 218 L42 88 L106 88 Q187 88 187 7 L187 -36 L44 -36 L44 -166 L404 -166 Q495 -166 495 -91 L495 -36 L348 -36 L348 88 L495 88 L495 218 L348 218 L348 285 ZM634 439 L533 439 L599 77 L749 77 L694 397 Q676 437 634 439 Z" /><glyph glyph-name="uni5CF0" unicode="&#x5cf0;" d="M446 -66 L446 728 L361 728 L361 -36 L321 -36 L321 779 L166 779 L166 -36 L126 -36 L126 728 L40 728 L40 -36 Q40 -167 136 -167 L340 -167 Q446 -167 446 -66 ZM797 -112 L983 -112 L983 -13 L797 -13 L797 31 L977 31 L977 137 L797 137 L797 182 L979 182 L979 290 L797 290 L797 321 L643 321 L643 290 L474 290 L474 182 L578 182 Q643 182 643 149 L643 137 L476 137 L476 31 L580 31 Q643 31 643 0 L643 -13 L470 -13 L470 -112 L576 -112 Q643 -112 643 -154 L643 -167 L797 -167 L797 -112 ZM714 778 L568 778 Q531 738 477 718 L477 594 Q555 611 606 642 L819 642 L767 557 L724 590 Q593 642 501 564 Q435 492 487 398 Q527 357 581 346 Q635 335 719 352 L775 381 L811 344 L989 344 L875 466 L977 629 Q1005 719 900 749 L698 749 L714 778 ZM581 473 Q581 487 596 496 Q611 505 633 505 Q673 500 701 475 Q673 451 633 442 Q611 442 596 451.5 Q581 461 581 473 Z" /><glyph glyph-name="uni950B" unicode="&#x950b;" d="M376 526 L55 526 L55 386 L85 386 Q151 386 151 328 L151 271 L40 271 L40 131 L77 131 Q151 131 151 55 L151 -59 Q157 -156 226 -166 L383 -166 L383 -38 L323 -38 Q300 -38 300 -9 L300 131 L383 131 L383 271 L300 271 L300 386 L376 386 L376 526 ZM47 770 L47 657 Q44 574 131 563 L378 563 L378 692 L187 692 L187 770 L47 770 ZM773 -112 L974 -112 L974 -12 L773 -12 L773 31 L967 31 L967 136 L773 136 L773 181 L969 181 L969 288 L773 288 L773 320 L605 320 L605 288 L421 288 L421 181 L543 181 Q605 181 605 148 L605 136 L424 136 L424 31 L545 31 Q605 31 605 0 L605 -12 L418 -12 L418 -112 L541 -112 Q605 -112 605 -153 L605 -166 L773 -166 L773 -112 ZM684 770 L525 770 Q484 730 425 710 L425 588 Q510 604 566 635 L807 635 L752 549 L695 583 Q552 635 451 558 Q379 486 436 393 Q480 353 539 342 Q598 331 690 348 L751 376 L790 339 L985 339 L860 461 L972 622 Q992 732 888 741 L667 741 L684 770 ZM539 468 Q539 481 555.5 490.5 Q572 500 596 500 Q639 495 670 469 Q639 446 596 437 Q572 437 555.5 446.5 Q539 456 539 468 Z" /><glyph glyph-name="uni98CE" unicode="&#x98ce;" d="M919 -10 L919 630 Q921 778 781 778 L184 778 Q42 778 42 632 L43 -164 L113 -162 Q206 -166 207 -80 L207 646 L693 646 Q755 646 755 582 L755 -70 Q755 -166 852 -166 L982 -166 L982 -34 L944 -34 Q919 -34 919 -10 ZM581 260 L746 584 L578 584 L490 412 L394 584 L224 584 L393 254 L213 -48 L360 -48 Q405 -48 418 -14 L489 104 L578 -54 L749 -52 L581 260 Z" /><glyph glyph-name="uni51AF" unicode="&#x51af;" d="M40 694 Q40 728 65.5 753 Q91 778 126 778 Q161 778 186 753 Q211 728 211 694 Q211 659 186 634.5 Q161 610 126 610 Q91 610 65.5 634.5 Q40 659 40 694 ZM193 -166 L217 480 L69 480 L45 -166 L193 -166 ZM283 121 L283 -25 L630 28 Q688 40 688 90 L688 186 L283 121 ZM319 773 L319 651 L701 651 Q776 651 776 592 L714 357 L490 357 L540 571 L368 571 L319 331 Q319 230 445 230 L727 230 Q812 230 812 175 L812 -18 Q812 -44 774 -44 L477 -44 L477 -163 L873 -163 Q978 -163 984 -56 L984 234 Q965 353 879 361 L822 361 Q906 366 919 462 L956 651 Q956 766 837 773 L319 773 Z" /><glyph glyph-name="uni51E4" unicode="&#x51e4;" d="M921 -10 L921 644 Q923 778 800 778 L164 778 Q40 778 40 644 L41 -164 L101 -164 Q200 -160 197 -70 L197 646 L703 646 Q764 646 764 584 L764 -70 Q764 -166 862 -166 L984 -166 L984 -34 L946 -34 Q921 -34 921 -10 ZM645 590 L243 590 L243 458 L557 458 L479 296 L428 394 L258 394 L394 152 L229 -120 L364 -120 Q401 -120 424 -80 L485 20 L566 -124 L729 -124 L575 164 L716 426 Q755 566 645 590 Z" /><glyph glyph-name="uni5426" unicode="&#x5426;" d="M975 758 L40 758 L40 629 L252 629 Q202 547 54 472 L54 304 Q313 394 450 629 L975 629 L975 758 ZM698 116 Q787 116 787 34 L787 -37 L234 -37 L234 116 L698 116 ZM797 300 L973 300 L854 531 Q824 582 745 574 L430 574 L430 245 L191 245 Q74 245 74 139 L74 -166 L947 -166 L947 134 Q947 245 828 245 L593 245 L591 476 L660 476 Q688 476 704 455 L797 300 Z" /><glyph glyph-name="uni592B" unicode="&#x592b;" d="M517 106 Q674 -97 971 -166 L971 -12 Q768 44 629 225 L984 224 L984 355 L605 355 L605 553 L972 553 L972 683 L605 683 L605 771 L424 771 L424 683 L55 683 L55 553 L347 553 Q424 553 424 471 L424 355 L40 355 L40 224 L393 224 Q290 80 47 -7 L47 -163 Q356 -86 517 106 Z" /><glyph glyph-name="uni5B75" unicode="&#x5b75;" d="M920 376 L642 376 L642 260 L792 260 L748 196 L748 174 L634 174 L634 43 L692 43 Q748 43 748 8 L748 -26 Q748 -51 724 -51 L674 -51 L672 -166 L796 -166 Q890 -166 890 -71 L890 43 L976 43 L976 174 L894 174 L954 260 Q992 345 920 376 ZM46 668 L46 111 Q46 -2 160 -3 L228 -3 L228 -17 Q228 -28 222 -35 Q216 -42 202 -43 L40 -43 L42 -166 L216 -166 Q268 -166 288 -143 Q304 -121 304 -98 L304 598 L228 598 L228 312 L206 514 L156 516 L186 154 L228 149 L228 120 L178 120 Q154 120 154 144 L154 643 L300 643 L300 778 L146 778 Q46 778 46 668 ZM524 -106 L568 -104 Q614 -103 616 -59 L616 416 L686 416 Q726 416 736 476 L754 562 L790 404 L872 404 L830 625 L764 625 L772 654 L972 655 L974 778 L732 778 Q660 776 650 702 L618 505 L616 679 Q618 777 526 777 L330 777 L330 -166 L452 -166 L452 646 L488 646 Q524 646 524 592 L524 309 L508 521 L452 519 L488 129 L524 127 L524 -106 ZM904 406 L984 406 L942 624 L856 624 L904 406 Z" /><glyph glyph-name="uni7B26" unicode="&#x7b26;" d="M921 -72 L921 270 L984 270 L984 402 L921 402 L921 474 L757 474 L757 402 L363 402 L363 270 L652 270 Q757 270 757 172 L756 6 Q756 -34 735 -36 L667 -36 L665 -166 L755 -166 Q866 -172 896 -138 Q920 -108 921 -72 ZM442 96 Q442 131 468.5 157.5 Q495 184 533 184 Q568 184 594.5 157.5 Q621 131 621 96 Q621 60 594.5 33.5 Q568 7 533 7 Q495 7 468.5 33.5 Q442 60 442 96 ZM319 466 L165 466 Q119 368 40 344 L40 186 L103 198 L103 -166 L203 -166 Q271 -166 271 -102 L271 218 L146 218 Q248 286 319 466 ZM521 769 L171 769 Q58 769 57 663 L57 496 L157 496 Q209 498 212 546 L212 655 L231 655 L327 519 Q351 497 404 500 L606 500 Q694 496 699 563 L699 654 L732 654 L801 500 L959 500 L896 655 L959 655 L959 769 L660 769 Q546 769 545 664 L545 613 Q519 492 424 657 L521 657 L521 769 Z" /><glyph glyph-name="uni670D" unicode="&#x670d;" d="M488 644 L488 -166 L704 -166 Q740 -172 760 -144 L795 -70 L840 -166 L984 -166 L862 72 L976 342 Q991 448 922 460 L627 460 L627 640 L778 640 Q821 640 821 596 L821 496 L966 496 L966 660 Q966 778 847 778 L622 778 Q491 778 488 644 ZM825 326 L784 220 L771 246 Q755 274 732 274 L627 274 L627 326 L825 326 ZM717 76 L627 -142 L627 188 Q648 202 670 160 L717 76 ZM452 -84 L452 654 Q452 778 337 778 L171 778 Q39 778 41 648 L41 -164 L179 -164 L179 82 L253 82 Q305 82 306 14 L306 -164 L372 -166 Q451 -168 452 -84 ZM179 364 L246 364 Q300 364 300 298 L300 216 L179 216 L179 364 ZM179 646 L246 646 Q300 646 300 576 L300 498 L179 498 L179 646 Z" /><glyph glyph-name="uni798F" unicode="&#x798f;" d="M470 769 L470 654 L984 654 L984 769 L470 769 ZM968 507 Q968 614 864 614 L590 614 Q484 614 484 507 L484 339 L968 339 L968 507 ZM786 506 Q824 506 824 471 L824 447 L638 447 L638 506 L786 506 ZM976 177 Q976 307 866 307 L590 307 Q470 307 468 181 L468 -166 L976 -166 L976 177 ZM622 13 Q654 13 654 -13 L654 -58 L600 -58 L600 13 L622 13 ZM600 128 L600 199 L622 199 Q654 199 654 174 L654 128 L600 128 ZM812 13 Q844 13 844 -10 L844 -58 L790 -58 L790 13 L812 13 ZM790 128 L790 199 L812 199 Q844 199 844 174 L844 128 L790 128 ZM216 283 Q249 314 276 349 L332 111 L455 111 L405 348 Q394 384 366 386 L306 387 Q361 444 418 549 Q451 635 379 671 L300 672 L300 778 L149 778 L149 672 L40 672 L40 541 L235 542 Q162 424 42 326 L42 140 Q106 186 135 215 L135 -166 L226 -166 Q289 -166 289 -94 L289 283 L216 283 Z" /><glyph glyph-name="uni4FEF" unicode="&#x4fef;" d="M813 492 L667 492 L667 363 L735 363 Q813 363 813 276 L813 -18 Q813 -32 805 -42 Q799 -52 779 -52 L739 -52 L740 -164 L864 -164 Q906 -164 933 -133 Q957 -104 957 -72 L957 363 L984 363 L984 492 L957 492 L957 551 L813 551 L813 492 ZM289 587 L287 -164 L349 -164 Q434 -164 435 -70 L435 597 L984 597 L984 727 L737 727 L737 778 L575 778 L575 727 L433 727 Q287 727 289 587 ZM647 182 Q647 211 667.5 231.5 Q688 252 718 252 Q747 252 768 231.5 Q789 211 789 182 Q789 152 768 131.5 Q747 111 718 111 Q688 111 667.5 131.5 Q647 152 647 182 ZM664 547 L531 547 Q507 450 450 409 L450 228 L495 249 L495 -166 L543 -166 Q627 -166 627 -91 L627 272 L531 271 Q626 381 664 547 ZM300 770 L160 770 Q126 582 40 521 L41 331 L98 355 L98 -164 L149 -164 Q251 -164 251 -77 L251 411 L158 412 Q265 531 300 770 Z" /><glyph glyph-name="uni8150" unicode="&#x8150;" d="M751 175 Q828 175 828 125 L828 76 L769 121 Q746 144 703 144 L627 144 L649 175 L751 175 ZM465 175 L387 80 L387 175 L465 175 ZM782 557 L490 557 L490 466 L702 466 Q782 466 781 383 L781 312 L845 312 Q921 312 924 378 L926 466 L981 466 L981 557 L926 557 L926 597 L984 597 L984 731 L592 731 L592 778 L429 778 L429 731 L204 731 Q40 731 40 569 L41 -158 Q193 -164 194 -96 L194 597 L298 597 Q271 560 216 528 L216 401 L291 428 L291 312 L445 312 L445 511 L421 511 L467 597 L782 597 L782 557 ZM591 385 Q591 412 611.5 431.5 Q632 451 659 451 Q686 451 706.5 431.5 Q727 412 727 385 Q727 358 706.5 338.5 Q686 319 659 319 Q632 319 611.5 338.5 Q591 358 591 385 ZM236 161 L236 -166 L387 -166 L389 -124 L503 -124 L592 -46 L676 -128 L832 -128 L741 -30 Q723 -11 698 -11 L624 -11 L670 25 L499 25 L387 -66 L387 31 L527 31 L587 96 L678 31 L825 31 L826 -166 L880 -166 Q968 -166 969 -72 L969 168 Q969 286 860 286 L701 286 L715 310 L542 310 L523 286 L370 286 Q236 286 236 161 Z" /><glyph glyph-name="uni8D74" unicode="&#x8d74;" d="M570 779 L570 8 L729 8 L729 540 L739 540 Q778 540 781 499 L839 25 L984 27 L916 566 Q912 642 826 642 L729 642 L729 779 L570 779 ZM40 314 L41 -165 L180 -166 L180 -106 Q200 -155 266 -165 L901 -167 Q984 -167 984 -81 L984 -36 L392 -36 L392 116 L506 116 L506 247 L392 247 L392 360 L514 360 L514 491 L373 491 L373 593 L510 593 L510 723 L373 723 L373 779 L209 779 L209 723 L45 723 L45 593 L142 593 Q209 593 209 532 L209 491 L41 491 L41 360 L160 360 Q239 360 239 291 L239 -31 Q181 -21 179 28 L179 314 L40 314 Z" /><glyph glyph-name="uni590D" unicode="&#x590d;" d="M726 370 Q787 370 787 344 L787 330 L280 330 L280 370 L726 370 ZM280 446 L280 482 L726 482 Q787 482 787 454 L787 446 L280 446 ZM239 -52 Q249 -42 279.5 -36 Q310 -30 351 -30 Q428 -34 484 -50 Q428 -70 351 -74 Q310 -74 279.5 -68 Q249 -62 239 -52 ZM257 620 L976 620 L976 736 L297 736 L311 778 L151 778 Q117 686 40 652 L40 486 L130 528 Q112 504 112 452 L112 222 L149 224 Q107 180 50 160 L50 14 Q168 50 215 86 L719 86 L612 12 L498 44 Q262 90 134 22 Q44 -38 118 -128 Q198 -160 274.5 -165 Q351 -170 495 -154 L638 -120 L724 -162 L984 -162 L761 -46 L949 70 Q983 166 890 180 L288 180 L322 222 L937 222 L935 474 Q935 588 821 588 L224 588 L257 620 Z" /><glyph glyph-name="uni4ED8" unicode="&#x4ed8;" d="M753 677 L345 677 L345 536 L640 536 Q753 536 753 422 L753 0 Q753 -15 745 -25 Q737 -35 717 -36 L642 -36 L644 -167 L817 -167 Q861 -167 890 -134 Q914 -104 915 -69 L915 536 L984 536 L984 677 L915 677 L915 779 L753 779 L753 677 ZM315 775 L166 775 Q131 585 40 524 L41 332 L101 356 L101 -167 L156 -167 Q263 -167 263 -78 L263 413 L164 413 Q279 534 315 775 ZM491 439 Q533 439 553 396 L659 83 L493 83 L363 439 L491 439 Z" /><glyph glyph-name="uni7236" unicode="&#x7236;" d="M150 431 L412 153 Q276 43 45 -2 L44 -166 Q341 -114 535 31 L753 -166 L984 -166 L651 144 Q766 267 859 430 L983 363 L983 554 Q864 622 817 770 L633 770 Q709 585 808 480 L695 480 Q638 368 532 259 L321 478 L198 478 Q315 607 376 770 L202 770 Q144 631 41 562 L40 362 L150 431 Z" /><glyph glyph-name="uni5BCC" unicode="&#x5bcc;" d="M203 643 L770 643 Q822 643 822 616 L822 590 L984 590 L984 658 Q984 742 893 742 L596 742 L596 778 L433 778 L433 742 L130 742 Q40 741 40 658 L40 590 L203 590 L203 643 ZM75 571 L75 503 L949 503 L949 571 L75 571 ZM184 472 Q75 472 75 357 L75 239 L949 239 L949 352 Q949 472 837 472 L184 472 ZM714 381 Q787 381 787 344 L787 330 L238 330 L238 381 L714 381 ZM800 210 L213 210 Q74 210 74 74 L74 -166 L947 -166 L945 71 Q947 210 800 210 ZM360 -22 Q432 -22 432 -56 L432 -71 L233 -71 L233 -22 L360 -22 ZM233 70 L233 115 L360 115 Q432 115 432 82 L432 70 L233 70 ZM717 -22 Q786 -22 786 -56 L786 -71 L591 -71 L591 -22 L717 -22 ZM591 70 L591 115 L717 115 Q786 115 786 82 L786 70 L591 70 Z" /><glyph glyph-name="uni8BE5" unicode="&#x8be5;" d="M675 592 L974 592 L974 723 L781 723 L781 778 L619 778 L619 723 L373 723 L373 592 L504 592 L386 438 Q370 330 451 324 L594 324 Q543 250 388 173 L389 27 Q748 139 885 542 L730 542 Q707 466 691 455 L584 455 L675 592 ZM834 334 Q712 49 394 -35 L392 -166 Q599 -143 717 -48 L796 -163 L977 -161 L829 57 Q894 124 984 334 L834 334 ZM90 675 Q90 712 116.5 738.5 Q143 765 181 765 Q217 765 243.5 738.5 Q270 712 270 675 Q270 637 243.5 610.5 Q217 584 181 584 Q143 584 116.5 610.5 Q90 637 90 675 ZM40 536 L192 536 Q286 536 286 445 L286 -32 L357 -32 L357 -166 L226 -166 Q134 -164 131 -56 L132 404 L40 404 L40 536 Z" /><glyph glyph-name="uni6539" unicode="&#x6539;" d="M53 386 L53 -58 Q53 -158 158 -160 L333 -160 Q410 -160 410 -78 L410 -32 L230 -32 Q206 -32 206 -8 L206 260 L409 260 L410 634 Q410 750 299 750 L40 750 L40 622 L186 622 Q257 622 257 564 L257 388 L53 386 ZM451 466 L544 468 Q592 466 617 508 L632 568 L811 568 Q782 412 723 286 L660 384 Q634 420 570 424 L459 424 L460 312 L500 312 Q528 308 544 282 L628 144 Q557 52 447 0 L446 -166 Q589 -112 707 6 L811 -160 L984 -160 L813 120 Q908 298 973 580 Q979 688 885 694 L653 694 L669 778 L516 778 L451 466 Z" /><glyph glyph-name="uni6982" unicode="&#x6982;" d="M542 420 Q574 420 574 387 L574 322 L519 322 L519 420 L542 420 ZM519 534 L519 635 L542 635 Q574 635 574 599 L574 534 L519 534 ZM391 675 L391 -73 Q391 -162 465 -162 L492 -162 Q555 -162 578 -120 L577 -159 L670 -159 L671 138 L574 138 L574 -2 Q574 -15 568 -23 Q564 -29 554 -32 Q540 -32 525 -32 L519 -32 L519 192 L682 192 L683 681 Q683 765 587 765 L490 765 Q392 765 391 675 ZM671 -162 L792 -162 L852 45 L852 -113 Q850 -162 925 -162 L984 -162 L983 -48 L959 -48 L960 215 L897 215 L911 266 L983 266 L983 396 L946 396 L946 635 L983 635 L983 765 L710 765 L710 635 L760 635 Q816 635 816 582 L816 396 L788 396 L788 581 L711 581 L711 326 Q711 266 768 266 L785 266 L671 -162 ZM367 571 L367 702 L282 702 L282 780 L155 780 L155 702 L36 702 L36 571 L91 571 Q155 568 155 487 L155 -166 L282 -166 L282 571 L367 571 ZM41 505 L41 -121 L84 -121 Q129 -107 127 -47 L127 394 Q130 495 77 504 L41 505 ZM300 242 Q300 325 311 385.5 Q322 446 337 446 Q352 446 363 385.5 Q374 325 374 242 Q374 156 363 96.5 Q352 37 337 37 Q322 37 311 96.5 Q300 156 300 242 Z" /><glyph glyph-name="uni5E72" unicode="&#x5e72;" d="M424 363 L40 363 L40 220 L328 220 Q424 220 424 110 L424 -158 L596 -158 L596 220 L896 220 Q984 220 984 300 L984 363 L596 363 L596 625 L952 625 L952 766 L58 766 L58 625 L332 625 Q424 625 424 527 L424 363 Z" /><glyph glyph-name="uni8D76" unicode="&#x8d76;" d="M667 437 L504 437 L504 306 L580 306 Q667 306 667 207 L667 -8 L823 -8 L823 306 L982 306 L982 437 L823 437 L823 631 L979 631 L979 762 L510 762 L510 631 L583 631 Q667 631 667 544 L667 437 ZM40 314 L41 -165 L180 -166 L180 -86 Q200 -155 266 -165 L901 -167 Q984 -167 984 -81 L984 -36 L372 -36 L372 116 L466 116 L466 247 L372 247 L372 360 L474 360 L474 491 L353 491 L353 593 L470 593 L470 723 L353 723 L353 779 L189 779 L189 723 L45 723 L45 593 L122 593 Q189 593 189 542 L189 491 L41 491 L41 360 L130 360 Q219 360 219 291 L219 -31 Q181 -1 179 48 L179 314 L40 314 Z" /><glyph glyph-name="uni611F" unicode="&#x611f;" d="M233 565 L233 461 L636 461 L636 565 L233 565 ZM636 318 Q636 417 532 417 L340 417 Q237 417 237 311 L237 139 L638 139 L636 318 ZM459 306 Q498 306 498 275 L498 251 L375 251 L375 306 L459 306 ZM48 587 L48 138 L114 138 Q198 138 199 232 L199 606 L645 606 L808 141 L973 141 L901 338 L984 387 L984 539 L852 467 L804 606 L891 606 Q967 606 966 685 L942 769 L810 769 L825 729 L772 729 L757 779 L599 779 L613 729 L196 729 Q48 729 48 587 ZM40 106 L40 -165 L116 -165 Q194 -162 192 -65 L192 106 L40 106 ZM231 108 L231 -67 Q231 -165 330 -167 L909 -167 Q977 -167 977 -106 L977 -65 L420 -65 Q393 -65 393 -45 L393 108 L231 108 ZM599 111 L421 111 L472 -21 Q481 -42 525 -44 L638 -44 Q663 -44 680 -35 L796 44 L796 -44 L966 -44 L966 56 Q962 113 908 113 L804 113 Q770 112 755 96 L660 32 Q636 18 627 33 L599 111 Z" /><glyph glyph-name="uni6562" unicode="&#x6562;" d="M305 89 Q350 89 350 48 L350 26 L220 26 L220 89 L305 89 ZM305 275 Q350 275 350 234 L350 212 L220 212 L220 275 L305 275 ZM305 455 Q350 455 350 416 L350 398 L220 398 L220 455 L305 455 ZM463 766 L52 766 L52 643 L322 643 L288 582 L40 582 L40 455 L76 455 L76 26 L40 26 L40 -105 L253 -105 Q350 -105 350 -145 L350 -167 L498 -167 L498 -105 L539 -105 L539 26 L498 26 L498 455 L596 455 Q673 455 695 527 L704 562 L796 562 L736 363 L713 418 L544 418 L658 151 L527 -167 L639 -167 Q689 -167 712 -117 L753 -21 L823 -152 L984 -151 L823 157 L955 547 Q999 662 912 692 L744 692 L771 779 L610 779 L557 611 Q551 590 533 582 Q527 582 523 582 L461 582 L492 643 Q538 727 463 766 Z" /><glyph glyph-name="uni5C97" unicode="&#x5c97;" d="M157 546 L847 546 Q975 546 975 640 L975 753 L816 753 L816 670 L599 669 L599 779 L432 779 L432 669 L211 669 L211 753 L52 753 L49 645 Q52 545 157 546 ZM881 -167 Q968 -167 969 -97 L969 364 Q968 517 845 517 L196 517 Q62 518 62 365 L62 -167 L219 -167 L219 373 L734 373 Q812 373 812 288 L812 -167 L881 -167 ZM612 123 L786 333 L605 333 L515 230 L428 333 L239 333 L413 122 L240 -75 L437 -75 L517 14 L595 -75 L796 -75 L612 123 Z" /><glyph glyph-name="uni9AD8" unicode="&#x9ad8;" d="M595 778 L424 778 L424 746 L40 746 L40 632 L984 632 L984 746 L595 746 L595 778 ZM188 590 Q78 590 78 489 L78 348 L953 348 L951 488 Q951 590 840 590 L188 590 ZM737 495 Q787 495 787 458 L787 444 L242 444 L242 495 L737 495 ZM551 31 Q600 31 600 -16 L600 -40 L437 -40 L437 31 L551 31 ZM851 307 L175 307 Q54 307 54 176 L54 -166 L215 -166 L215 192 L745 192 Q819 192 820 109 L820 -166 L899 -166 Q979 -166 980 -72 L980 182 Q979 307 851 307 ZM757 -51 L757 41 Q758 145 651 145 L389 145 Q281 145 280 51 L280 -154 L756 -154 L757 -51 Z" /></font>
</defs>
</svg>
