<?xml version="1.0" standalone="no"?><!DOCTYPE svg PUBLIC "-//W3C//DTD SVG 1.1//EN" "http://www.w3.org/Graphics/SVG/1.1/DTD/svg11.dtd" ><svg xmlns="http://www.w3.org/2000/svg"><metadata></metadata><defs><font id="fonteditor" horiz-adv-x="1000"><font-face font-family="ùe¹ ~ÆOS" font-weight="400" font-stretch="normal" units-per-em="1000" panose-1="2 11 2 0 0 0 0 0 0 0" ascent="1060" descent="-340" x-height="0" bbox="-15 -212 1000 837" underline-thickness="0" underline-position="0" unicode-range="U+0022-ffe5" /><missing-glyph horiz-adv-x="1000"  /><glyph glyph-name="quotedbl" unicode="&quot;" d="M257 728 Q304 728 304 662 Q304 556 219 507 L203 533 Q268 578 271 650 L258 649 Q238 649 228 659 Q217 669 217 687 Q217 708 227 718 Q237 728 257 728 ZM114 728 Q161 728 161 662 Q161 555 77 507 L60 533 Q125 578 128 650 L115 649 Q95 649 85 659 Q74 669 74 687 Q74 708 84 718 Q94 728 114 728 Z" /><glyph glyph-name="numbersign" unicode="#" d="M72 529 L201 529 L231 714 L266 714 L237 529 L418 529 L448 714 L483 714 L453 529 L571 529 L565 496 L448 496 L404 215 L534 215 L528 182 L399 182 L370 0 L334 0 L363 182 L182 182 L153 0 L117 0 L146 182 L29 182 L35 215 L151 215 L196 496 L66 496 L72 529 ZM187 215 L368 215 L413 496 L232 496 L187 215 Z" /><glyph glyph-name="percent" unicode="%" d="M718 391 Q793 391 832 333 Q868 282 868 196 Q868 112 832 59 Q793 0 718 0 Q642 0 603 59 Q568 109 568 196 Q568 283 603 333 Q642 391 718 391 ZM650 728 L687 728 L287 -14 L251 -14 L650 728 ZM219 714 Q295 714 334 656 Q370 605 370 519 Q370 435 334 382 Q295 323 219 323 Q144 323 105 382 Q70 432 70 519 Q70 606 105 656 Q144 714 219 714 ZM718 359 Q660 359 633 314 Q605 273 605 196 Q605 121 633 78 Q661 32 718 32 Q773 32 803 79 Q831 123 831 196 Q831 270 803 314 Q773 359 718 359 ZM219 682 Q163 682 134 637 Q107 595 107 519 Q107 445 134 401 Q163 355 219 355 Q275 355 305 402 Q333 446 333 519 Q333 594 304 637 Q274 682 219 682 Z" /><glyph glyph-name="quotesingle" unicode="&#39;" d="M114 728 Q161 728 161 662 Q161 555 77 507 L60 533 Q125 578 128 650 L115 649 Q95 649 85 659 Q74 669 74 687 Q74 708 84 718 Q94 728 114 728 Z" /><glyph glyph-name="parenleft" unicode="(" d="M254 827 Q196 732 160 619 Q117 489 117 360 Q117 233 160 101 Q197 -14 254 -107 L215 -107 Q158 -13 121 100 Q79 234 79 360 Q79 487 121 619 Q157 734 215 827 L254 827 Z" /><glyph glyph-name="parenright" unicode=")" d="M118 827 Q177 728 212 619 Q254 487 254 360 Q254 234 212 100 Q177 -7 118 -107 L79 -107 Q137 -8 173 101 Q216 238 216 360 Q216 484 173 619 Q139 727 79 827 L118 827 Z" /><glyph glyph-name="plus" unicode="+" d="M285 511 L321 511 L321 277 L555 277 L555 241 L321 241 L321 6 L285 6 L285 241 L50 241 L50 277 L285 277 L285 511 Z" /><glyph glyph-name="comma" unicode="," d="M124 79 Q172 79 172 14 Q172 -94 87 -141 L70 -115 Q135 -70 138 1 L125 0 Q107 0 95 10 Q84 20 84 39 Q84 59 94 69 Q105 79 124 79 Z" /><glyph glyph-name="hyphen" unicode="-" d="M50 277 L555 277 L555 241 L50 241 L50 277 Z" /><glyph glyph-name="period" unicode="." d="M125 80 Q142 80 154 68 Q165 57 165 40 Q165 24 153 12 Q141 0 125 0 Q108 0 97 12 Q85 24 85 40 Q85 58 97 68 Q108 80 125 80 Z" /><glyph glyph-name="slash" unicode="/" d="M413 820 L450 820 L87 -100 L50 -100 L413 820 Z" /><glyph glyph-name="zero" unicode="0" d="M300 728 Q431 728 491 605 Q537 510 537 357 Q537 206 491 109 Q431 -14 300 -14 Q169 -14 109 109 Q63 201 63 357 Q63 513 109 605 Q169 728 300 728 ZM300 692 Q190 692 140 581 Q102 501 102 357 Q102 215 140 133 Q190 22 300 22 Q409 22 460 133 Q499 217 499 357 Q499 497 460 581 Q409 692 300 692 Z" /><glyph glyph-name="one" unicode="1" d="M339 714 L339 0 L300 0 L300 664 Q228 581 125 552 L125 593 Q174 607 223 639 Q268 669 304 714 L339 714 Z" /><glyph glyph-name="two" unicode="2" d="M308 728 Q402 728 463 674 Q524 619 524 529 Q524 435 453 361 Q421 327 305 247 Q136 132 121 37 L525 37 L525 0 L75 0 Q75 85 146 162 Q191 213 290 282 Q394 357 420 383 Q485 451 485 529 Q485 604 435 648 Q388 692 308 692 Q224 692 176 638 Q122 581 122 475 L84 475 Q84 596 148 663 Q207 728 308 728 Z" /><glyph glyph-name="three" unicode="3" d="M307 728 Q403 728 462 676 Q521 623 521 539 Q521 412 406 373 Q467 353 501 309 Q536 263 536 201 Q536 106 470 46 Q404 -14 301 -14 Q213 -14 151 33 Q73 93 64 213 L103 213 Q109 112 175 61 Q229 21 301 21 Q389 21 443 72 Q497 123 497 200 Q497 270 448 313 Q401 356 320 356 L252 356 L252 390 L312 390 Q395 390 438 429 Q482 467 482 537 Q482 605 436 648 Q389 692 307 692 Q225 692 178 645 Q130 600 119 517 L81 517 Q92 615 152 672 Q209 728 307 728 Z" /><glyph glyph-name="four" unicode="4" d="M404 714 L444 714 L444 207 L572 207 L572 172 L444 172 L444 0 L406 0 L406 172 L29 172 L29 211 L404 714 ZM403 658 L68 207 L406 207 L406 658 L403 658 Z" /><glyph glyph-name="five" unicode="5" d="M120 714 L512 714 L512 677 L154 677 L127 387 L130 387 Q161 427 210 448 Q253 468 306 468 Q409 468 471 406 Q536 341 536 226 Q536 123 468 53 Q399 -14 296 -14 Q207 -14 143 36 Q72 90 64 186 L104 186 Q110 108 168 62 Q221 21 296 21 Q383 21 441 79 Q498 139 498 226 Q498 325 442 381 Q389 433 301 433 Q244 433 196 406 Q147 378 123 329 L85 329 L120 714 Z" /><glyph glyph-name="six" unicode="6" d="M311 728 Q495 728 526 542 L487 542 Q460 692 310 692 Q211 692 156 592 Q102 499 102 350 Q102 330 103 304 L106 304 Q129 375 185 416 Q241 459 314 459 Q415 459 476 394 Q537 330 537 228 Q537 125 475 55 Q411 -14 310 -14 Q182 -14 118 86 Q64 176 64 340 Q64 505 125 612 Q190 728 311 728 ZM310 424 Q232 424 175 367 Q117 310 117 228 Q117 145 166 86 Q220 21 309 21 Q393 21 446 80 Q499 139 499 228 Q499 315 447 370 Q395 424 310 424 Z" /><glyph glyph-name="seven" unicode="7" d="M74 714 L526 714 L526 680 L248 0 L205 0 L484 677 L74 677 L74 714 Z" /><glyph glyph-name="eight" unicode="8" d="M300 728 Q407 728 466 673 Q520 625 520 547 Q520 489 489 446 Q457 402 397 384 L397 380 Q462 368 503 316 Q546 262 546 192 Q546 103 485 45 Q418 -14 300 -14 Q180 -14 115 45 Q54 102 54 192 Q54 264 97 316 Q138 368 204 380 L204 384 Q143 402 111 446 Q80 487 80 547 Q80 625 134 673 Q192 728 300 728 ZM300 693 Q207 693 160 647 Q118 608 118 546 Q118 483 159 445 Q207 399 300 399 Q392 399 441 445 Q482 484 482 546 Q482 608 440 647 Q393 693 300 693 ZM300 364 Q200 364 144 313 Q93 267 93 192 Q93 117 142 71 Q196 20 300 20 Q404 20 459 71 Q507 118 507 192 Q507 267 456 313 Q399 364 300 364 Z" /><glyph glyph-name="nine" unicode="9" d="M291 728 Q419 728 482 629 Q537 539 537 374 Q537 212 476 102 Q408 -14 290 -14 Q105 -14 75 172 L114 172 Q141 22 291 22 Q387 22 445 122 Q499 217 499 364 L498 410 L496 410 Q472 341 417 298 Q357 255 287 255 Q185 255 125 320 Q64 384 64 486 Q64 590 127 659 Q190 728 291 728 ZM292 693 Q205 693 155 634 Q102 578 102 486 Q102 397 154 344 Q205 290 291 290 Q369 290 427 347 Q484 406 484 486 Q484 568 435 628 Q382 693 292 693 Z" /><glyph glyph-name="semicolon" unicode=";" d="M125 446 Q142 446 154 434 Q165 423 165 406 Q165 390 153 378 Q141 366 125 366 Q108 366 97 378 Q85 390 85 406 Q85 424 97 434 Q108 446 125 446 ZM125 79 Q173 79 173 14 Q173 -94 88 -141 L71 -115 Q136 -70 139 1 L126 0 Q108 0 96 10 Q85 20 85 39 Q85 59 95 69 Q106 79 125 79 Z" /><glyph glyph-name="less" unicode="&lt;" d="M555 512 L555 473 L94 259 L555 45 L555 6 L50 240 L50 277 L555 512 Z" /><glyph glyph-name="greater" unicode="&gt;" d="M50 512 L555 277 L555 240 L50 6 L50 45 L511 259 L50 473 L50 512 Z" /><glyph glyph-name="question" unicode="?" d="M262 728 Q356 728 410 674 Q462 624 462 539 Q462 481 425 429 Q409 408 348 353 Q309 319 294 293 Q270 256 270 211 L270 176 L231 176 L231 211 Q231 251 248 284 Q268 330 329 385 Q377 430 391 448 Q423 491 423 537 Q423 606 382 649 Q339 692 261 692 Q174 692 130 633 Q91 582 88 498 L50 498 Q53 596 102 657 Q158 728 262 728 ZM251 80 Q267 80 279 68 Q291 58 291 40 Q291 24 279 12 Q267 0 251 0 Q234 0 223 12 Q211 24 211 40 Q211 58 223 68 Q234 80 251 80 Z" /><glyph glyph-name="A" unicode="a" d="M291 714 L339 714 L629 0 L586 0 L496 226 L135 226 L44 0 L0 0 L291 714 ZM149 262 L482 262 L317 672 L314 672 L149 262 Z" /><glyph glyph-name="B" unicode="b" d="M74 714 L384 714 Q474 714 531 669 Q590 621 590 535 Q590 475 552 429 Q515 386 460 372 Q530 361 574 314 Q618 265 618 196 Q618 96 546 45 Q482 0 378 0 L74 0 L74 714 ZM113 678 L113 388 L378 388 Q453 388 501 425 Q551 464 551 533 Q551 605 502 643 Q457 678 377 678 L113 678 ZM113 352 L113 36 L383 36 Q468 36 520 72 Q579 114 579 195 Q579 273 520 315 Q467 352 380 352 L113 352 Z" /><glyph glyph-name="C" unicode="c" d="M381 728 Q489 728 570 668 Q657 605 669 501 L631 501 Q619 588 545 641 Q474 691 381 691 Q242 691 159 592 Q83 498 83 353 Q83 209 159 118 Q237 23 372 23 Q468 23 541 76 Q620 137 641 242 L679 242 Q655 119 567 49 Q485 -14 372 -14 Q220 -14 129 95 Q44 196 44 353 Q44 511 130 615 Q221 728 381 728 Z" /><glyph glyph-name="D" unicode="d" d="M74 714 L325 714 Q491 714 571 613 Q646 523 646 357 Q646 197 560 100 Q469 0 307 0 L74 0 L74 714 ZM113 678 L113 36 L303 36 Q450 36 530 124 Q607 210 607 357 Q607 510 543 591 Q471 678 322 678 L113 678 Z" /><glyph glyph-name="E" unicode="e" d="M74 714 L569 714 L569 678 L113 678 L113 389 L546 389 L546 353 L113 353 L113 36 L586 36 L586 0 L74 0 L74 714 Z" /><glyph glyph-name="F" unicode="f" d="M74 714 L541 714 L541 678 L113 678 L113 387 L520 387 L520 351 L113 351 L113 0 L74 0 L74 714 Z" /><glyph glyph-name="G" unicode="g" d="M373 728 Q502 728 581 659 Q654 595 674 480 L634 480 Q616 577 553 631 Q484 691 373 691 Q237 691 158 591 Q83 498 83 353 Q83 208 160 119 Q243 22 393 22 Q457 22 525 42 Q590 62 629 91 L629 316 L363 316 L363 352 L668 352 L668 72 Q620 34 548 10 Q470 -14 390 -14 Q224 -14 130 95 Q44 194 44 353 Q44 511 128 614 Q218 728 373 728 Z" /><glyph glyph-name="H" unicode="h" d="M74 714 L113 714 L113 389 L588 389 L588 714 L627 714 L627 0 L588 0 L588 353 L113 353 L113 0 L74 0 L74 714 Z" /><glyph glyph-name="I" unicode="i" d="M87 714 L126 714 L126 0 L87 0 L87 714 Z" /><glyph glyph-name="J" unicode="j" d="M380 714 L418 714 L418 225 Q418 116 375 55 Q324 -14 212 -14 Q122 -14 70 36 Q15 90 15 193 L15 221 L54 221 L54 194 Q54 23 213 23 Q301 23 342 75 Q380 125 380 226 L380 714 Z" /><glyph glyph-name="K" unicode="k" d="M562 714 L617 714 L284 410 L662 0 L608 0 L256 385 L113 254 L113 0 L74 0 L74 714 L113 714 L113 301 L562 714 Z" /><glyph glyph-name="L" unicode="l" d="M74 714 L113 714 L113 36 L559 36 L559 0 L74 0 L74 714 Z" /><glyph glyph-name="M" unicode="m" d="M74 714 L133 714 L427 46 L430 46 L723 714 L782 714 L782 0 L743 0 L743 661 L740 661 L449 0 L407 0 L116 661 L113 661 L113 0 L74 0 L74 714 Z" /><glyph glyph-name="N" unicode="n" d="M74 714 L124 714 L588 53 L590 53 L590 714 L629 714 L629 0 L581 0 L115 665 L113 665 L113 0 L74 0 L74 714 Z" /><glyph glyph-name="O" unicode="o" d="M379 728 Q536 728 627 619 Q713 516 713 357 Q713 198 627 94 Q534 -14 379 -14 Q222 -14 131 95 Q44 197 44 357 Q44 517 131 619 Q222 728 379 728 ZM379 691 Q241 691 160 595 Q83 503 83 357 Q83 209 160 119 Q241 23 379 23 Q516 23 597 119 Q674 211 674 357 Q674 504 597 595 Q516 691 379 691 Z" /><glyph glyph-name="P" unicode="p" d="M74 714 L362 714 Q591 714 591 515 Q591 314 361 314 L113 314 L113 0 L74 0 L74 714 ZM113 678 L113 350 L360 350 Q457 350 506 393 Q552 434 552 515 Q552 596 506 636 Q458 678 360 678 L113 678 Z" /><glyph glyph-name="Q" unicode="q" d="M379 728 Q536 728 627 619 Q713 516 713 357 Q713 198 627 94 L610 76 Q657 14 696 -44 L668 -68 Q643 -30 583 51 Q498 -14 379 -14 Q222 -14 131 95 Q44 197 44 357 Q44 517 131 619 Q222 728 379 728 ZM379 691 Q241 691 160 595 Q83 503 83 357 Q83 209 160 119 Q241 23 379 23 Q486 23 559 82 Q489 173 421 246 L447 271 Q511 201 586 107 L597 119 Q674 211 674 357 Q674 504 597 595 Q516 691 379 691 Z" /><glyph glyph-name="R" unicode="r" d="M74 714 L370 714 Q474 714 533 664 Q592 614 592 522 Q592 456 556 408 Q520 361 452 346 L452 344 Q567 320 577 209 L586 105 Q592 38 617 0 L574 0 Q554 35 548 98 L539 201 Q533 270 485 300 Q443 327 369 327 L113 327 L113 0 L74 0 L74 714 ZM113 678 L113 363 L368 363 Q458 363 507 408 Q553 451 553 521 Q553 597 510 637 Q463 678 367 678 L113 678 Z" /><glyph glyph-name="S" unicode="s" d="M300 728 Q416 728 481 669 Q550 610 559 503 L520 503 Q509 594 454 643 Q398 692 299 692 Q203 692 150 657 Q89 620 89 546 Q89 481 164 442 Q196 424 307 394 Q440 358 489 328 Q576 276 576 179 Q576 89 499 36 Q425 -14 310 -14 Q190 -14 120 45 Q43 110 34 236 L72 236 Q81 129 147 73 Q208 23 309 23 Q410 23 473 65 Q537 108 537 178 Q537 257 461 301 Q420 326 296 359 Q168 396 132 415 Q50 461 50 545 Q50 637 127 684 Q192 728 300 728 Z" /><glyph glyph-name="T" unicode="t" d="M19 714 L604 714 L604 678 L332 678 L332 0 L293 0 L293 678 L19 678 L19 714 Z" /><glyph glyph-name="U" unicode="u" d="M74 714 L113 714 L113 278 Q113 154 166 92 Q224 22 344 22 Q465 22 523 92 Q576 156 576 278 L576 714 L615 714 L615 279 Q615 140 552 66 Q484 -14 344 -14 Q205 -14 137 65 Q74 140 74 279 L74 714 Z" /><glyph glyph-name="V" unicode="v" d="M5 714 L50 714 L306 38 L308 38 L565 714 L609 714 L334 0 L281 0 L5 714 Z" /><glyph glyph-name="W" unicode="w" d="M5 714 L49 714 L234 47 L237 47 L426 714 L477 714 L665 47 L669 47 L854 714 L898 714 L692 0 L642 0 L453 665 L450 665 L260 0 L210 0 L5 714 Z" /><glyph glyph-name="X" unicode="x" d="M28 714 L77 714 L302 404 L526 714 L576 714 L326 372 L599 0 L549 0 L302 342 L55 0 L5 0 L278 372 L28 714 Z" /><glyph glyph-name="Y" unicode="y" d="M5 714 L54 714 L313 334 L573 714 L621 714 L333 297 L333 0 L294 0 L294 297 L5 714 Z" /><glyph glyph-name="Z" unicode="z" d="M55 714 L556 714 L556 676 L74 36 L580 36 L580 0 L25 0 L25 37 L508 678 L55 678 L55 714 Z" /><glyph glyph-name="a" unicode="a" d="M277 531 Q383 531 435 471 Q479 421 479 334 L479 0 L442 0 L442 111 Q410 65 355 28 Q289 -14 212 -14 Q138 -14 91 24 Q44 64 44 130 Q44 229 127 273 Q191 308 302 308 L441 309 L441 330 Q441 496 276 496 Q202 496 157 463 Q107 428 98 363 L60 363 Q72 447 131 490 Q185 531 277 531 ZM441 275 L303 274 Q83 273 83 129 Q83 80 120 50 Q157 21 219 21 Q303 21 374 80 Q441 139 441 200 L441 275 Z" /><glyph glyph-name="b" unicode="b" d="M64 728 L103 728 L103 392 Q157 531 294 531 Q402 531 465 447 Q522 372 522 258 Q522 145 466 69 Q403 -14 293 -14 Q154 -14 101 121 L101 0 L64 0 L64 728 ZM290 496 Q200 496 150 428 Q102 364 102 263 L102 250 Q102 151 149 89 Q199 21 291 21 Q383 21 436 91 Q483 156 483 258 Q483 362 435 425 Q383 496 290 496 Z" /><glyph glyph-name="c" unicode="c" d="M277 531 Q366 531 423 486 Q480 441 492 350 L454 350 Q444 422 398 459 Q351 496 277 496 Q188 496 134 426 Q83 360 83 253 Q83 148 132 86 Q182 21 276 21 Q430 21 457 182 L495 182 Q480 87 423 36 Q365 -14 276 -14 Q163 -14 101 64 Q44 136 44 253 Q44 372 104 448 Q166 531 277 531 Z" /><glyph glyph-name="d" unicode="d" d="M463 728 L502 728 L502 0 L465 0 L465 121 Q411 -14 272 -14 Q162 -14 100 69 Q44 143 44 258 Q44 372 101 447 Q163 531 271 531 Q409 531 463 393 L463 728 ZM276 496 Q181 496 131 425 Q83 362 83 258 Q83 154 130 91 Q182 21 275 21 Q366 21 417 89 Q464 153 464 250 L464 263 Q464 364 416 428 Q364 496 276 496 Z" /><glyph glyph-name="e" unicode="e" d="M269 531 Q389 531 449 449 Q500 379 506 246 L74 246 Q77 142 129 83 Q183 21 270 21 Q347 21 396 64 Q436 101 454 166 L495 166 Q477 91 427 42 Q365 -14 270 -14 Q162 -14 99 61 Q34 136 34 259 Q34 372 96 449 Q162 531 269 531 ZM270 496 Q184 496 132 435 Q80 374 74 280 L466 280 Q450 496 270 496 Z" /><glyph glyph-name="f" unicode="f" d="M362 714 L362 678 L278 678 Q231 678 211 655 Q191 634 191 580 L191 517 L355 517 L355 482 L191 482 L191 0 L153 0 L153 482 L5 482 L5 517 L153 517 L153 580 Q153 646 182 678 Q212 714 276 714 L362 714 Z" /><glyph glyph-name="g" unicode="g" d="M276 531 Q417 531 474 397 L474 517 L513 517 L513 40 Q513 -212 286 -212 Q186 -212 132 -167 Q80 -124 68 -44 L106 -44 Q118 -107 158 -140 Q204 -177 286 -177 Q474 -177 474 37 L474 145 Q417 12 276 12 Q167 12 102 91 Q44 164 44 271 Q44 380 102 451 Q166 531 276 531 ZM279 496 Q185 496 133 428 Q83 368 83 271 Q83 179 131 116 Q184 47 279 47 Q370 47 425 114 Q474 178 474 271 Q474 365 425 428 Q372 496 279 496 Z" /><glyph glyph-name="h" unicode="h" d="M64 728 L103 728 L103 413 Q130 468 177 500 Q221 531 279 531 Q365 531 416 480 Q467 428 467 333 L467 0 L429 0 L429 330 Q429 409 386 454 Q344 496 272 496 Q203 496 154 440 Q103 383 103 302 L103 0 L64 0 L64 728 Z" /><glyph glyph-name="i" unicode="i" d="M117 693 Q133 693 145 681 Q157 671 157 653 Q157 637 145 625 Q133 613 117 613 Q100 613 89 625 Q77 637 77 653 Q77 671 89 681 Q100 693 117 693 ZM98 517 L136 517 L136 0 L98 0 L98 517 Z" /><glyph glyph-name="j" unicode="j" d="M138 693 Q155 693 167 681 Q178 670 178 653 Q178 638 167 625 Q155 613 138 613 Q121 613 109 625 Q98 636 98 653 Q98 671 109 681 Q121 693 138 693 ZM119 517 L157 517 L157 -76 Q157 -198 32 -198 L-15 -198 L-15 -163 L31 -163 Q119 -163 119 -75 L119 517 Z" /><glyph glyph-name="k" unicode="k" d="M64 728 L103 728 L103 234 L420 517 L476 517 L249 316 L499 0 L448 0 L221 290 L103 184 L103 0 L64 0 L64 728 Z" /><glyph glyph-name="l" unicode="l" d="M87 728 L125 728 L125 0 L87 0 L87 728 Z" /><glyph glyph-name="m" unicode="m" d="M256 531 Q382 531 418 416 Q442 470 485 500 Q526 531 582 531 Q664 531 710 481 Q756 430 756 338 L756 0 L718 0 L718 335 Q718 414 685 453 Q649 496 575 496 Q512 496 472 449 Q430 404 430 334 L430 0 L391 0 L391 335 Q391 496 251 496 Q188 496 146 445 Q103 396 103 322 L103 0 L64 0 L64 517 L103 517 L103 429 Q154 531 256 531 Z" /><glyph glyph-name="n" unicode="n" d="M277 531 Q468 531 468 317 L468 0 L429 0 L429 316 Q429 496 271 496 Q201 496 154 445 Q106 396 103 313 L103 0 L64 0 L64 517 L103 517 L103 423 Q126 471 173 502 Q218 531 277 531 Z" /><glyph glyph-name="o" unicode="o" d="M285 531 Q398 531 465 446 Q526 370 526 258 Q526 149 465 70 Q398 -14 285 -14 Q171 -14 105 70 Q44 147 44 258 Q44 372 105 446 Q171 531 285 531 ZM285 496 Q189 496 134 423 Q83 357 83 258 Q83 160 134 94 Q190 21 285 21 Q378 21 436 94 Q487 160 487 258 Q487 357 436 423 Q379 496 285 496 Z" /><glyph glyph-name="p" unicode="p" d="M293 531 Q402 531 465 447 Q522 372 522 258 Q522 145 466 69 Q404 -14 294 -14 Q157 -14 103 122 L103 -198 L64 -198 L64 517 L101 517 L101 396 Q160 531 293 531 ZM291 496 Q199 496 149 425 Q102 363 102 261 L102 249 Q102 150 150 87 Q201 21 290 21 Q384 21 435 90 Q482 155 482 258 Q482 360 435 424 Q384 496 291 496 Z" /><glyph glyph-name="q" unicode="q" d="M272 531 Q405 531 465 396 L465 517 L502 517 L502 -198 L463 -198 L463 122 Q409 -14 271 -14 Q160 -14 100 69 Q44 143 44 258 Q44 372 101 447 Q163 531 272 531 ZM275 496 Q182 496 131 424 Q84 362 84 258 Q84 153 131 90 Q182 21 276 21 Q365 21 416 87 Q464 150 464 249 L464 261 Q464 361 417 425 Q367 496 275 496 Z" /><glyph glyph-name="r" unicode="r" d="M270 531 Q321 531 350 521 L350 480 Q308 492 268 492 Q189 492 143 419 Q103 357 103 273 L103 0 L64 0 L64 517 L103 517 L103 409 Q122 459 163 492 Q210 531 270 531 Z" /><glyph glyph-name="s" unicode="s" d="M232 531 Q408 531 432 374 L394 374 Q384 432 348 462 Q307 496 232 496 Q168 496 130 468 Q88 441 88 399 Q88 354 137 327 Q169 310 248 289 Q344 265 383 242 Q446 206 446 140 Q446 -14 245 -14 Q52 -14 34 160 L73 160 Q82 84 126 52 Q166 21 245 21 Q407 21 407 139 Q407 190 353 217 Q326 232 233 256 Q142 280 107 302 Q50 337 50 398 Q50 459 104 495 Q157 531 232 531 Z" /><glyph glyph-name="t" unicode="t" d="M174 684 L174 517 L317 517 L317 482 L174 482 L174 109 Q174 67 188 52 Q200 35 240 35 L305 35 L305 0 L237 0 Q179 0 156 29 Q136 55 136 109 L136 482 L19 482 L19 517 L136 517 L136 667 L174 684 Z" /><glyph glyph-name="u" unicode="u" d="M64 517 L103 517 L103 200 Q103 112 140 68 Q179 21 261 21 Q331 21 379 72 Q427 123 430 204 L430 517 L468 517 L468 0 L430 0 L430 96 Q371 -14 254 -14 Q64 -14 64 199 L64 517 Z" /><glyph glyph-name="v" unicode="v" d="M5 517 L48 517 L226 50 L404 517 L447 517 L247 0 L205 0 L5 517 Z" /><glyph glyph-name="w" unicode="w" d="M5 517 L48 517 L203 54 L344 517 L384 517 L525 54 L680 517 L723 517 L544 0 L506 0 L365 463 L222 0 L184 0 L5 517 Z" /><glyph glyph-name="x" unicode="x" d="M26 517 L74 517 L238 302 L402 517 L449 517 L261 272 L471 0 L423 0 L238 243 L52 0 L5 0 L215 272 L26 517 Z" /><glyph glyph-name="y" unicode="y" d="M5 517 L48 517 L230 61 L410 517 L454 517 L167 -198 L124 -198 L210 13 L5 517 Z" /><glyph glyph-name="z" unicode="z" d="M35 517 L424 517 L424 482 L73 35 L440 35 L440 0 L25 0 L25 35 L377 482 L35 482 L35 517 Z" /><glyph glyph-name="asciitilde" unicode="~" d="M144 426 Q186 426 255 378 Q323 330 356 330 Q398 330 449 405 L476 385 Q413 296 356 296 Q314 296 246 344 Q177 392 144 392 Q102 392 51 317 L24 337 Q85 426 144 426 Z" /><glyph glyph-name="uniB7" unicode="·" d="M250 429 Q278 429 297 409 Q318 390 318 361 Q318 334 297 313 Q277 293 250 293 Q221 293 203 313 Q182 334 182 361 Q182 390 203 409 Q220 429 250 429 Z" /><glyph glyph-name="emdash" unicode="&#x2014;" d="M0 378 L1000 378 L1000 342 L0 342 L0 378 Z" /><glyph glyph-name="quotedblleft" unicode="&#x201c;" d="M364 811 Q300 768 297 695 Q299 696 310 696 Q329 696 339 686 Q351 677 351 657 Q351 638 340 627 Q327 616 311 616 Q263 616 263 682 Q263 792 348 837 L364 811 ZM221 811 Q157 768 154 695 Q156 696 167 696 Q186 696 197 686 Q208 677 208 657 Q208 638 197 627 Q184 616 168 616 Q120 616 120 682 Q120 792 205 837 L221 811 Z" /><glyph glyph-name="quotedblright" unicode="&#x201d;" d="M277 837 Q324 837 324 771 Q324 665 239 616 L223 642 Q288 687 291 759 L278 758 Q258 758 248 768 Q237 778 237 796 Q237 817 247 826 Q255 837 277 837 ZM134 837 Q181 837 181 771 Q181 664 97 616 L80 642 Q145 687 148 759 L135 758 Q115 758 105 768 Q94 778 94 796 Q94 817 104 826 Q112 837 134 837 Z" /><glyph glyph-name="uni3001" unicode="&#x3001;" d="M171 126 Q214 96 278 31 Q329 -23 359 -65 L332 -89 Q302 -46 252 7 Q196 67 147 102 L171 126 Z" /><glyph glyph-name="uni3002" unicode="&#x3002;" d="M250 130 Q299 130 333 97 Q368 64 368 15 Q368 -33 333 -66 Q299 -99 250 -99 Q201 -99 167 -67 Q132 -33 132 15 Q132 66 167 97 Q200 130 250 130 ZM250 99 Q213 99 189 75 Q164 51 164 15 Q164 -19 189 -43 Q213 -67 250 -67 Q284 -67 311 -43 Q336 -18 336 15 Q336 49 311 74 Q285 99 250 99 Z" /><glyph glyph-name="uni300A" unicode="&#x300a;" d="M760 827 L794 812 L594 360 L793 -92 L760 -107 L554 360 L760 827 ZM907 827 L940 812 L741 360 L940 -92 L907 -107 L702 360 L907 827 Z" /><glyph glyph-name="uni300B" unicode="&#x300b;" d="M93 827 L298 360 L93 -107 L60 -92 L259 360 L60 812 L93 827 ZM240 827 L446 360 L240 -107 L207 -92 L406 360 L206 812 L240 827 Z" /><glyph glyph-name="uni3010" unicode="&#x3010;" d="M678 827 L950 827 Q790 630 790 360 Q790 89 950 -107 L678 -107 L678 827 Z" /><glyph glyph-name="uni3011" unicode="&#x3011;" d="M322 827 L322 -107 L50 -107 Q210 91 210 360 Q210 628 50 827 L322 827 Z" /><glyph glyph-name="uniFF01" unicode="&#xff01;" d="M229 714 L271 714 L267 177 L233 177 L229 714 ZM250 80 Q267 80 279 68 Q290 57 290 40 Q290 25 279 12 Q267 0 250 0 Q233 0 221 12 Q210 23 210 40 Q210 58 221 68 Q233 80 250 80 Z" /><glyph glyph-name="uniFF08" unicode="&#xff08;" d="M920 827 Q861 732 826 619 Q783 489 783 360 Q783 233 826 101 Q862 -14 920 -107 L881 -107 Q821 -9 786 100 Q745 230 745 360 Q745 490 786 619 Q821 730 881 827 L920 827 Z" /><glyph glyph-name="uniFF09" unicode="&#xff09;" d="M119 827 Q177 730 214 619 Q255 485 255 360 Q255 235 214 100 Q177 -9 119 -107 L80 -107 Q137 -14 174 101 Q217 238 217 360 Q217 484 174 619 Q138 732 80 827 L119 827 Z" /><glyph glyph-name="uniFF0C" unicode="&#xff0c;" d="M175 79 Q223 79 223 14 Q223 -94 138 -141 L121 -115 Q186 -70 189 1 L176 0 Q158 0 146 10 Q135 20 135 39 Q135 59 145 69 Q156 79 175 79 Z" /><glyph glyph-name="uniFF1A" unicode="&#xff1a;" d="M250 587 Q267 587 279 575 Q290 564 290 547 Q290 532 279 519 Q267 507 250 507 Q233 507 221 519 Q210 530 210 547 Q210 565 221 575 Q233 587 250 587 ZM250 221 Q267 221 279 209 Q290 198 290 181 Q290 166 279 153 Q267 141 250 141 Q233 141 221 153 Q210 164 210 181 Q210 199 221 209 Q233 221 250 221 Z" /><glyph glyph-name="uniFF1B" unicode="&#xff1b;" d="M250 587 Q267 587 279 575 Q290 564 290 547 Q290 532 279 519 Q267 507 250 507 Q233 507 221 519 Q210 530 210 547 Q210 565 221 575 Q233 587 250 587 ZM250 221 Q298 221 298 155 Q298 47 213 0 L196 26 Q261 71 264 142 L251 141 Q231 141 221 151 Q210 161 210 180 Q210 201 220 211 Q230 221 250 221 Z" /><glyph glyph-name="uniFF1F" unicode="&#xff1f;" d="M257 728 Q351 728 405 674 Q456 625 456 539 Q456 481 418 429 Q401 407 343 353 Q302 317 287 292 Q264 258 264 211 L264 176 L225 176 L225 211 Q225 251 242 284 Q262 329 324 385 Q373 432 385 448 Q417 491 417 537 Q417 606 377 649 Q334 692 256 692 Q168 692 124 633 Q84 581 83 498 L45 498 Q45 596 96 657 Q152 728 257 728 ZM246 80 Q262 80 274 68 Q286 58 286 40 Q286 24 274 12 Q262 0 246 0 Q229 0 217 12 Q205 24 205 40 Q205 58 217 68 Q229 80 246 80 Z" /><glyph glyph-name="uniFFE5" unicode="&#xffe5;" d="M245 714 L291 714 L500 353 L709 714 L755 714 L537 341 L711 341 L711 310 L520 310 L520 196 L711 196 L711 165 L520 165 L520 0 L480 0 L480 165 L289 165 L289 196 L480 196 L480 310 L289 310 L289 341 L463 341 L245 714 Z" /><glyph glyph-name="uni2F00" unicode="&#x2f00;&#x4e00;" d="M55 384 L944 384 L944 350 L55 350 L55 384 Z" /><glyph glyph-name="uni4E01" unicode="&#x4e01;" d="M75 727 L926 727 L926 694 L526 694 L526 0 Q526 -86 441 -86 L285 -86 L278 -53 Q358 -56 430 -56 Q492 -56 492 9 L492 694 L75 694 L75 727 Z" /><glyph glyph-name="uni4E03" unicode="&#x4e03;" d="M937 562 L942 529 L433 435 L433 41 Q433 -36 500 -36 L749 -36 Q810 -36 840 -11 Q867 16 876 172 L908 162 Q897 0 867 -37 Q836 -70 755 -70 L492 -70 Q399 -70 399 35 L399 429 L58 365 L53 398 L399 462 L399 799 L433 799 L433 468 L937 562 Z" /><glyph glyph-name="uni4E07" unicode="&#x4e07;" d="M67 731 L933 731 L933 698 L409 698 L409 658 Q409 545 397 449 L824 449 Q821 69 785 -6 Q748 -81 656 -81 L543 -80 L534 -46 Q603 -49 647 -49 Q738 -46 762 28 Q784 101 790 415 L393 415 Q371 271 328 172 Q251 2 75 -95 L56 -65 Q226 28 305 203 Q373 376 375 658 L375 698 L67 698 L67 731 Z" /><glyph glyph-name="uni4E09" unicode="&#x4e09;" d="M118 724 L884 724 L884 691 L118 691 L118 724 ZM191 375 L810 375 L810 341 L191 341 L191 375 ZM56 1 L944 1 L944 -33 L56 -33 L56 1 Z" /><glyph glyph-name="uni4E0A" unicode="&#x4e0a;" d="M435 813 L471 813 L471 489 L841 489 L841 456 L471 456 L471 -14 L941 -14 L941 -48 L61 -48 L61 -14 L435 -14 L435 813 Z" /><glyph glyph-name="uni4E0B" unicode="&#x4e0b;" d="M60 747 L939 747 L939 713 L490 713 L490 530 Q677 430 879 293 L859 263 Q637 417 490 495 L490 -99 L457 -99 L457 713 L60 713 L60 747 Z" /><glyph glyph-name="uni4E0D" unicode="&#x4e0d;" d="M84 749 L916 749 L916 715 L585 715 Q553 641 518 584 L518 -98 L482 -98 L482 529 Q337 324 81 171 L59 200 Q420 413 548 715 L84 715 L84 749 ZM643 487 Q826 340 942 200 L917 174 Q803 314 618 463 L643 487 Z" /><glyph glyph-name="uni4E0E" unicode="&#x4e0e;" d="M297 636 L277 440 L837 440 Q837 40 796 -24 Q754 -84 619 -84 L479 -83 L469 -51 L611 -55 Q748 -55 775 12 Q804 82 804 408 L237 408 L281 817 L316 814 L301 670 L879 670 L879 636 L297 636 ZM63 208 L676 208 L676 174 L63 174 L63 208 Z" /><glyph glyph-name="uni4E13" unicode="&#x4e13;" d="M56 492 L349 492 Q370 565 391 652 L124 652 L124 685 L398 685 Q419 777 426 816 L460 813 L433 685 L885 685 L885 652 L426 652 Q400 546 385 492 L944 492 L944 458 L375 458 Q347 364 318 292 L817 292 L817 262 Q738 131 570 9 Q677 -34 770 -81 L751 -110 Q518 9 275 78 L294 105 Q414 71 535 23 Q693 133 780 259 L271 259 Q310 364 339 458 L56 458 L56 492 Z" /><glyph glyph-name="uni4E14" unicode="&#x4e14;" d="M260 474 L260 245 L743 245 L743 474 L260 474 ZM743 507 L743 730 L260 730 L260 507 L743 507 ZM260 211 L260 -26 L743 -26 L743 211 L260 211 ZM61 -26 L224 -26 L224 763 L777 763 L777 -26 L940 -26 L940 -60 L61 -60 L61 -26 Z" /><glyph glyph-name="uni4E16" unicode="&#x4e16;" d="M54 561 L194 561 L194 800 L229 800 L229 561 L472 561 L472 809 L506 809 L506 561 L747 561 L747 809 L780 809 L780 561 L945 561 L945 528 L780 528 L780 213 L472 213 L472 528 L229 528 L229 -19 L911 -19 L911 -53 L194 -53 L194 528 L54 528 L54 561 ZM506 528 L506 247 L747 247 L747 528 L506 528 Z" /><glyph glyph-name="uni4E1A" unicode="&#x4e1a;" d="M375 798 L408 798 L408 -10 L590 -10 L590 798 L623 798 L623 -10 L938 -10 L938 -44 L62 -44 L62 -10 L375 -10 L375 798 ZM902 615 Q841 350 743 149 L712 161 Q804 343 871 624 L902 615 ZM124 626 Q203 423 269 150 L237 142 Q178 395 94 616 L124 626 Z" /><glyph glyph-name="uni4E1B" unicode="&#x4e1b;" d="M67 -11 L934 -11 L934 -44 L67 -44 L67 -11 ZM308 787 Q308 636 292 502 Q411 381 490 259 L466 234 Q398 343 287 465 L276 404 Q229 195 79 66 L58 94 Q192 210 240 395 Q274 557 274 787 L308 787 ZM692 804 Q692 670 679 550 Q753 262 928 97 L905 71 Q744 232 669 475 L657 411 Q608 196 442 62 L420 90 Q569 211 620 400 Q658 566 658 804 L692 804 Z" /><glyph glyph-name="uni4E1C" unicode="&#x4e1c;" d="M87 678 L337 678 Q369 745 400 824 L435 817 Q407 748 375 678 L904 678 L904 644 L358 644 Q273 477 173 361 L504 361 L504 526 L537 526 L537 361 L864 361 L864 330 L537 330 L537 -15 Q537 -93 461 -93 L357 -93 L351 -60 Q419 -62 449 -62 Q504 -62 504 -7 L504 330 L137 330 L128 357 Q234 472 320 644 L87 644 L87 678 ZM328 205 Q225 65 74 -41 L53 -14 Q203 91 304 227 L328 205 ZM703 225 Q844 102 941 -24 L916 -48 Q828 71 680 204 L703 225 Z" /><glyph glyph-name="uni4E1D" unicode="&#x4e1d;" d="M62 -10 L938 -10 L938 -43 L62 -43 L62 -10 ZM352 785 Q247 567 140 445 Q266 456 356 468 Q375 500 427 595 L458 585 Q306 298 162 175 Q334 188 481 219 L488 187 Q314 155 109 140 L102 172 Q213 241 336 436 Q191 418 106 411 L98 442 Q106 447 112 456 Q232 599 319 799 L352 785 ZM777 786 Q674 567 565 445 Q690 455 783 468 Q826 544 851 591 L883 581 Q737 301 595 177 Q771 190 919 218 L926 186 Q760 158 542 143 L535 175 Q643 244 763 436 Q617 418 531 411 L522 442 Q530 445 537 455 Q656 598 745 800 L777 786 Z" /><glyph glyph-name="uni4E24" unicode="&#x4e24;" d="M63 755 L937 755 L937 721 L654 721 L654 530 L880 530 L880 -8 Q880 -86 806 -86 L705 -86 L695 -52 L794 -54 Q845 -54 845 -1 L845 497 L653 497 Q650 438 644 391 Q724 270 799 126 L779 96 Q699 260 639 353 Q604 155 500 46 L475 68 Q608 207 620 497 L374 497 Q371 435 362 381 Q430 289 492 183 L473 155 Q402 282 356 345 Q322 169 228 68 L202 91 Q327 224 342 497 L155 497 L155 -91 L120 -91 L120 530 L343 530 L344 548 L344 721 L63 721 L63 755 ZM376 530 L621 530 L621 721 L377 721 L377 548 L376 530 Z" /><glyph glyph-name="uni4E25" unicode="&#x4e25;" d="M138 763 L900 763 L900 730 L627 730 L627 446 L922 446 L922 413 L191 413 L191 277 Q185 43 72 -94 L46 -71 Q150 54 156 277 L156 446 L414 446 L414 730 L138 730 L138 763 ZM447 446 L594 446 L594 730 L447 730 L447 446 ZM835 666 Q805 570 760 499 L731 509 Q773 575 806 674 L835 666 ZM224 666 Q276 587 309 509 L280 495 Q241 586 194 656 L224 666 Z" /><glyph glyph-name="uni2F01" unicode="&#x2f01;&#x4e28;" d="M487 811 L521 811 L521 -92 L487 -92 L487 811 Z" /><glyph glyph-name="uni4E2A" unicode="&#x4e2a;" d="M483 520 L517 520 L517 -94 L483 -94 L483 520 ZM516 810 Q645 596 958 431 L938 401 Q643 554 500 778 Q325 527 62 393 L42 424 Q327 572 484 810 L516 810 Z" /><glyph glyph-name="uni4E2D" unicode="&#x4e2d;" d="M482 816 L518 816 L518 625 L882 625 L882 176 L847 176 L847 248 L518 248 L518 -102 L482 -102 L482 248 L154 248 L154 176 L119 176 L119 625 L482 625 L482 816 ZM154 282 L482 282 L482 591 L154 591 L154 282 ZM518 282 L847 282 L847 591 L518 591 L518 282 Z" /><glyph glyph-name="uni4E30" unicode="&#x4e30;" d="M151 427 L483 427 L483 625 L105 625 L105 659 L483 659 L483 810 L517 810 L517 659 L903 659 L903 625 L517 625 L517 427 L857 427 L857 393 L517 393 L517 196 L927 196 L927 163 L517 163 L517 -94 L483 -94 L483 163 L76 163 L76 196 L483 196 L483 393 L151 393 L151 427 Z" /><glyph glyph-name="uni4E34" unicode="&#x4e34;" d="M274 810 L309 810 L309 -92 L274 -92 L274 810 ZM902 351 L902 -88 L869 -88 L869 -28 L472 -28 L472 -88 L438 -88 L438 351 L902 351 ZM472 5 L656 5 L656 319 L472 319 L472 5 ZM689 319 L689 5 L869 5 L869 319 L689 319 ZM648 583 Q740 491 787 425 L761 405 Q710 479 621 566 L648 583 ZM98 685 L132 685 L132 72 L98 72 L98 685 ZM519 644 Q463 535 389 452 L366 479 Q488 619 554 817 L587 809 Q562 738 536 678 L940 678 L940 644 L519 644 Z" /><glyph glyph-name="uni4E39" unicode="&#x4e39;" d="M62 352 L265 352 L266 391 L266 762 L778 762 L778 352 L938 352 L938 319 L778 319 L778 7 Q778 -80 696 -80 L586 -80 L577 -46 Q655 -48 686 -48 Q744 -48 744 19 L744 319 L298 319 Q277 69 137 -94 L111 -70 Q242 88 263 319 L62 319 L62 352 ZM744 352 L744 729 L301 729 L301 372 L300 352 L744 352 ZM446 648 Q562 525 615 445 L588 425 Q523 523 419 630 L446 648 Z" /><glyph glyph-name="uni4E3A" unicode="&#x4e3a;" d="M168 784 Q258 689 305 619 L277 600 Q220 683 141 765 L168 784 ZM507 360 Q619 239 685 142 L656 121 Q592 222 479 343 L507 360 ZM430 812 L463 812 L463 729 Q463 642 455 554 L873 554 Q873 144 836 27 Q797 -86 699 -86 Q647 -86 585 -84 L576 -50 Q642 -53 697 -53 Q806 -46 823 132 Q839 322 839 520 L451 520 Q430 330 370 200 Q282 17 76 -91 L57 -61 Q257 41 348 231 Q399 354 417 520 L92 520 L92 554 L421 554 Q429 637 430 729 L430 812 Z" /><glyph glyph-name="uni4E3B" unicode="&#x4e3b;" d="M483 594 L97 594 L97 628 L904 628 L904 594 L518 594 L518 313 L856 313 L856 281 L518 281 L518 -26 L939 -26 L939 -60 L62 -60 L62 -26 L483 -26 L483 281 L144 281 L144 313 L483 313 L483 594 ZM464 812 Q500 735 522 667 L491 655 Q464 733 430 802 L464 812 Z" /><glyph glyph-name="uni4E3D" unicode="&#x4e3d;" d="M62 747 L938 747 L938 713 L62 713 L62 747 ZM293 -91 L284 -58 L360 -59 Q407 -59 407 -12 L407 541 L166 541 L166 -96 L134 -96 L134 574 L440 574 L440 -19 Q440 -91 371 -91 L293 -91 ZM247 424 Q308 302 352 170 L323 157 Q274 307 219 413 L247 424 ZM729 -90 L720 -57 L789 -58 Q833 -58 833 -17 L833 541 L592 541 L592 -95 L559 -95 L559 574 L865 574 L865 -23 Q865 -90 800 -90 L729 -90 ZM678 425 Q739 304 784 166 L756 153 Q710 296 650 414 L678 425 Z" /><glyph glyph-name="uni4E3E" unicode="&#x4e3e;" d="M211 803 Q266 716 312 618 L283 603 Q238 702 183 789 L211 803 ZM445 815 Q497 729 540 633 L511 618 Q467 717 416 801 L445 815 ZM79 532 L79 565 L650 565 Q728 681 786 822 L818 809 Q753 660 685 565 L921 565 L921 532 L678 532 Q762 378 958 291 L942 259 Q727 362 644 532 L348 532 Q279 374 63 263 L43 293 Q254 395 317 532 L79 532 ZM240 334 L483 334 L483 458 L517 458 L517 334 L762 334 L762 300 L517 300 L517 138 L893 138 L893 104 L517 104 L517 -94 L483 -94 L483 104 L107 104 L107 138 L483 138 L483 300 L240 300 L240 334 Z" /><glyph glyph-name="uni4E45" unicode="&#x4e45;" d="M535 289 Q348 30 63 -94 L44 -63 Q468 117 675 618 L330 618 Q239 472 88 357 L66 386 Q302 563 385 821 L420 817 Q393 730 349 651 L715 651 L715 623 Q648 455 557 320 Q674 77 952 -63 L928 -92 Q652 55 535 289 Z" /><glyph glyph-name="uni4E48" unicode="&#x4e48;" d="M693 335 Q820 144 909 -71 L878 -84 Q845 -9 832 18 Q544 -31 178 -52 L169 -17 Q183 -11 203 6 Q374 153 654 631 L688 614 Q390 117 233 -16 Q547 4 816 50 Q743 200 660 324 L693 335 ZM481 805 Q339 498 75 282 L52 308 Q307 517 445 813 L481 805 Z" /><glyph glyph-name="uni4E49" unicode="&#x4e49;" d="M395 810 Q496 699 573 565 L544 549 Q462 687 362 795 L395 810 ZM821 759 Q752 401 533 181 Q713 23 952 -63 L932 -93 Q684 0 508 157 Q334 -6 77 -90 L59 -60 Q314 23 482 180 Q278 371 164 652 L194 669 Q307 389 507 204 Q722 422 788 766 L821 759 Z" /><glyph glyph-name="uni4E4B" unicode="&#x4e4b;" d="M433 815 Q486 733 532 626 L849 626 L849 599 Q669 262 315 83 Q321 77 333 61 Q399 -27 520 -39 Q589 -42 718 -42 L938 -40 L930 -75 L723 -75 Q594 -75 537 -72 Q381 -69 295 59 Q270 92 248 92 Q193 92 105 -92 L75 -73 Q169 127 250 127 Q271 127 282 116 Q288 112 292 108 Q632 279 806 591 L131 591 L131 626 L496 626 Q453 727 396 808 L433 815 Z" /><glyph glyph-name="uni4E4F" unicode="&#x4e4f;" d="M891 765 Q587 689 93 689 L81 721 Q571 723 874 796 L891 765 ZM454 634 Q501 566 540 481 L822 481 L822 451 Q645 205 318 64 L319 63 Q375 -33 470 -36 Q528 -38 576 -38 Q680 -38 940 -36 L933 -72 L581 -72 Q520 -72 475 -69 Q394 -63 349 -24 Q318 0 283 60 Q271 73 259 73 Q200 73 114 -94 L87 -72 Q177 110 260 110 Q278 110 292 97 L297 92 Q610 224 780 448 L133 448 L133 481 L505 481 Q466 564 418 628 L454 634 Z" /><glyph glyph-name="uni4E50" unicode="&#x4e50;" d="M123 372 Q170 573 189 726 Q207 724 217 724 Q584 725 814 798 L831 768 Q595 698 217 695 Q191 526 162 406 L491 406 L491 613 L525 613 L525 406 L905 406 L905 372 L525 372 L525 -7 Q525 -91 448 -91 L316 -91 L309 -58 Q397 -60 436 -60 Q491 -60 491 2 L491 372 L123 372 ZM287 260 Q204 80 94 -49 L65 -29 Q175 96 257 275 L287 260 ZM718 281 Q820 130 903 -43 L873 -59 Q787 122 687 266 L718 281 Z" /><glyph glyph-name="uni4E56" unicode="&#x4e56;" d="M301 468 L334 468 L334 40 L301 40 L301 131 Q203 97 71 65 L63 97 Q191 127 301 166 L301 325 L82 325 L82 358 L301 358 L301 468 ZM714 66 Q647 66 647 129 L647 468 L681 468 L681 316 Q804 352 903 409 L922 383 Q820 324 681 283 L681 135 Q681 98 724 98 L838 98 Q867 98 882 110 Q904 133 910 243 L941 233 Q933 115 907 86 Q887 66 847 66 L714 66 ZM50 572 L479 572 L479 717 Q304 707 138 707 L127 739 Q565 739 846 794 L863 764 Q712 734 513 719 L513 572 L950 572 L950 539 L513 539 L513 -89 L479 -89 L479 539 L50 539 L50 572 Z" /><glyph glyph-name="uni4E58" unicode="&#x4e58;" d="M719 247 Q639 247 639 324 L639 526 L672 526 L672 424 Q801 440 902 480 L913 450 Q812 413 672 393 L672 331 Q672 278 729 278 L833 278 Q864 278 877 288 Q894 302 900 365 L932 355 Q926 281 901 261 Q882 247 840 247 L719 247 ZM63 617 L483 617 L483 732 Q339 723 170 723 L159 754 Q563 756 813 802 L830 772 Q691 746 517 734 L517 617 L936 617 L936 583 L517 583 L517 295 Q683 109 945 7 L927 -24 Q685 74 517 252 L517 -97 L483 -97 L483 248 Q319 78 79 -30 L58 1 Q328 120 483 293 L483 583 L63 583 L63 617 ZM309 524 L343 524 L343 228 L309 228 L309 290 Q222 270 83 247 L75 279 Q201 297 309 321 L309 418 L94 418 L94 450 L309 450 L309 524 Z" /><glyph glyph-name="uni2F04" unicode="&#x2f04;&#x4e59;" d="M140 740 L817 740 L817 709 Q512 476 400 380 Q264 265 205 172 Q166 109 166 64 Q166 30 194 5 Q225 -18 312 -18 L722 -18 Q820 -17 862 25 Q902 74 902 233 L936 223 Q936 54 890 2 Q842 -51 733 -51 L305 -51 Q207 -51 169 -22 Q130 13 130 64 Q130 116 168 174 Q225 273 368 391 Q501 507 759 706 L140 706 L140 740 Z" /><glyph glyph-name="uni4E5D" unicode="&#x4e5d;" d="M378 810 L412 810 L412 580 L720 580 L720 -3 Q720 -47 764 -47 L841 -47 Q894 -47 906 22 Q914 99 914 173 L947 164 Q940 33 933 0 Q918 -80 841 -80 L759 -80 Q684 -80 684 -8 L684 546 L411 546 Q405 298 330 148 Q250 0 69 -87 L49 -56 Q228 25 307 178 Q372 321 377 546 L114 546 L114 580 L378 580 L378 810 Z" /><glyph glyph-name="uni4E5F" unicode="&#x4e5f;" d="M503 816 L536 816 L536 563 L837 631 Q837 366 832 301 Q820 189 715 189 L667 189 L657 222 L721 221 Q790 221 802 321 Q804 365 804 587 L536 527 L536 147 L503 147 L503 520 L251 463 L251 58 Q251 -29 331 -29 L780 -29 Q846 -29 876 -5 Q905 23 914 174 L945 164 Q934 4 903 -30 Q870 -63 786 -63 L323 -63 Q218 -63 218 53 L218 456 L44 417 L44 451 L218 491 L218 737 L251 737 L251 498 L503 555 L503 816 Z" /><glyph glyph-name="uni4E60" unicode="&#x4e60;" d="M653 294 Q439 161 123 57 L109 90 Q425 187 645 326 L653 294 ZM223 581 Q356 480 447 379 L424 355 Q339 454 199 558 L223 581 ZM534 -89 L525 -57 L685 -57 Q739 -57 767 -11 Q793 35 799 214 Q801 322 802 704 L134 704 L134 737 L835 737 Q832 278 829 191 Q823 28 796 -30 Q769 -88 692 -88 L534 -89 Z" /><glyph glyph-name="uni4E61" unicode="&#x4e61;" d="M864 431 Q831 212 666 83 Q520 -36 149 -103 L135 -69 Q484 -9 640 106 Q714 162 760 238 Q528 203 186 183 L175 215 Q355 301 553 491 Q368 469 158 459 L149 491 Q338 636 472 828 L506 815 Q376 629 200 494 Q392 503 587 524 Q662 599 738 687 L771 671 Q479 340 257 220 Q579 242 779 273 Q815 346 830 434 L864 431 Z" /><glyph glyph-name="uni4E66" unicode="&#x4e66;" d="M427 816 L461 816 L461 629 L754 629 L754 612 L731 359 L877 359 Q877 91 835 43 Q814 21 777 12 Q749 7 725 7 L657 7 L648 40 L730 39 Q787 40 811 68 Q838 101 844 326 L461 326 L461 -96 L427 -96 L427 326 L55 326 L55 359 L427 359 L427 595 L112 595 L112 629 L427 629 L427 816 ZM461 359 L699 359 L721 595 L461 595 L461 359 ZM719 809 Q834 745 928 656 L909 628 Q807 727 701 783 L719 809 Z" /><glyph glyph-name="uni4E71" unicode="&#x4e71;" d="M51 515 L277 515 L277 707 Q179 697 85 697 L74 727 Q326 728 483 786 L500 756 Q418 726 312 711 L312 515 L537 515 L537 482 L312 482 L312 280 L488 280 L488 -90 L454 -90 L454 -36 L137 -36 L137 -90 L102 -90 L102 280 L277 280 L277 482 L51 482 L51 515 ZM137 -2 L454 -2 L454 247 L137 247 L137 -2 ZM692 -79 Q622 -79 622 -9 L622 798 L656 798 L656 -2 Q656 -46 702 -46 L822 -46 Q863 -46 880 -23 Q900 11 908 165 L941 155 Q932 -7 904 -48 Q881 -79 829 -79 L692 -79 Z" /><glyph glyph-name="uni4E7E" unicode="&#x4e7e;" d="M61 706 L252 706 L252 812 L285 812 L285 706 L480 706 L480 674 L285 674 L285 559 L439 559 L439 224 L285 224 L285 106 L482 106 L482 75 L285 75 L285 -98 L252 -98 L252 75 L47 75 L47 106 L252 106 L252 224 L101 224 L101 559 L252 559 L252 674 L61 674 L61 706 ZM405 256 L405 378 L135 378 L135 256 L405 256 ZM135 408 L405 408 L405 528 L135 528 L135 408 ZM591 634 Q552 566 506 510 L484 536 Q582 653 632 815 L664 807 Q641 735 609 668 L940 668 L940 634 L591 634 ZM537 449 L885 449 L885 417 Q764 294 684 190 Q626 121 595 66 Q571 27 571 7 Q571 -46 641 -46 L810 -46 Q854 -46 876 -18 Q896 8 907 160 L939 149 Q927 -13 899 -44 Q869 -77 810 -78 L635 -78 Q536 -78 536 2 Q536 34 559 68 Q585 117 661 213 Q735 306 838 415 L537 415 L537 449 Z" /><glyph glyph-name="uni4E86" unicode="&#x4e86;" d="M499 477 Q667 579 807 707 L123 707 L123 740 L854 740 L854 707 Q719 580 532 459 L532 -19 Q532 -87 457 -87 Q388 -87 300 -85 L290 -51 Q362 -54 447 -54 Q499 -54 499 -12 L499 477 Z" /><glyph glyph-name="uni4E88" unicode="&#x4e88;" d="M330 636 Q430 575 515 509 Q644 604 743 725 L182 725 L182 759 L788 759 L788 730 Q680 593 541 488 Q576 460 589 447 L902 447 L902 417 Q826 294 722 202 L695 225 Q790 306 863 414 L526 414 L526 -18 Q526 -91 452 -91 L310 -91 L303 -58 Q399 -60 440 -60 Q492 -60 492 -9 L492 414 L87 414 L87 447 L540 447 Q450 525 307 613 L330 636 Z" /><glyph glyph-name="uni4E89" unicode="&#x4e89;" d="M800 152 L501 152 L501 -20 Q501 -87 431 -87 L277 -87 L270 -54 Q348 -57 419 -57 Q468 -57 468 -11 L468 152 L186 152 L186 185 L468 185 L468 334 L64 334 L64 368 L468 368 L468 513 L203 513 L203 547 L490 547 Q580 605 660 682 L297 682 Q218 588 106 513 L84 538 Q257 653 347 813 L381 805 Q357 762 322 714 L707 714 L707 687 Q626 602 544 547 L800 547 L800 368 L939 368 L939 334 L800 334 L800 152 ZM501 513 L501 368 L765 368 L765 513 L501 513 ZM501 334 L501 185 L765 185 L765 334 L501 334 Z" /><glyph glyph-name="uni4E8B" unicode="&#x4e8b;" d="M187 629 L483 629 L483 711 L76 711 L76 743 L483 743 L483 815 L517 815 L517 743 L924 743 L924 711 L517 711 L517 629 L813 629 L813 453 L517 453 L517 370 L828 370 L828 230 L952 230 L952 199 L828 199 L828 68 L517 68 L517 -22 Q517 -91 446 -91 L323 -91 L316 -58 Q379 -61 434 -61 Q483 -61 483 -14 L483 68 L138 68 L138 98 L483 98 L483 199 L48 199 L48 230 L483 230 L483 339 L139 339 L139 370 L483 370 L483 453 L187 453 L187 629 ZM779 482 L779 599 L517 599 L517 482 L779 482 ZM483 482 L483 599 L221 599 L221 482 L483 482 ZM517 339 L517 230 L795 230 L795 339 L517 339 ZM795 199 L517 199 L517 98 L795 98 L795 199 Z" /><glyph glyph-name="uni2F06" unicode="&#x2f06;&#x4e8c;" d="M150 686 L850 686 L850 653 L150 653 L150 686 ZM59 57 L940 57 L940 24 L59 24 L59 57 Z" /><glyph glyph-name="uni4E8E" unicode="&#x4e8e;" d="M126 764 L867 764 L867 730 L526 730 L526 413 L937 413 L937 378 L526 378 L526 0 Q526 -86 440 -86 L289 -86 L282 -52 Q359 -55 429 -55 Q492 -55 492 8 L492 378 L63 378 L63 413 L492 413 L492 730 L126 730 L126 764 Z" /><glyph glyph-name="uni4E91" unicode="&#x4e91;" d="M154 743 L856 743 L856 709 L154 709 L154 743 ZM58 459 L945 459 L945 425 L455 425 Q299 99 187 -9 Q498 6 805 42 Q746 150 662 276 L690 293 Q834 74 907 -81 L878 -102 Q851 -43 823 10 Q520 -24 141 -45 L133 -12 L141 -8 Q245 69 419 425 L58 425 L58 459 Z" /><glyph glyph-name="uni4E92" unicode="&#x4e92;" d="M79 758 L919 758 L919 723 L380 723 L332 522 L771 522 L686 -24 L948 -24 L948 -57 L64 -57 L64 -24 L652 -24 L687 195 L219 195 L344 723 L79 723 L79 758 ZM692 228 L734 489 L324 489 L261 228 L692 228 Z" /><glyph glyph-name="uni4E94" unicode="&#x4e94;" d="M149 419 L383 419 L443 709 L99 709 L99 743 L902 743 L902 709 L478 709 L418 419 L765 419 L765 -12 L940 -12 L940 -45 L61 -45 L61 -12 L294 -12 L376 385 L149 385 L149 419 ZM328 -12 L730 -12 L730 385 L411 385 L328 -12 Z" /><glyph glyph-name="uni4E9A" unicode="&#x4e9a;" d="M94 744 L906 744 L906 710 L623 710 L623 -10 L938 -10 L938 -43 L62 -43 L62 -10 L375 -10 L375 710 L94 710 L94 744 ZM408 -10 L590 -10 L590 710 L408 710 L408 -10 ZM871 541 Q818 312 736 140 L706 152 Q784 310 840 549 L871 541 ZM151 536 Q224 373 282 151 L251 143 Q200 339 120 526 L151 536 Z" /><glyph glyph-name="uni4E9B" unicode="&#x4e9b;" d="M317 809 L351 809 L351 628 L515 628 L515 594 L351 594 L351 364 Q431 378 527 399 L527 366 Q309 318 48 288 L39 320 L145 332 L145 712 L179 712 L179 337 L317 358 L317 809 ZM920 690 Q792 621 622 576 L622 389 Q622 341 669 341 L805 341 Q851 341 870 358 Q894 384 903 496 L935 485 Q926 365 895 332 Q870 308 812 308 L658 308 Q589 308 589 382 L589 808 L622 808 L622 609 Q776 651 899 718 L920 690 ZM178 188 L821 188 L821 155 L178 155 L178 188 ZM69 -26 L932 -26 L932 -60 L69 -60 L69 -26 Z" /><glyph glyph-name="uni4EA1" unicode="&#x4ea1;" d="M62 623 L516 623 Q477 709 412 789 L445 802 Q502 732 552 623 L937 623 L937 589 L242 589 L242 -10 L895 -10 L895 -44 L207 -44 L207 589 L62 589 L62 623 Z" /><glyph glyph-name="uni4EA4" unicode="&#x4ea4;" d="M63 680 L501 680 Q470 755 435 811 L472 818 Q508 752 536 680 L938 680 L938 647 L63 647 L63 680 ZM647 588 Q814 453 925 316 L900 292 Q791 425 623 566 L647 588 ZM718 391 Q644 246 529 140 Q698 8 945 -58 L925 -89 Q667 -16 503 117 Q333 -28 81 -94 L61 -64 Q315 2 477 138 Q355 243 282 379 L312 396 Q385 260 503 161 Q616 265 686 405 L718 391 ZM373 565 Q256 415 92 306 L70 334 Q232 440 348 588 L373 565 Z" /><glyph glyph-name="uni4EA7" unicode="&#x4ea7;" d="M486 826 Q516 771 540 698 L899 698 L899 665 L716 665 Q697 568 656 477 L920 477 L920 444 L188 444 L188 276 Q182 44 76 -95 L51 -72 Q149 54 153 276 L153 477 L361 477 L311 665 L119 665 L119 698 L506 698 Q479 771 451 820 L486 826 ZM396 477 L621 477 Q665 564 682 665 L345 665 L396 477 Z" /><glyph glyph-name="uni4EA9" unicode="&#x4ea9;" d="M839 498 L839 -97 L805 -97 L805 -32 L199 -32 L199 -97 L166 -97 L166 498 L839 498 ZM199 1 L485 1 L485 215 L199 215 L199 1 ZM519 1 L805 1 L805 215 L519 215 L519 1 ZM199 248 L485 248 L485 464 L199 464 L199 248 ZM519 464 L519 248 L805 248 L805 464 L519 464 ZM63 677 L499 677 Q471 747 434 804 L467 816 Q506 757 535 677 L937 677 L937 643 L63 643 L63 677 Z" /><glyph glyph-name="uni4EAB" unicode="&#x4eab;" d="M217 594 L784 594 L784 417 L217 417 L217 594 ZM751 448 L751 562 L250 562 L250 448 L751 448 ZM468 814 Q498 767 521 714 L930 714 L930 680 L71 680 L71 714 L486 714 Q460 768 431 807 L468 814 ZM49 131 L500 131 L500 188 Q631 235 762 296 L145 296 L145 328 L831 328 L831 302 Q695 232 533 173 L533 131 L951 131 L951 98 L533 98 L533 -25 Q533 -95 466 -95 L322 -95 L313 -62 L452 -64 Q500 -64 500 -15 L500 98 L49 98 L49 131 Z" /><glyph glyph-name="uni4EAC" unicode="&#x4eac;" d="M201 527 L800 527 L800 283 L521 283 L521 -11 Q521 -87 448 -87 L340 -87 L333 -54 Q387 -57 435 -57 Q487 -57 487 -2 L487 283 L201 283 L201 527 ZM766 316 L766 494 L235 494 L235 316 L766 316 ZM465 819 Q492 767 519 692 L939 692 L939 659 L61 659 L61 692 L485 692 Q461 760 431 813 L465 819 ZM698 192 Q846 71 940 -46 L915 -71 Q826 42 676 169 L698 192 ZM327 168 Q229 31 80 -72 L58 -44 Q201 55 303 191 L327 168 Z" /><glyph glyph-name="uni4EAE" unicode="&#x4eae;" d="M61 721 L490 721 Q467 771 437 814 L473 821 Q501 775 524 721 L939 721 L939 690 L61 690 L61 721 ZM246 598 L754 598 L754 427 L246 427 L246 598 ZM721 458 L721 568 L279 568 L279 458 L721 458 ZM896 338 L896 186 L862 186 L862 306 L137 306 L137 186 L103 186 L103 338 L896 338 ZM325 209 L671 209 L671 -3 Q671 -55 722 -55 L818 -55 Q851 -55 869 -43 Q894 -26 903 90 L936 80 Q927 -21 906 -54 Q885 -86 823 -86 L713 -86 Q638 -86 638 -11 L638 177 L359 177 L359 142 Q351 -51 84 -96 L64 -67 Q325 -25 325 147 L325 209 Z" /><glyph glyph-name="uni4EB2" unicode="&#x4eb2;" d="M637 165 Q802 84 938 -28 L919 -57 Q772 68 619 138 L637 165 ZM373 139 Q258 25 74 -50 L59 -19 Q233 49 351 163 L373 139 ZM480 817 Q507 759 526 695 L866 695 L866 662 L136 662 L136 695 L491 695 Q470 758 444 811 L480 817 ZM88 453 L336 453 Q305 530 258 597 L290 609 Q333 549 370 453 L630 453 Q676 524 712 616 L745 604 Q709 516 666 453 L913 453 L913 419 L520 419 L520 271 L881 271 L881 238 L520 238 L520 -27 Q520 -95 445 -95 L331 -95 L323 -62 Q382 -65 433 -65 Q485 -65 485 -18 L485 238 L119 238 L119 271 L485 271 L485 419 L88 419 L88 453 Z" /><glyph glyph-name="uni2F08" unicode="&#x2f08;&#x4eba;" d="M520 810 Q520 697 513 590 Q597 166 956 -55 L934 -84 Q592 137 502 510 Q427 148 63 -84 L42 -54 Q468 213 483 647 L485 810 L520 810 Z" /><glyph glyph-name="uni4EBF" unicode="&#x4ebf;" d="M186 524 Q125 431 45 348 L35 383 Q216 582 292 823 L323 808 Q282 689 220 580 L220 -98 L186 -98 L186 524 ZM389 705 L877 705 L877 674 Q650 440 578 356 Q479 244 439 154 Q410 93 410 50 Q410 16 434 -5 Q461 -26 535 -26 L810 -26 Q864 -25 888 12 Q910 56 910 192 L943 182 Q943 34 915 -14 Q886 -60 820 -60 L528 -60 Q443 -60 409 -32 Q376 1 376 50 Q376 99 403 156 Q443 251 548 368 Q659 495 828 670 L389 670 L389 705 Z" /><glyph glyph-name="uni4EC0" unicode="&#x4ec0;" d="M194 526 Q125 416 45 332 L35 366 Q212 568 287 812 L319 797 Q279 680 228 585 L228 -98 L194 -98 L194 526 ZM619 814 L654 814 L654 469 L951 469 L951 435 L654 435 L654 -98 L619 -98 L619 435 L325 435 L325 469 L619 469 L619 814 Z" /><glyph glyph-name="uni4EC1" unicode="&#x4ec1;" d="M376 637 L894 637 L894 603 L376 603 L376 637 ZM320 58 L948 58 L948 25 L320 25 L320 58 ZM187 509 Q121 413 47 339 L37 375 Q220 573 301 816 L332 801 Q287 671 221 562 L221 -97 L187 -97 L187 509 Z" /><glyph glyph-name="uni4EC5" unicode="&#x4ec5;" d="M309 799 Q272 684 214 578 L214 -98 L180 -98 L180 520 Q122 430 54 356 L43 391 Q207 580 277 814 L309 799 ZM931 -91 Q756 25 640 165 Q514 8 335 -91 L313 -63 Q498 36 618 192 Q440 422 417 705 L371 705 L371 738 L869 738 L869 707 Q815 398 660 190 Q776 50 953 -64 L931 -91 ZM638 217 Q784 417 835 705 L450 705 Q469 432 638 217 Z" /><glyph glyph-name="uni4EC7" unicode="&#x4ec7;" d="M319 789 Q276 664 218 562 L218 -97 L184 -97 L184 506 Q122 410 50 335 L39 372 Q212 564 287 802 L319 789 ZM499 802 L532 802 L532 582 L764 582 L764 0 Q764 -50 811 -50 L865 -50 Q900 -50 909 16 Q915 75 915 140 L948 131 Q941 21 936 -5 Q924 -82 865 -82 L806 -82 Q730 -82 730 -6 L730 548 L532 547 Q528 112 316 -89 L289 -66 Q496 126 499 548 L345 548 L345 582 L499 582 L499 802 Z" /><glyph glyph-name="uni4ECA" unicode="&#x4eca;" d="M405 549 Q533 488 633 406 L614 376 Q503 469 387 521 L405 549 ZM150 307 L838 307 L838 280 Q730 35 438 -94 L416 -66 Q692 52 798 274 L150 274 L150 307 ZM513 797 Q703 580 959 453 L941 422 Q685 552 501 764 Q331 564 60 421 L43 452 Q311 590 489 797 L513 797 Z" /><glyph glyph-name="uni4ECB" unicode="&#x4ecb;" d="M651 475 L685 475 L685 -87 L651 -87 L651 475 ZM312 472 L346 472 L346 296 Q342 29 164 -94 L139 -71 Q309 43 312 296 L312 472 ZM512 809 Q698 577 944 441 L928 412 Q678 549 500 777 Q337 560 73 403 L58 432 Q319 587 488 809 L512 809 Z" /><glyph glyph-name="uni4ECD" unicode="&#x4ecd;" d="M484 722 L341 722 L341 756 L804 756 L804 739 Q785 592 748 435 L917 435 L917 420 Q908 140 897 65 Q882 -27 854 -56 Q824 -86 756 -86 L639 -86 L629 -51 Q695 -54 746 -54 Q805 -54 830 -29 Q853 -3 863 68 Q874 132 883 404 L709 404 Q748 571 769 722 L518 722 L518 514 Q512 104 297 -84 L270 -61 Q481 120 484 514 L484 722 ZM289 804 Q255 696 213 610 L213 -98 L180 -98 L180 546 Q122 441 41 348 L30 384 Q189 579 258 819 L289 804 Z" /><glyph glyph-name="uni4ECE" unicode="&#x4ece;" d="M307 806 Q307 573 282 393 Q405 263 489 128 L464 103 Q391 225 276 353 L273 334 Q222 74 60 -85 L36 -56 Q183 88 234 319 Q271 514 273 806 L307 806 ZM697 807 Q697 656 686 521 Q764 159 957 -53 L933 -81 Q757 118 676 432 Q667 368 660 330 Q609 71 438 -91 L415 -63 Q569 84 623 317 Q662 514 662 807 L697 807 Z" /><glyph glyph-name="uni4ED6" unicode="&#x4ed6;" d="M311 804 Q274 689 217 582 L217 -98 L182 -98 L182 521 Q124 427 45 339 L34 374 Q207 574 280 819 L311 804 ZM489 -76 Q393 -76 393 20 L393 457 L290 423 L290 457 L393 491 L393 720 L428 720 L428 502 L612 562 L612 813 L647 813 L647 574 L864 645 Q864 350 852 287 Q840 225 751 225 L729 225 L719 259 Q747 257 758 257 Q806 257 818 297 Q830 336 830 598 L647 539 L647 101 L612 101 L612 528 L428 468 L428 25 Q428 -42 498 -42 L808 -42 Q856 -42 879 -19 Q901 9 907 155 L940 145 Q931 -9 905 -43 Q880 -76 813 -76 L489 -76 Z" /><glyph glyph-name="uni4ED7" unicode="&#x4ed7;" d="M299 807 Q264 693 218 598 L218 -98 L184 -98 L184 533 Q126 430 47 337 L36 372 Q198 573 267 822 L299 807 ZM323 628 L700 628 L700 813 L734 813 L734 628 L940 628 L940 594 L734 594 L734 530 Q733 283 641 134 Q773 4 956 -67 L936 -96 Q752 -24 621 105 Q523 -21 325 -98 L305 -68 Q501 4 597 130 Q467 271 389 471 L417 488 Q490 293 617 159 Q697 301 700 530 L700 594 L323 594 L323 628 Z" /><glyph glyph-name="uni4ED8" unicode="&#x4ed8;" d="M312 806 Q281 707 233 608 L233 -98 L199 -98 L199 544 Q135 432 50 338 L40 373 Q208 574 280 821 L312 806 ZM348 582 L760 582 L760 812 L794 812 L794 582 L947 582 L947 548 L794 548 L794 3 Q794 -87 718 -87 L578 -87 L571 -53 Q640 -56 706 -56 Q760 -56 760 12 L760 548 L348 548 L348 582 ZM421 415 Q543 271 607 166 L579 146 Q513 257 393 397 L421 415 Z" /><glyph glyph-name="uni4ED9" unicode="&#x4ed9;" d="M322 807 Q280 684 218 578 L218 -98 L184 -98 L184 522 Q126 434 47 353 L36 389 Q215 583 291 821 L322 807 ZM631 809 L664 809 L664 7 L867 7 L867 627 L902 627 L902 -90 L867 -90 L867 -27 L421 -27 L421 -90 L387 -90 L387 626 L421 626 L421 7 L631 7 L631 809 Z" /><glyph glyph-name="uni4EE3" unicode="&#x4ee3;" d="M910 556 L915 523 L571 483 Q581 362 601 278 Q639 125 712 32 Q778 -52 835 -52 Q885 -52 909 155 L938 138 Q921 14 892 -45 Q866 -86 836 -86 Q765 -86 690 7 Q608 109 567 276 Q546 357 537 479 L305 452 L300 485 L534 512 Q523 649 523 814 L557 814 Q557 651 568 516 L910 556 ZM188 519 Q126 426 47 344 L37 379 Q217 574 292 814 L323 799 Q279 673 222 575 L222 -98 L188 -98 L188 519 ZM672 802 Q767 725 831 644 L807 621 Q747 698 649 781 L672 802 Z" /><glyph glyph-name="uni4EE5" unicode="&#x4ee5;" d="M355 696 Q501 537 577 424 L549 404 Q468 529 326 678 L355 696 ZM719 249 Q623 44 393 -90 L370 -62 Q622 82 711 314 Q775 514 775 802 L810 802 Q810 523 751 329 L734 282 Q866 110 951 -54 L927 -79 Q845 82 719 249 ZM130 58 Q151 70 151 89 L151 758 L186 758 L186 78 Q319 128 444 205 L454 170 Q305 85 140 26 L130 58 Z" /><glyph glyph-name="uni4EEA" unicode="&#x4eea;" d="M320 799 Q278 676 218 572 L218 -94 L184 -94 L184 517 Q129 435 56 357 L45 392 Q215 580 289 814 L320 799 ZM523 806 Q625 682 678 595 L650 576 Q585 683 496 788 L523 806 ZM880 761 Q826 388 654 165 Q782 19 955 -65 L935 -95 Q761 -8 633 138 Q507 -12 326 -93 L308 -64 Q489 18 610 165 Q447 361 359 653 L388 670 Q475 383 631 192 Q796 414 847 768 L880 761 Z" /><glyph glyph-name="uni4EEC" unicode="&#x4eec;" d="M721 -89 L712 -56 L816 -57 Q870 -57 870 8 L870 701 L608 701 L608 734 L904 734 L904 -1 Q904 -89 823 -89 L721 -89 ZM442 811 Q518 719 560 648 L533 628 Q489 705 415 794 L442 811 ZM321 800 Q278 673 218 569 L218 -98 L184 -98 L184 514 Q124 424 51 348 L40 383 Q214 575 290 814 L321 800 ZM376 642 L410 642 L410 -94 L376 -94 L376 642 Z" /><glyph glyph-name="uni4EF0" unicode="&#x4ef0;" d="M342 75 Q361 81 361 96 L361 706 Q490 745 556 790 L576 761 Q510 719 393 683 L393 91 Q490 126 571 163 L578 130 Q473 86 350 44 L342 75 ZM178 533 Q127 435 54 343 L43 379 Q188 573 251 812 L282 798 Q254 699 211 601 L211 -97 L178 -97 L178 533 ZM752 29 L743 63 L802 61 Q865 61 865 138 L865 696 L676 696 L676 -91 L642 -91 L642 729 L898 729 L898 132 Q898 29 814 29 L752 29 Z" /><glyph glyph-name="uni4EF6" unicode="&#x4ef6;" d="M313 801 Q269 672 212 571 L212 -97 L179 -97 L179 516 Q120 424 46 347 L35 383 Q207 576 282 815 L313 801 ZM482 754 Q467 664 443 590 L634 590 L634 811 L668 811 L668 590 L913 590 L913 556 L668 556 L668 275 L949 275 L949 242 L668 242 L668 -91 L634 -91 L634 242 L322 242 L322 275 L634 275 L634 556 L431 556 Q392 454 335 373 L314 400 Q411 545 448 758 L482 754 Z" /><glyph glyph-name="uni4EF7" unicode="&#x4ef7;" d="M187 531 Q132 440 56 356 L45 391 Q205 576 273 806 L305 792 Q269 684 221 591 L221 -96 L187 -96 L187 531 ZM733 466 L767 466 L767 -86 L733 -86 L733 466 ZM467 463 L500 463 L500 309 Q497 34 351 -94 L325 -72 Q464 48 467 309 L467 463 ZM625 809 Q723 596 959 438 L940 409 Q720 556 610 774 Q484 530 292 396 L273 425 Q482 573 596 809 L625 809 Z" /><glyph glyph-name="uni4EFB" unicode="&#x4efb;" d="M898 742 Q789 705 644 688 L644 371 L949 371 L949 337 L644 337 L644 -6 L899 -6 L899 -40 L356 -40 L356 -6 L610 -6 L610 337 L307 337 L307 371 L610 371 L610 684 Q495 673 375 673 L363 705 Q684 707 880 772 L898 742 ZM321 793 Q278 671 218 571 L218 -98 L184 -98 L184 518 Q127 434 53 359 L42 394 Q215 579 290 806 L321 793 Z" /><glyph glyph-name="uni4EFD" unicode="&#x4efd;" d="M391 374 L391 408 L812 408 Q812 125 796 51 Q784 -79 688 -79 L584 -77 L575 -43 Q659 -45 686 -45 Q753 -45 762 56 Q774 115 777 374 L571 374 Q545 198 498 99 Q444 -4 339 -88 L316 -60 Q417 18 466 111 Q515 211 538 374 L391 374 ZM323 801 Q281 669 218 559 L218 -98 L184 -98 L184 502 Q125 409 50 328 L39 365 Q217 567 292 816 L323 801 ZM557 789 Q459 529 304 396 L277 419 Q438 557 525 801 L557 789 ZM694 812 Q769 584 955 437 L932 411 Q741 559 664 795 L694 812 Z" /><glyph glyph-name="uni4EFF" unicode="&#x4eff;" d="M317 797 Q281 688 230 594 L230 -98 L196 -98 L196 535 Q133 433 55 351 L44 387 Q213 579 285 812 L317 797 ZM503 610 L339 610 L339 643 L634 643 Q604 733 568 806 L604 813 Q642 728 668 643 L939 643 L939 610 L536 610 L536 482 Q536 440 533 404 L861 404 Q860 132 846 37 Q827 -79 724 -85 Q664 -85 580 -82 L570 -51 Q659 -54 720 -54 Q803 -49 816 55 Q826 153 826 371 L530 371 Q503 63 339 -94 L313 -70 Q500 102 503 482 L503 610 Z" /><glyph glyph-name="uni4F01" unicode="&#x4f01;" d="M512 807 Q703 592 957 465 L939 433 Q683 565 500 776 Q330 576 57 432 L40 464 Q310 602 488 807 L512 807 ZM512 550 L545 550 L545 307 L834 307 L834 274 L545 274 L545 -15 L905 -15 L905 -49 L83 -49 L83 -15 L246 -15 L246 406 L279 406 L279 -15 L512 -15 L512 550 Z" /><glyph glyph-name="uni4F0D" unicode="&#x4f0d;" d="M362 411 L531 411 L568 705 L355 705 L355 738 L906 738 L906 705 L602 705 L565 411 L823 411 L823 -20 L948 -20 L948 -53 L306 -53 L306 -20 L478 -20 L527 377 L362 377 L362 411 ZM512 -20 L790 -20 L790 377 L561 377 L512 -20 ZM322 798 Q280 675 220 570 L220 -98 L185 -98 L185 512 Q124 420 55 348 L44 384 Q217 575 291 813 L322 798 Z" /><glyph glyph-name="uni4F0F" unicode="&#x4f0f;" d="M192 536 Q133 433 52 339 L41 375 Q205 574 274 816 L306 801 Q274 697 226 600 L226 -98 L192 -98 L192 536 ZM758 782 Q849 680 891 613 L864 593 Q814 671 731 765 L758 782 ZM639 809 Q639 745 635 529 L636 522 L938 522 L938 489 L642 489 Q711 126 956 -68 L932 -94 Q693 100 624 435 Q565 121 312 -95 L288 -69 Q563 165 597 489 L326 489 L326 522 L600 522 Q605 732 605 809 L639 809 Z" /><glyph glyph-name="uni4F11" unicode="&#x4f11;" d="M182 512 Q123 427 50 352 L39 388 Q218 579 292 811 L323 796 Q278 669 217 567 L217 -94 L182 -94 L182 512 ZM343 597 L592 597 L592 808 L625 808 L625 597 L898 597 L898 564 L670 564 Q769 280 954 99 L932 69 Q750 255 643 564 L625 564 L625 -95 L592 -95 L592 564 L573 564 Q470 243 298 62 L279 93 Q451 269 547 564 L343 564 L343 597 Z" /><glyph glyph-name="uni4F17" unicode="&#x4f17;" d="M513 811 Q697 567 939 426 L922 395 Q675 542 500 780 Q338 553 72 388 L55 420 Q312 575 487 811 L513 811 ZM333 460 Q333 361 319 277 Q419 178 488 81 L464 56 Q406 145 313 241 Q304 199 297 176 Q246 21 80 -75 L59 -47 Q207 36 262 174 Q300 290 300 460 L333 460 ZM685 468 Q685 386 675 299 Q756 76 950 -52 L928 -79 Q747 48 666 239 Q662 217 652 177 Q607 19 456 -81 L435 -53 Q570 35 617 174 Q651 296 651 468 L685 468 Z" /><glyph glyph-name="uni4F18" unicode="&#x4f18;" d="M191 522 Q128 424 49 341 L39 375 Q215 570 288 810 L319 795 Q279 678 226 581 L226 -96 L191 -96 L191 522 ZM322 555 L531 555 Q533 607 533 633 L533 809 L567 809 L567 633 L564 555 L923 555 L923 521 L707 521 L707 -18 Q707 -48 739 -48 L843 -48 Q869 -48 883 -31 Q903 -2 908 149 L940 139 Q934 -12 909 -53 Q891 -78 852 -80 L730 -80 Q674 -80 674 -25 L674 521 L562 521 Q532 110 316 -91 L291 -70 Q500 123 529 521 L322 521 L322 555 ZM706 787 Q802 720 870 646 L846 622 Q783 691 684 765 L706 787 Z" /><glyph glyph-name="uni4F19" unicode="&#x4f19;" d="M192 512 Q138 431 70 360 L59 395 Q224 580 296 807 L327 793 Q288 675 226 567 L226 -94 L192 -94 L192 512 ZM467 633 Q449 458 380 323 L348 333 Q417 466 434 637 L467 633 ZM647 804 Q647 677 644 557 Q644 529 640 475 Q696 127 946 -62 L923 -87 Q689 96 629 392 Q578 101 342 -93 L319 -67 Q599 158 611 538 Q613 720 613 804 L647 804 ZM909 644 Q872 469 818 343 L786 355 Q838 470 877 652 L909 644 Z" /><glyph glyph-name="uni4F1A" unicode="&#x4f1a;" d="M512 810 Q705 587 957 458 L939 426 Q684 562 500 779 Q331 574 57 425 L40 457 Q308 597 488 810 L512 810 ZM261 493 L742 493 L742 459 L261 459 L261 493 ZM104 291 L898 291 L898 257 L419 257 Q339 93 215 -38 Q506 -22 762 18 Q704 97 630 184 L657 201 Q792 44 865 -75 L838 -96 Q813 -55 781 -8 Q550 -47 175 -71 L165 -40 Q177 -35 183 -31 Q308 110 382 257 L104 257 L104 291 Z" /><glyph glyph-name="uni4F1F" unicode="&#x4f1f;" d="M350 684 L599 684 L599 808 L634 808 L634 684 L910 684 L910 651 L634 651 L634 492 L867 492 L867 458 L634 458 L634 301 L921 301 Q921 100 891 55 Q862 14 787 11 L735 11 L726 42 L777 42 Q848 45 868 84 Q885 126 888 267 L634 267 L634 -95 L599 -95 L599 267 L320 267 L320 301 L599 301 L599 458 L388 458 L388 492 L599 492 L599 651 L350 651 L350 684 ZM186 518 Q126 430 49 350 L38 386 Q217 580 294 818 L326 803 Q281 677 220 573 L220 -98 L186 -98 L186 518 Z" /><glyph glyph-name="uni4F20" unicode="&#x4f20;" d="M186 515 Q129 427 55 347 L44 383 Q216 576 289 812 L320 798 Q280 675 220 571 L220 -98 L186 -98 L186 515 ZM355 671 L556 671 Q574 740 589 812 L623 809 L591 671 L914 671 L914 637 L582 637 Q562 565 537 485 L955 485 L955 452 L526 452 Q495 362 463 291 L895 291 L895 261 Q823 140 669 24 Q751 -20 827 -74 L808 -104 Q624 27 431 102 L449 130 Q541 92 639 41 Q780 141 859 258 L419 258 Q462 361 493 452 L311 452 L311 485 L503 485 Q529 565 548 637 L355 637 L355 671 Z" /><glyph glyph-name="uni4F24" unicode="&#x4f24;" d="M318 808 Q275 684 218 583 L218 -98 L184 -98 L184 526 Q123 430 46 349 L35 385 Q211 582 286 823 L318 808 ZM549 824 Q529 748 493 680 L948 680 L948 647 L475 647 Q420 555 336 480 L314 508 Q464 637 515 828 L549 824 ZM586 566 L619 566 L619 415 L618 404 L907 404 Q907 93 893 15 Q882 -82 793 -82 L641 -80 L632 -49 Q754 -51 792 -51 Q851 -51 860 19 Q871 78 874 371 L616 371 Q592 53 364 -100 L338 -76 Q562 68 583 371 L383 371 L383 404 L585 404 L586 427 L586 566 Z" /><glyph glyph-name="uni4F34" unicode="&#x4f34;" d="M411 759 Q464 665 502 549 L470 541 Q434 648 380 749 L411 759 ZM886 768 Q846 633 788 537 L756 549 Q811 637 853 777 L886 768 ZM346 472 L614 472 L614 810 L648 810 L648 472 L924 472 L924 439 L648 439 L648 237 L951 237 L951 204 L648 204 L648 -95 L614 -95 L614 204 L316 204 L316 237 L614 237 L614 439 L346 439 L346 472 ZM309 799 Q271 678 211 571 L211 -98 L178 -98 L178 515 Q123 428 53 351 L42 387 Q208 580 278 813 L309 799 Z" /><glyph glyph-name="uni4F46" unicode="&#x4f46;" d="M414 743 L870 743 L870 161 L414 161 L414 743 ZM836 193 L836 435 L448 435 L448 193 L836 193 ZM448 468 L836 468 L836 709 L448 709 L448 468 ZM329 -26 L953 -26 L953 -60 L329 -60 L329 -26 ZM323 801 Q280 674 219 573 L219 -98 L185 -98 L185 520 Q126 432 49 353 L38 389 Q218 582 292 816 L323 801 Z" /><glyph glyph-name="uni4F4D" unicode="&#x4f4d;" d="M319 801 Q278 678 220 577 L220 -98 L186 -98 L186 521 Q131 436 55 354 L44 389 Q217 583 288 815 L319 801 ZM336 638 L625 638 Q598 736 570 805 L605 811 Q636 731 658 638 L928 638 L928 605 L336 605 L336 638 ZM319 -3 L668 -3 Q750 204 810 520 L843 511 Q789 221 703 -3 L954 -3 L954 -37 L319 -37 L319 -3 ZM434 508 Q494 313 543 48 L511 40 Q470 270 402 498 L434 508 Z" /><glyph glyph-name="uni4F4E" unicode="&#x4f4e;" d="M411 398 L411 -15 Q480 9 527 32 L534 1 Q454 -32 368 -61 L358 -30 Q378 -24 378 -7 L378 678 Q701 728 863 787 L883 759 Q798 729 702 707 Q702 561 712 431 L942 431 L942 398 L715 398 Q721 322 733 261 Q757 125 801 41 Q839 -28 864 -28 Q895 -25 916 157 L945 141 Q918 -67 872 -67 Q829 -67 781 13 Q732 99 701 252 Q687 325 682 398 L411 398 ZM669 699 Q543 673 411 652 L411 431 L679 431 Q669 564 669 699 ZM582 114 Q672 11 720 -69 L693 -87 Q636 5 557 96 L582 114 ZM318 795 Q278 677 219 574 L219 -98 L185 -98 L185 518 Q122 423 48 346 L38 382 Q213 575 286 809 L318 795 Z" /><glyph glyph-name="uni4F4F" unicode="&#x4f4f;" d="M332 628 L928 628 L928 594 L648 594 L648 312 L901 312 L901 279 L648 279 L648 -26 L948 -26 L948 -61 L314 -61 L314 -26 L614 -26 L614 279 L362 279 L362 312 L614 312 L614 594 L332 594 L332 628 ZM317 798 Q275 675 215 571 L215 -98 L181 -98 L181 516 Q123 429 54 357 L43 392 Q214 582 285 813 L317 798 ZM594 812 Q634 725 653 666 L621 654 Q598 726 560 802 L594 812 Z" /><glyph glyph-name="uni4F51" unicode="&#x4f51;" d="M323 786 Q281 660 218 551 L218 -93 L184 -93 L184 496 Q124 407 54 334 L43 369 Q217 562 292 800 L323 786 ZM864 359 L864 -91 L831 -91 L831 -20 L521 -20 L521 -91 L487 -91 L487 343 Q409 206 303 121 L286 151 Q476 314 558 606 L352 606 L352 639 L566 639 Q589 730 600 814 L634 810 Q620 715 600 639 L933 639 L933 606 L592 606 Q552 466 496 359 L864 359 ZM521 13 L831 13 L831 326 L521 326 L521 13 Z" /><glyph glyph-name="uni4F53" unicode="&#x4f53;" d="M180 498 Q122 405 54 328 L44 362 Q212 565 284 815 L315 800 Q272 666 213 556 L213 -97 L180 -97 L180 498 ZM309 624 L595 624 L595 813 L628 813 L628 624 L916 624 L916 590 L684 590 Q756 319 954 109 L932 82 Q732 307 657 590 L628 590 L628 157 L804 157 L804 124 L628 124 L628 -95 L595 -95 L595 124 L420 124 L420 157 L595 157 L595 590 L567 590 Q489 274 291 74 L273 103 Q462 288 541 590 L309 590 L309 624 Z" /><glyph glyph-name="uni4F55" unicode="&#x4f55;" d="M336 742 L950 742 L950 708 L863 708 L863 -23 Q863 -92 785 -92 L613 -92 L606 -59 Q722 -61 773 -61 Q829 -61 829 -15 L829 708 L336 708 L336 742 ZM373 524 L681 524 L681 172 L373 172 L373 524 ZM647 205 L647 492 L407 492 L407 205 L647 205 ZM306 799 Q269 680 213 579 L213 -98 L180 -98 L180 522 Q122 430 56 358 L45 393 Q206 580 275 814 L306 799 Z" /><glyph glyph-name="uni4F59" unicode="&#x4f59;" d="M513 805 Q703 616 958 504 L940 473 Q684 588 501 774 Q333 594 58 464 L41 495 Q311 619 489 805 L513 805 ZM243 527 L763 527 L763 494 L526 494 L526 329 L901 329 L901 295 L526 295 L526 2 Q526 -82 440 -82 L320 -82 L313 -50 Q393 -52 428 -52 Q492 -52 492 10 L492 295 L99 295 L99 329 L492 329 L492 494 L243 494 L243 527 ZM340 197 Q249 39 101 -44 L75 -22 Q228 62 309 209 L340 197 ZM689 218 Q842 81 930 -29 L902 -50 Q814 66 662 201 L689 218 Z" /><glyph glyph-name="uni4F5B" unicode="&#x4f5b;" d="M300 805 Q260 678 206 575 L206 -98 L173 -98 L173 516 Q118 426 50 348 L40 383 Q199 577 269 819 L300 805 ZM366 454 L347 287 L481 287 Q490 363 493 454 L366 454 ZM527 454 Q524 362 515 287 L672 287 L672 454 L527 454 ZM705 454 L705 287 L921 287 Q921 107 904 62 Q884 7 824 7 L767 8 L759 41 Q792 38 819 38 Q865 38 877 86 Q887 126 887 255 L705 255 L705 -96 L672 -96 L672 255 L510 255 Q496 169 473 109 Q419 -23 300 -99 L280 -69 Q396 3 448 136 Q465 187 476 255 L311 255 L338 485 L494 485 L494 651 L330 651 L330 682 L494 682 L494 808 L528 808 L528 682 L672 682 L672 808 L705 808 L705 682 L887 682 L887 454 L705 454 ZM528 651 L528 485 L672 485 L672 651 L528 651 ZM705 651 L705 485 L854 485 L854 651 L705 651 Z" /><glyph glyph-name="uni4F5C" unicode="&#x4f5c;" d="M467 624 Q399 480 301 363 L277 390 Q426 566 504 815 L537 807 Q515 736 482 657 L947 657 L947 624 L585 624 L585 422 L897 422 L897 388 L585 388 L585 183 L909 183 L909 150 L585 150 L585 -95 L551 -95 L551 624 L467 624 ZM184 518 Q122 429 54 361 L43 396 Q216 581 292 811 L323 796 Q281 675 218 571 L218 -95 L184 -95 L184 518 Z" /><glyph glyph-name="uni4F60" unicode="&#x4f60;" d="M185 513 Q124 415 50 334 L39 369 Q211 569 284 815 L315 800 Q276 680 220 574 L220 -96 L185 -96 L185 513 ZM781 415 Q868 225 929 24 L898 11 Q831 230 749 404 L781 415 ZM453 643 Q404 524 332 417 L303 435 Q420 602 477 820 L511 813 Q491 743 466 677 L904 677 L904 654 Q881 562 837 466 L804 476 Q846 557 869 643 L453 643 ZM459 -88 L452 -55 Q520 -58 582 -58 Q622 -58 622 -18 L622 540 L655 540 L655 -27 Q655 -88 594 -88 L459 -88 ZM491 401 Q434 189 343 28 L310 40 Q396 183 460 410 L491 401 Z" /><glyph glyph-name="uni4F63" unicode="&#x4f63;" d="M414 472 L414 339 Q414 297 411 256 L620 256 L620 472 L414 472 ZM408 222 Q389 34 313 -96 L287 -72 Q378 89 381 337 L381 757 L904 757 L904 -19 Q904 -93 831 -93 L746 -93 L737 -60 Q797 -62 820 -62 Q870 -62 870 -7 L870 222 L653 222 L653 -81 L620 -81 L620 222 L408 222 ZM870 256 L870 472 L653 472 L653 256 L870 256 ZM870 506 L870 723 L653 723 L653 506 L870 506 ZM620 723 L414 723 L414 506 L620 506 L620 723 ZM177 508 Q118 416 50 344 L39 379 Q211 577 283 816 L314 801 Q272 672 210 563 L210 -98 L177 -98 L177 508 Z" /><glyph glyph-name="uni4F70" unicode="&#x4f70;" d="M362 761 L952 761 L952 727 L679 727 Q659 629 619 542 L897 542 L897 -95 L863 -95 L863 -31 L439 -31 L439 -94 L404 -94 L404 542 L586 542 Q627 626 644 727 L362 727 L362 761 ZM439 3 L863 3 L863 239 L439 239 L439 3 ZM439 272 L863 272 L863 508 L439 508 L439 272 ZM304 806 Q270 698 216 595 L216 -98 L182 -98 L182 535 Q124 439 47 353 L36 389 Q202 583 272 821 L304 806 Z" /><glyph glyph-name="uni4F73" unicode="&#x4f73;" d="M384 674 L612 674 L612 813 L646 813 L646 674 L877 674 L877 640 L646 640 L646 454 L933 454 L933 420 L328 420 L328 454 L612 454 L612 640 L384 640 L384 674 ZM369 220 L612 220 L612 378 L646 378 L646 220 L891 220 L891 186 L646 186 L646 -26 L950 -26 L950 -60 L309 -60 L309 -26 L612 -26 L612 186 L369 186 L369 220 ZM184 513 Q127 428 55 354 L44 389 Q216 576 292 811 L323 796 Q280 671 218 567 L218 -94 L184 -94 L184 513 Z" /><glyph glyph-name="uni4F7F" unicode="&#x4f7f;" d="M341 697 L624 697 L624 812 L657 812 L657 697 L944 697 L944 664 L657 664 L657 543 L899 543 L899 283 L654 283 Q642 131 594 50 Q756 -50 972 -62 L963 -94 Q741 -82 576 23 Q501 -69 316 -99 L301 -67 Q475 -43 546 42 Q448 110 372 208 L399 227 Q470 132 565 68 Q611 147 621 283 L385 283 L385 543 L624 543 L624 664 L341 664 L341 697 ZM865 315 L865 511 L657 511 L657 340 L656 315 L865 315 ZM623 315 L624 511 L418 511 L418 315 L623 315 ZM180 519 Q120 420 46 337 L35 373 Q201 569 274 816 L306 801 Q265 678 215 581 L215 -98 L180 -98 L180 519 Z" /><glyph glyph-name="uni4F8B" unicode="&#x4f8b;" d="M316 745 L639 745 L639 712 L444 712 Q435 617 417 536 L613 536 L613 505 Q548 86 312 -89 L294 -59 Q424 37 498 207 Q420 281 343 325 Q312 265 274 217 L258 249 Q387 417 411 712 L316 712 L316 745 ZM356 353 Q443 304 511 239 Q556 356 580 503 L409 503 Q389 423 356 353 ZM715 -88 L708 -55 Q764 -58 813 -58 Q866 -58 866 -1 L866 809 L900 809 L900 -9 Q900 -88 825 -88 L715 -88 ZM156 504 Q104 416 52 352 L41 388 Q183 578 245 813 L277 798 Q240 672 190 569 L190 -98 L156 -98 L156 504 ZM699 715 L732 715 L732 91 L699 91 L699 715 Z" /><glyph glyph-name="uni4F9B" unicode="&#x4f9b;" d="M347 586 L491 586 L491 807 L525 807 L525 586 L744 586 L744 807 L778 807 L778 586 L925 586 L925 552 L778 552 L778 282 L953 282 L953 249 L319 249 L319 282 L491 282 L491 552 L347 552 L347 586 ZM525 282 L744 282 L744 552 L525 552 L525 282 ZM737 183 Q866 41 936 -69 L907 -89 Q833 30 710 166 L737 183 ZM549 163 Q470 19 360 -87 L331 -68 Q441 38 518 178 L549 163 ZM184 522 Q123 428 46 348 L35 384 Q213 580 289 819 L320 805 Q279 684 218 578 L218 -96 L184 -96 L184 522 Z" /><glyph glyph-name="uni4F9D" unicode="&#x4f9d;" d="M313 800 Q274 681 222 586 L222 -97 L188 -97 L188 527 Q125 425 45 339 L34 377 Q207 573 281 815 L313 800 ZM597 812 Q624 740 648 649 L922 649 L922 616 L668 616 Q687 450 736 313 Q837 381 903 456 L924 429 Q857 354 747 283 Q821 86 958 -48 L937 -79 Q688 167 635 616 L612 616 Q563 474 484 365 L484 -34 Q603 2 705 52 L712 19 Q603 -33 438 -82 L431 -51 Q450 -43 450 -28 L450 322 Q378 235 282 162 L265 191 Q487 353 579 616 L321 616 L321 649 L614 649 Q592 733 561 805 L597 812 Z" /><glyph glyph-name="uni4FA0" unicode="&#x4fa0;" d="M169 499 Q114 410 50 339 L39 375 Q203 572 273 813 L304 798 Q262 669 202 557 L202 -98 L169 -98 L169 499 ZM868 573 Q836 469 782 386 L752 397 Q800 467 837 581 L868 573 ZM380 579 Q427 502 464 398 L433 389 Q399 486 351 569 L380 579 ZM329 677 L601 677 L601 811 L635 811 L635 677 L908 677 L908 643 L635 643 L635 495 Q635 407 620 330 L930 330 L930 296 L640 296 Q726 90 960 -71 L937 -100 Q702 74 610 286 Q541 20 288 -100 L268 -72 Q516 39 579 296 L312 296 L312 330 L586 330 Q599 405 601 487 L601 643 L329 643 L329 677 Z" /><glyph glyph-name="uni4FA8" unicode="&#x4fa8;" d="M366 741 Q635 757 844 800 L856 768 Q737 746 613 730 Q597 638 566 563 L924 563 L924 530 L719 530 Q792 384 962 301 L948 271 Q759 370 687 530 L551 530 Q538 505 519 473 Q444 362 295 273 L274 301 Q429 387 502 506 L515 530 L316 530 L316 563 L531 563 Q565 638 580 726 Q481 716 373 708 L366 741 ZM494 236 Q494 48 347 -93 L320 -70 Q461 62 461 236 L461 351 L494 351 L494 236 ZM181 534 Q116 432 41 351 L30 387 Q203 583 277 825 L309 810 Q271 695 214 591 L214 -98 L181 -98 L181 534 ZM720 353 L753 353 L753 -96 L720 -96 L720 353 Z" /><glyph glyph-name="uni4FB5" unicode="&#x4fb5;" d="M164 504 Q113 421 52 350 L41 386 Q195 579 262 814 L293 799 Q254 670 197 563 L197 -98 L164 -98 L164 504 ZM847 479 L355 479 L355 510 L814 510 L814 609 L386 609 L386 639 L814 639 L814 738 L360 738 L360 768 L847 768 L847 479 ZM919 391 L919 242 L885 242 L885 360 L335 360 L335 242 L302 242 L302 391 L919 391 ZM367 254 L840 254 L840 224 Q773 117 647 39 Q765 -22 948 -65 L930 -93 Q739 -48 617 21 Q487 -51 302 -96 L288 -66 Q464 -25 586 39 Q456 118 399 223 L367 223 L367 254 ZM433 223 Q492 126 616 56 Q734 125 801 223 L433 223 Z" /><glyph glyph-name="uni4FBF" unicode="&#x4fbf;" d="M348 758 L939 758 L939 724 L644 724 L644 609 L890 609 L890 249 L643 249 Q637 126 572 47 Q736 -50 956 -62 L947 -93 Q714 -81 549 23 Q469 -48 308 -92 L289 -64 Q443 -25 521 41 Q435 101 369 180 L396 199 Q463 120 544 64 Q603 140 609 249 L365 249 L365 609 L610 609 L610 724 L348 724 L348 758 ZM856 280 L856 415 L644 415 L644 280 L856 280 ZM610 280 L610 415 L398 415 L398 280 L610 280 ZM398 446 L610 446 L610 579 L398 579 L398 446 ZM644 579 L644 446 L856 446 L856 579 L644 579 ZM175 510 Q119 413 56 339 L45 375 Q198 570 264 808 L295 795 Q258 673 208 572 L208 -92 L175 -92 L175 510 Z" /><glyph glyph-name="uni4FC3" unicode="&#x4fc3;" d="M175 510 Q119 419 56 348 L45 384 Q203 576 269 808 L301 795 Q264 674 208 568 L208 -98 L175 -98 L175 510 ZM390 763 L878 763 L878 469 L664 469 L664 279 L913 279 L913 246 L664 246 L664 -30 Q719 -41 819 -44 L955 -43 L948 -76 L836 -76 Q644 -76 575 -33 Q472 24 419 170 Q370 10 291 -96 L269 -69 Q389 96 431 378 L464 372 Q450 288 433 221 Q457 136 497 80 Q547 12 613 -15 L631 -22 L631 469 L390 469 L390 763 ZM844 502 L844 730 L423 730 L423 502 L844 502 Z" /><glyph glyph-name="uni4FCA" unicode="&#x4fca;" d="M744 766 Q860 653 918 572 L891 552 Q865 590 837 623 Q566 592 344 576 L338 605 Q448 648 564 824 L600 814 Q505 671 405 609 Q698 634 814 650 Q774 696 718 750 L744 766 ZM520 514 Q438 413 317 337 L296 364 Q416 439 496 536 L520 514 ZM907 355 Q793 462 695 524 L719 547 Q812 489 931 379 L907 355 ZM454 229 Q392 180 317 140 L296 168 Q514 281 588 442 L621 436 Q591 369 541 311 L834 311 L834 281 Q789 149 660 56 Q778 -20 962 -62 L949 -95 Q752 -51 629 35 Q499 -47 305 -96 L288 -67 Q479 -19 600 56 Q505 130 454 229 ZM630 76 Q751 160 797 279 L511 279 Q501 269 479 249 Q531 147 630 76 ZM184 522 Q124 429 47 349 L36 385 Q211 578 286 817 L318 802 Q276 679 218 578 L218 -98 L184 -98 L184 522 Z" /><glyph glyph-name="uni4FD1" unicode="&#x4fd1;" d="M177 515 Q123 419 52 335 L41 371 Q196 565 264 808 L295 795 Q259 677 210 578 L210 -98 L177 -98 L177 515 ZM740 -85 L731 -52 L812 -53 Q863 -53 863 9 L863 143 L647 143 L647 -74 L615 -74 L615 143 L397 143 L397 -92 L363 -92 L363 537 L625 537 Q544 594 428 652 L450 674 Q548 625 620 578 Q735 643 829 728 L349 728 L349 760 L875 760 L875 732 Q780 636 648 559 Q670 545 680 537 L897 537 L897 2 Q897 -85 823 -85 L740 -85 ZM397 175 L615 175 L615 321 L397 321 L397 175 ZM647 321 L647 175 L863 175 L863 321 L647 321 ZM397 352 L615 352 L615 505 L397 505 L397 352 ZM647 505 L647 352 L863 352 L863 505 L647 505 Z" /><glyph glyph-name="uni4FD7" unicode="&#x4fd7;" d="M832 286 L832 -92 L799 -92 L799 -29 L440 -29 L440 -92 L407 -92 L407 286 L832 286 ZM440 4 L799 4 L799 254 L440 254 L440 4 ZM695 797 Q825 705 918 609 L893 585 Q808 676 672 775 L695 797 ZM548 774 Q452 653 355 575 L329 599 Q443 693 521 795 L548 774 ZM186 518 Q128 428 50 347 L39 383 Q211 572 287 808 L319 794 Q279 677 220 574 L220 -93 L186 -93 L186 518 ZM639 606 Q728 442 950 317 L932 288 Q728 401 625 572 Q498 386 309 288 L290 317 Q498 427 611 606 L639 606 Z" /><glyph glyph-name="uni4FDD" unicode="&#x4fdd;" d="M310 800 Q271 685 217 584 L217 -98 L182 -98 L182 524 Q124 431 46 347 L35 383 Q204 576 278 814 L310 800 ZM394 761 L848 761 L848 473 L638 473 L638 330 L939 330 L939 296 L685 296 Q785 118 954 -5 L933 -34 Q764 98 657 296 L638 296 L638 -95 L604 -95 L604 296 L585 296 Q474 81 303 -36 L284 -6 Q455 109 556 296 L311 296 L311 330 L604 330 L604 473 L394 473 L394 761 ZM813 507 L813 728 L429 728 L429 507 L813 507 Z" /><glyph glyph-name="uni4FDE" unicode="&#x4fde;" d="M182 256 L182 143 L448 143 L448 256 L182 256 ZM448 288 L448 404 L182 404 L182 288 L448 288 ZM182 112 L182 -96 L149 -96 L149 436 L481 436 L481 -11 Q481 -88 413 -88 L324 -88 L315 -55 L402 -56 Q448 -56 448 -4 L448 112 L182 112 ZM615 410 L649 410 L649 69 L615 69 L615 410 ZM271 586 L729 586 L729 554 L271 554 L271 586 ZM512 798 Q702 633 952 537 L934 507 Q680 606 500 765 Q337 613 67 500 L51 529 Q313 637 488 798 L512 798 ZM659 -92 L652 -59 Q706 -62 754 -62 Q801 -62 801 -4 L801 475 L834 475 L834 -13 Q834 -92 766 -92 L659 -92 Z" /><glyph glyph-name="uni4FE1" unicode="&#x4fe1;" d="M173 525 Q116 430 46 350 L35 386 Q195 581 264 820 L296 805 Q260 685 206 584 L206 -98 L173 -98 L173 525 ZM313 662 L955 662 L955 628 L313 628 L313 662 ZM407 515 L867 515 L867 483 L407 483 L407 515 ZM407 374 L867 374 L867 341 L407 341 L407 374 ZM881 228 L881 -95 L847 -95 L847 -37 L428 -37 L428 -95 L393 -95 L393 228 L881 228 ZM428 -4 L847 -4 L847 195 L428 195 L428 -4 ZM615 815 Q649 754 667 700 L637 688 Q614 750 582 805 L615 815 Z" /><glyph glyph-name="uni4FEE" unicode="&#x4fee;" d="M630 812 Q611 760 587 719 L894 719 L894 688 Q834 576 716 498 Q810 445 949 412 L935 380 Q785 417 684 478 Q573 413 426 375 L413 406 Q555 443 654 498 Q568 557 525 637 Q488 597 441 562 L420 589 Q551 682 597 816 L630 812 ZM547 662 Q593 576 685 517 Q797 590 856 687 L566 687 L547 662 ZM300 795 Q264 680 210 579 L210 -97 L177 -97 L177 521 Q121 431 51 352 L41 387 Q201 577 268 809 L300 795 ZM333 640 L366 640 L366 76 L333 76 L333 640 ZM758 374 Q704 326 644 291 Q575 253 483 223 L465 250 Q559 278 621 312 Q682 345 731 389 L758 374 ZM849 298 Q733 141 505 72 L491 102 Q711 167 823 317 L849 298 ZM449 -67 Q619 -18 729 47 Q840 114 913 219 L938 201 Q873 98 740 16 Q606 -59 463 -98 L449 -67 Z" /><glyph glyph-name="uni4FEF" unicode="&#x4fef;" d="M533 401 Q496 345 439 285 L429 317 Q545 446 595 607 L625 593 Q601 522 566 457 L566 -95 L533 -95 L533 401 ZM647 453 L828 453 L828 591 L861 591 L861 453 L950 453 L950 419 L861 419 L861 -26 Q861 -93 791 -93 L697 -93 L690 -60 Q737 -63 779 -63 Q828 -63 828 -18 L828 419 L647 419 L647 453 ZM641 817 Q666 763 688 701 L939 701 L939 667 L396 667 L396 403 Q390 90 295 -94 L269 -71 Q358 100 362 403 L362 701 L653 701 Q632 764 605 811 L641 817 ZM666 329 Q713 235 753 125 L723 110 Q680 228 638 315 L666 329 ZM173 534 Q117 436 46 353 L35 389 Q190 581 255 815 L286 801 Q254 696 206 597 L206 -98 L173 -98 L173 534 Z" /><glyph glyph-name="uni4FF1" unicode="&#x4ff1;" d="M196 518 Q133 425 55 344 L44 379 Q224 573 302 811 L333 796 Q293 682 230 573 L230 -98 L196 -98 L196 518 ZM845 762 L845 158 L953 158 L953 124 L319 124 L319 158 L431 158 L431 762 L845 762 ZM465 158 L811 158 L811 284 L465 284 L465 158 ZM465 315 L811 315 L811 433 L465 433 L465 315 ZM465 465 L811 465 L811 580 L465 580 L465 465 ZM465 611 L811 611 L811 731 L465 731 L465 611 ZM578 70 Q490 -24 356 -97 L335 -70 Q466 -1 554 92 L578 70 ZM723 93 Q835 19 930 -71 L908 -95 Q813 -3 703 71 L723 93 Z" /><glyph glyph-name="uni500D" unicode="&#x500d;" d="M343 701 L613 701 Q594 760 569 812 L603 818 Q627 767 648 701 L915 701 L915 667 L343 667 L343 701 ZM304 424 L505 424 Q476 520 432 600 L464 612 Q504 538 540 424 L702 424 Q750 519 781 614 L815 602 Q782 504 738 424 L941 424 L941 390 L304 390 L304 424 ZM840 265 L840 -93 L805 -93 L805 -29 L435 -29 L435 -93 L400 -93 L400 265 L840 265 ZM435 5 L805 5 L805 232 L435 232 L435 5 ZM173 525 Q115 429 46 351 L35 387 Q196 580 265 818 L296 803 Q260 686 206 584 L206 -98 L173 -98 L173 525 Z" /><glyph glyph-name="uni5012" unicode="&#x5012;" d="M639 9 Q474 -37 275 -67 L268 -35 Q362 -21 443 -5 L443 225 L292 225 L292 259 L443 259 L443 389 L477 389 L477 259 L626 259 L626 225 L477 225 L477 3 Q543 17 639 43 L639 9 ZM295 759 L636 759 L636 726 L445 726 Q385 543 331 458 Q457 470 568 493 Q533 567 501 627 L527 644 Q599 509 634 420 L607 400 Q605 406 581 464 Q440 437 289 423 L280 454 L294 458 Q350 531 412 726 L295 726 L295 759 ZM727 -86 L720 -53 Q776 -56 827 -56 Q872 -56 872 -11 L872 805 L906 805 L906 -20 Q906 -86 839 -86 L727 -86 ZM702 716 L734 716 L734 92 L702 92 L702 716 ZM163 534 Q116 439 54 356 L43 391 Q175 582 228 810 L260 796 Q235 703 196 607 L196 -98 L163 -98 L163 534 Z" /><glyph glyph-name="uni5019" unicode="&#x5019;" d="M291 795 Q253 674 205 579 L205 -99 L172 -99 L172 518 Q118 425 49 344 L39 379 Q194 571 260 809 L291 795 ZM323 631 L356 631 L356 42 L323 42 L323 631 ZM424 576 L786 576 L786 730 L475 730 L475 762 L820 762 L820 576 L924 576 L924 543 L424 543 L424 576 ZM521 379 Q486 319 443 272 L421 298 Q501 384 544 505 L574 497 Q561 457 539 412 L900 412 L900 379 L692 379 L692 365 Q692 293 676 226 L941 226 L941 195 L693 195 Q765 47 952 -68 L931 -95 Q739 31 665 186 Q602 -6 392 -96 L371 -68 Q576 13 633 195 L420 195 L420 226 L642 226 Q658 292 658 357 L658 379 L521 379 Z" /><glyph glyph-name="uni501F" unicode="&#x501f;" d="M187 521 Q128 418 52 328 L41 363 Q203 566 272 814 L304 799 Q270 688 221 586 L221 -98 L187 -98 L187 521 ZM339 684 L488 684 L488 810 L523 810 L523 684 L732 684 L732 810 L766 810 L766 684 L919 684 L919 652 L766 652 L766 490 L947 490 L947 457 L309 457 L309 490 L488 490 L488 652 L339 652 L339 684 ZM523 490 L732 490 L732 652 L523 652 L523 490 ZM859 348 L859 -91 L825 -91 L825 -36 L436 -36 L436 -91 L402 -91 L402 348 L859 348 ZM436 -3 L825 -3 L825 141 L436 141 L436 -3 ZM436 173 L825 173 L825 316 L436 316 L436 173 Z" /><glyph glyph-name="uni5021" unicode="&#x5021;" d="M415 763 L853 763 L853 430 L415 430 L415 763 ZM818 461 L818 581 L447 581 L447 461 L818 461 ZM447 612 L818 612 L818 731 L447 731 L447 612 ZM905 321 L905 -95 L871 -95 L871 -39 L398 -39 L398 -96 L364 -96 L364 321 L905 321 ZM398 -7 L871 -7 L871 126 L398 126 L398 -7 ZM398 158 L871 158 L871 290 L398 290 L398 158 ZM185 515 Q124 420 46 339 L35 374 Q213 573 289 815 L320 800 Q278 677 220 573 L220 -98 L185 -98 L185 515 Z" /><glyph glyph-name="uni5026" unicode="&#x5026;" d="M304 807 Q264 685 210 582 L210 -98 L177 -98 L177 524 Q121 433 46 349 L35 385 Q200 580 273 822 L304 807 ZM427 797 Q463 734 490 662 L461 649 Q429 732 396 787 L427 797 ZM839 793 Q807 708 760 646 L732 662 Q778 724 808 804 L839 793 ZM349 623 L580 623 Q606 715 620 825 L654 821 Q641 715 615 623 L892 623 L892 591 L606 591 Q583 516 554 459 L934 459 L934 427 L744 427 Q807 311 966 219 L943 192 Q775 296 711 427 L537 427 Q446 267 299 176 L279 206 Q415 287 498 427 L305 427 L305 459 L516 459 Q546 519 571 591 L349 591 L349 623 ZM751 266 L487 266 L487 -10 Q487 -46 524 -46 L798 -46 Q854 -46 869 -25 Q885 1 891 71 L924 60 Q915 -34 888 -59 Q864 -78 802 -78 L517 -78 Q452 -78 452 -16 L452 297 L784 297 L784 164 Q784 82 712 82 Q664 82 617 85 L608 115 Q672 111 705 111 Q751 111 751 168 L751 266 Z" /><glyph glyph-name="uni5029" unicode="&#x5029;" d="M288 804 Q254 687 204 585 L204 -98 L171 -98 L171 522 Q117 425 46 339 L35 375 Q191 575 257 819 L288 804 ZM335 736 L610 736 L610 813 L644 813 L644 736 L923 736 L923 706 L644 706 L644 613 L883 613 L883 583 L644 583 L644 487 L952 487 L952 456 L305 456 L305 487 L610 487 L610 583 L374 583 L374 613 L610 613 L610 706 L335 706 L335 736 ZM689 -90 L681 -57 L784 -59 Q815 -59 815 -30 L815 75 L443 75 L443 -95 L409 -95 L409 367 L849 367 L849 -37 Q849 -90 794 -90 L689 -90 ZM443 104 L815 104 L815 204 L443 204 L443 104 ZM443 234 L815 234 L815 336 L443 336 L443 234 Z" /><glyph glyph-name="uni502A" unicode="&#x502a;" d="M406 522 L406 351 L842 351 L842 521 L656 521 L656 553 L842 553 L842 722 L671 722 L671 753 L875 753 L875 319 L723 319 L723 -5 Q723 -48 770 -48 L841 -48 Q878 -48 891 -30 Q911 -2 917 113 L949 103 Q941 -24 916 -57 Q895 -80 847 -80 L759 -80 Q689 -80 689 -12 L689 319 L551 319 Q542 143 495 61 Q444 -30 323 -94 L301 -67 Q416 -6 464 74 Q510 156 517 319 L373 319 L373 727 Q477 755 563 802 L583 775 Q507 735 406 701 L406 554 L586 554 L586 522 L406 522 ZM175 524 Q117 428 47 349 L36 384 Q197 580 266 817 L298 802 Q261 685 208 583 L208 -98 L175 -98 L175 524 Z" /><glyph glyph-name="uni503C" unicode="&#x503c;" d="M614 811 L648 811 L648 706 L919 706 L919 674 L648 674 L648 564 L846 564 L846 -29 L952 -29 L952 -62 L295 -62 L295 -29 L404 -29 L404 564 L614 564 L614 674 L338 674 L338 706 L614 706 L614 811 ZM438 -29 L813 -29 L813 86 L438 86 L438 -29 ZM438 116 L813 116 L813 231 L438 231 L438 116 ZM438 262 L813 262 L813 379 L438 379 L438 262 ZM438 410 L813 410 L813 532 L438 532 L438 410 ZM197 545 Q138 440 59 349 L48 384 Q207 575 273 814 L304 799 Q271 695 231 611 L231 -98 L197 -98 L197 545 Z" /><glyph glyph-name="uni503E" unicode="&#x503e;" d="M503 510 L503 478 L376 469 L376 89 Q448 116 507 158 L513 127 Q434 76 330 40 L322 71 Q343 79 343 99 L343 800 L376 800 L376 501 L503 510 ZM283 796 Q249 692 200 599 L200 -94 L167 -94 L167 541 Q118 462 56 394 L45 429 Q190 599 253 810 L283 796 ZM523 763 L951 763 L951 731 L748 731 Q738 649 722 590 L910 590 L910 123 L878 123 L878 557 L594 557 L594 123 L561 123 L561 590 L688 590 Q707 659 714 731 L523 731 L523 763 ZM785 94 Q885 13 955 -72 L931 -96 Q867 -14 764 73 L785 94 ZM718 482 L750 482 L750 257 Q748 114 689 31 Q629 -47 492 -94 L474 -65 Q606 -22 665 54 Q717 133 718 257 L718 482 Z" /><glyph glyph-name="uni5047" unicode="&#x5047;" d="M363 307 L363 142 L569 142 L569 109 L363 109 L363 -96 L330 -96 L330 763 L584 763 L584 498 L363 498 L363 340 L568 340 L568 307 L363 307 ZM902 498 L645 498 L645 531 L869 531 L869 729 L647 729 L647 762 L902 762 L902 498 ZM613 377 L911 377 L911 345 Q875 185 791 74 Q865 -12 966 -68 L950 -97 Q838 -35 770 48 Q689 -44 574 -99 L556 -70 Q671 -14 748 75 L741 84 Q667 188 638 344 L613 344 L613 377 ZM669 344 Q695 199 769 101 Q846 203 880 344 L669 344 ZM363 531 L551 531 L551 730 L363 730 L363 531 ZM156 520 Q107 429 50 355 L39 390 Q175 581 234 817 L266 802 Q234 685 190 589 L190 -98 L156 -98 L156 520 Z" /><glyph glyph-name="uni504F" unicode="&#x504f;" d="M870 668 L381 668 L381 500 L870 500 L870 668 ZM381 468 L381 431 Q379 128 263 -87 L238 -66 Q348 127 350 431 L350 701 L625 701 Q602 761 575 807 L609 813 Q633 768 659 701 L902 701 L902 468 L381 468 ZM173 520 Q121 436 56 364 L46 397 Q198 578 264 803 L295 790 Q260 678 206 577 L206 -98 L173 -98 L173 520 ZM811 -93 L803 -64 L851 -65 Q875 -65 875 -38 L875 132 L757 132 L757 -79 L728 -79 L728 132 L616 132 L616 -79 L587 -79 L587 132 L465 132 L465 -92 L434 -92 L434 359 L906 359 L906 -45 Q906 -93 861 -93 L811 -93 ZM465 162 L587 162 L587 329 L465 329 L465 162 ZM616 329 L616 162 L728 162 L728 329 L616 329 ZM757 329 L757 162 L875 162 L875 329 L757 329 Z" /><glyph glyph-name="uni505A" unicode="&#x505a;" d="M669 515 Q636 439 596 382 L575 408 Q676 553 712 806 L745 800 Q729 711 711 644 L942 644 L942 611 L886 611 Q883 326 797 147 Q860 23 957 -70 L933 -93 Q841 -5 779 112 Q709 -15 597 -90 L576 -64 Q695 13 762 146 Q686 308 669 515 ZM779 184 Q853 357 854 607 L854 611 L702 611 L692 578 Q704 354 779 184 ZM287 795 Q255 686 205 582 L205 -96 L172 -96 L172 519 Q118 424 54 349 L43 384 Q192 573 257 809 L287 795 ZM571 354 L571 30 L348 30 L348 -44 L314 -44 L314 354 L427 354 L427 583 L283 583 L283 616 L427 616 L427 800 L460 800 L460 616 L599 616 L599 583 L460 583 L460 354 L571 354 ZM348 61 L539 61 L539 323 L348 323 L348 61 Z" /><glyph glyph-name="uni505C" unicode="&#x505c;" d="M291 799 Q255 680 204 579 L204 -94 L171 -94 L171 518 Q119 430 54 352 L43 388 Q194 576 261 813 L291 799 ZM594 815 Q611 775 628 720 L922 720 L922 688 L309 688 L309 720 L594 720 Q578 767 559 809 L594 815 ZM384 608 L841 608 L841 437 L384 437 L384 608 ZM807 466 L807 579 L417 579 L417 466 L807 466 ZM920 356 L920 205 L886 205 L886 324 L342 324 L342 205 L308 205 L308 356 L920 356 ZM370 204 L871 204 L871 173 L639 173 L639 -24 Q639 -88 572 -88 L457 -88 L450 -55 Q528 -57 560 -57 Q605 -57 605 -15 L605 173 L370 173 L370 204 Z" /><glyph glyph-name="uni5065" unicode="&#x5065;" d="M877 411 L715 411 L715 306 L909 306 L909 276 L715 276 L715 174 L940 174 L940 142 L715 142 L715 18 L681 18 L681 142 L494 142 L494 174 L681 174 L681 276 L526 276 L526 306 L681 306 L681 411 L538 411 L538 441 L681 441 L681 550 L494 550 L494 581 L681 581 L681 690 L538 690 L538 720 L681 720 L681 806 L715 806 L715 720 L877 720 L877 581 L954 581 L954 550 L877 550 L877 411 ZM715 690 L715 581 L846 581 L846 690 L715 690 ZM715 550 L715 441 L846 441 L846 550 L715 550 ZM280 705 L460 705 L460 675 Q390 521 327 429 L465 429 L465 409 Q461 219 399 90 Q456 23 523 -7 Q604 -43 785 -46 L957 -45 L949 -77 L808 -77 Q563 -77 478 -21 Q426 9 383 60 Q333 -30 250 -88 L233 -59 Q314 -3 362 86 Q297 177 261 314 L290 325 Q319 204 375 121 L377 118 Q428 235 434 399 L287 399 L287 424 Q363 535 423 671 L280 671 L280 705 ZM152 518 Q105 431 53 361 L42 396 Q173 583 227 810 L259 796 Q230 688 186 588 L186 -95 L152 -95 L152 518 Z" /><glyph glyph-name="uni5076" unicode="&#x5076;" d="M395 762 L857 762 L857 408 L642 408 L642 298 L905 298 L905 -13 Q905 -92 835 -92 L741 -92 L731 -59 L824 -60 Q872 -60 872 -6 L872 266 L640 266 L640 96 Q711 106 751 115 Q737 161 718 206 L744 215 Q780 128 806 23 L778 16 L759 86 Q653 61 457 48 L447 81 Q526 85 608 92 L608 266 L385 266 L385 -95 L352 -95 L352 298 L608 298 L608 408 L395 408 L395 762 ZM823 439 L823 569 L642 569 L642 439 L823 439 ZM608 439 L608 569 L428 569 L428 439 L608 439 ZM428 600 L608 600 L608 730 L428 730 L428 600 ZM642 730 L642 600 L823 600 L823 730 L642 730 ZM184 526 Q123 433 50 357 L39 392 Q210 581 282 813 L313 798 Q273 678 218 582 L218 -98 L184 -98 L184 526 Z" /><glyph glyph-name="uni5085" unicode="&#x5085;" d="M335 730 L613 730 L613 809 L647 809 L647 730 L812 730 Q794 773 771 807 L803 813 Q824 778 843 730 L939 730 L939 699 L647 699 L647 597 L883 597 L883 250 L850 250 L850 335 L647 335 L647 256 L613 256 L613 335 L413 335 L413 249 L381 249 L381 597 L613 597 L613 699 L335 699 L335 730 ZM613 568 L413 568 L413 476 L613 476 L613 568 ZM413 449 L413 362 L613 362 L613 449 L413 449 ZM850 362 L850 449 L647 449 L647 362 L850 362 ZM850 476 L850 568 L647 568 L647 476 L850 476 ZM303 173 L769 173 L769 238 L803 238 L803 173 L954 173 L954 141 L803 141 L803 -44 Q803 -95 745 -95 L626 -95 L619 -63 Q679 -66 733 -66 Q769 -66 769 -36 L769 141 L303 141 L303 173 ZM177 546 Q120 441 51 359 L40 394 Q188 584 251 815 L281 801 Q252 702 210 612 L210 -98 L177 -98 L177 546 ZM438 112 Q528 46 591 -23 L568 -45 Q512 18 415 91 L438 112 Z" /><glyph glyph-name="uni50A8" unicode="&#x50a8;" d="M152 523 Q108 438 54 366 L43 401 Q171 589 224 812 L255 798 Q226 689 186 595 L186 -95 L152 -95 L152 523 ZM321 762 Q408 691 472 616 L447 591 Q389 663 298 739 L321 762 ZM243 492 L405 492 L405 29 Q456 80 510 144 L518 109 Q447 22 369 -46 L355 -16 Q372 3 372 17 L372 458 L243 458 L243 492 ZM541 684 L673 684 L673 811 L706 811 L706 684 L831 684 L831 653 L706 653 L706 491 L754 491 Q838 604 898 755 L928 739 Q873 602 794 491 L944 491 L944 459 L770 459 Q715 390 652 338 L885 338 L885 -93 L851 -93 L851 -45 L625 -45 L625 -93 L592 -93 L592 293 Q545 262 490 235 L473 263 Q619 328 728 459 L509 459 L509 491 L673 491 L673 653 L541 653 L541 684 ZM625 131 L625 -13 L851 -13 L851 131 L625 131 ZM851 163 L851 306 L625 306 L625 163 L851 163 Z" /><glyph glyph-name="uni50AC" unicode="&#x50ac;" d="M187 516 Q132 417 57 330 L46 367 Q204 563 270 802 L302 788 Q267 674 221 580 L221 -93 L187 -93 L187 516 ZM845 613 L845 762 L878 762 L878 581 L388 581 L388 760 L422 760 L422 613 L618 613 L618 808 L652 808 L652 613 L845 613 ZM447 264 L447 151 L675 151 L675 264 L447 264 ZM447 121 L447 0 L675 0 L675 121 L447 121 ZM447 -32 L447 -89 L414 -89 L414 351 Q363 264 302 199 L279 225 Q397 352 460 535 L493 527 Q476 477 457 435 L686 435 Q660 494 633 533 L666 539 Q695 493 719 435 L922 435 L922 404 L707 404 L707 294 L892 294 L892 264 L707 264 L707 151 L895 151 L895 121 L707 121 L707 0 L946 0 L946 -32 L447 -32 ZM675 404 L447 404 L447 294 L675 294 L675 404 Z" /><glyph glyph-name="uni50B2" unicode="&#x50b2;" d="M253 798 Q226 692 187 601 L187 -99 L153 -99 L153 527 Q109 439 49 357 L38 392 Q169 583 222 812 L253 798 ZM415 798 L448 798 L448 713 L595 713 L595 681 L448 681 L448 555 L577 555 L577 524 L448 524 L448 393 L591 393 L591 362 L387 362 Q382 307 373 237 L561 237 Q559 7 533 -37 Q508 -82 443 -82 L388 -81 L378 -50 Q424 -52 436 -52 Q495 -50 511 -9 Q525 35 528 207 L368 207 Q355 134 343 89 Q312 -10 248 -93 L226 -67 Q283 11 313 101 Q342 202 354 362 L249 362 L249 393 L415 393 L415 524 L292 524 L292 555 L415 555 L415 681 L280 681 L280 713 L415 713 L415 798 ZM705 603 Q691 551 677 515 Q713 328 773 194 Q842 365 845 603 L705 603 ZM757 156 Q696 284 656 465 Q631 412 612 383 L591 409 Q680 554 713 811 L746 805 Q734 716 714 637 L944 637 L944 603 L876 603 Q870 337 790 158 Q863 15 961 -59 L942 -88 Q843 -11 774 122 Q708 -6 606 -92 L587 -64 Q693 21 757 156 Z" /><glyph glyph-name="uni50BB" unicode="&#x50bb;" d="M371 733 L530 733 Q558 773 572 816 L606 811 Q590 766 565 733 L865 733 L865 413 L371 413 L371 733 ZM831 444 L831 702 L405 702 L405 444 L831 444 ZM489 653 Q571 621 638 588 Q698 627 739 677 L762 660 Q720 610 667 572 Q718 547 769 513 L752 489 Q695 527 641 555 Q570 513 474 485 L462 512 Q549 537 610 571 Q543 604 474 629 L489 653 ZM693 393 Q824 334 937 247 L919 219 Q801 314 677 368 L693 393 ZM533 374 Q440 278 295 215 L279 245 Q420 302 513 395 L533 374 ZM181 518 Q125 427 51 345 L40 382 Q204 573 273 807 L306 793 Q269 677 214 575 L214 -93 L181 -93 L181 518 ZM592 319 Q569 268 528 221 L832 221 L832 195 Q759 98 652 30 Q791 -41 965 -62 L950 -92 Q765 -68 621 12 Q485 -63 298 -96 L283 -66 Q460 -37 589 30 Q511 79 444 144 Q382 98 314 64 L294 92 Q487 186 556 323 L592 319 ZM620 47 Q720 108 789 190 L498 190 L468 163 Q540 93 620 47 Z" /><glyph glyph-name="uni50CF" unicode="&#x50cf;" d="M363 605 L631 605 Q690 653 739 710 L483 710 Q404 628 297 564 L276 590 Q435 681 524 816 L560 808 Q535 771 510 740 L781 740 L781 714 Q731 649 676 605 L886 605 L886 413 L585 413 Q581 409 575 401 Q651 326 689 237 Q807 287 884 364 L906 339 Q856 289 785 249 Q830 97 957 -21 L934 -48 Q807 79 759 234 L700 207 Q718 147 721 85 Q721 -11 693 -50 Q667 -82 602 -91 Q564 -93 540 -93 L530 -61 L599 -61 Q639 -58 663 -29 Q687 0 687 85 Q686 124 678 157 Q544 28 311 -53 L293 -24 Q541 59 670 191 Q657 235 632 279 Q513 169 313 104 L296 134 Q505 200 616 305 Q587 347 555 379 Q464 288 311 251 L297 281 Q460 317 544 413 L363 413 L363 605 ZM852 444 L852 575 L657 575 Q639 501 606 444 L852 444 ZM568 444 Q610 506 624 575 L397 575 L397 444 L568 444 ZM175 529 Q123 436 56 356 L45 391 Q193 581 257 812 L287 797 Q253 683 208 591 L208 -95 L175 -95 L175 529 Z" /><glyph glyph-name="uni50F5" unicode="&#x50f5;" d="M252 809 Q227 714 193 628 L193 -98 L159 -98 L159 550 Q111 450 46 361 L35 396 Q165 587 221 823 L252 809 ZM299 772 L927 772 L927 743 L299 743 L299 772 ZM384 675 L845 675 L845 443 L384 443 L384 675 ZM811 470 L811 547 L630 547 L630 470 L811 470 ZM598 470 L598 547 L417 547 L417 470 L598 470 ZM417 573 L598 573 L598 648 L417 648 L417 573 ZM630 648 L630 573 L811 573 L811 648 L630 648 ZM286 377 L940 377 L940 347 L286 347 L286 377 ZM366 279 L864 279 L864 41 L366 41 L366 279 ZM831 68 L831 146 L631 146 L631 68 L831 68 ZM599 68 L599 146 L400 146 L400 68 L599 68 ZM400 172 L599 172 L599 251 L400 251 L400 172 ZM631 251 L631 172 L831 172 L831 251 L631 251 ZM273 -32 L952 -32 L952 -62 L273 -62 L273 -32 Z" /><glyph glyph-name="uni2F09" unicode="&#x2f09;&#x513f;" d="M305 788 L338 788 L338 474 Q332 85 90 -93 L64 -70 Q301 101 305 474 L305 788 ZM686 -63 Q601 -63 601 24 L601 789 L636 789 L636 31 Q636 -29 697 -29 L804 -29 Q855 -29 877 -7 Q905 24 914 166 L946 156 Q937 5 901 -34 Q874 -63 810 -63 L686 -63 Z" /><glyph glyph-name="uni5143" unicode="&#x5143;" d="M155 743 L836 743 L836 709 L155 709 L155 743 ZM78 449 L923 449 L923 415 L634 415 L634 0 Q634 -47 690 -47 L802 -47 Q849 -47 866 -25 Q891 7 900 156 L932 146 Q923 -9 891 -50 Q867 -80 809 -80 L680 -80 Q600 -80 600 -7 L600 415 L384 415 L384 406 Q382 202 308 81 Q234 -32 67 -98 L48 -68 Q209 -8 285 107 Q349 222 350 406 L350 415 L78 415 L78 449 Z" /><glyph glyph-name="uni5144" unicode="&#x5144;" d="M200 750 L795 750 L795 378 L617 378 L617 22 Q617 -37 673 -37 L806 -37 Q847 -37 865 -25 Q901 -4 910 152 L942 141 Q933 -9 900 -42 Q874 -70 813 -70 L664 -70 Q626 -70 603 -46 Q584 -23 584 15 L584 378 L407 378 Q393 177 325 83 Q250 -21 74 -93 L53 -66 Q224 4 294 95 Q361 189 374 378 L200 378 L200 750 ZM760 412 L760 716 L235 716 L235 412 L760 412 Z" /><glyph glyph-name="uni5145" unicode="&#x5145;" d="M477 821 Q510 757 536 680 L926 680 L926 647 L427 647 Q314 439 228 362 Q497 373 760 398 Q706 479 645 557 L673 575 Q797 415 864 294 L836 273 Q812 317 780 368 Q672 358 618 354 L618 9 Q618 -43 682 -43 L821 -43 Q859 -43 877 -28 Q907 -1 913 136 L945 126 Q936 -17 905 -52 Q880 -77 830 -77 L672 -77 Q585 -77 585 3 L585 352 L399 339 Q387 153 325 68 Q256 -26 96 -92 L74 -66 Q228 -3 293 82 Q355 166 365 337 Q303 333 179 327 L171 359 L179 362 Q259 414 391 647 L75 647 L75 680 L503 680 Q475 754 441 814 L477 821 Z" /><glyph glyph-name="uni5148" unicode="&#x5148;" d="M221 613 Q178 528 125 458 L95 477 Q205 619 259 803 L292 796 Q270 722 237 646 L492 646 L492 814 L526 814 L526 646 L871 646 L871 613 L526 613 L526 388 L939 388 L939 355 L651 355 L651 15 Q651 -47 710 -47 L821 -47 Q855 -47 872 -30 Q900 1 906 154 L939 143 Q930 -12 900 -53 Q876 -80 830 -80 L700 -80 Q617 -80 617 9 L617 355 L393 355 Q381 166 317 75 Q244 -25 79 -94 L56 -65 Q217 2 283 90 Q347 179 359 355 L66 355 L66 388 L492 388 L492 613 L221 613 Z" /><glyph glyph-name="uni5149" unicode="&#x5149;" d="M483 814 L517 814 L517 423 L932 423 L932 389 L628 389 L628 15 Q628 -35 680 -35 L815 -35 Q863 -35 881 -14 Q905 16 914 158 L946 147 Q937 -2 906 -39 Q880 -68 822 -68 L669 -68 Q594 -68 594 8 L594 389 L394 389 L394 376 Q393 189 316 76 Q241 -29 69 -89 L50 -59 Q218 -1 292 102 Q357 206 359 376 L359 389 L69 389 L69 423 L483 423 L483 814 ZM848 747 Q793 619 708 503 L677 518 Q763 639 815 762 L848 747 ZM186 754 Q265 647 333 518 L302 503 Q231 636 154 738 L186 754 Z" /><glyph glyph-name="uni514B" unicode="&#x514b;" d="M483 815 L517 815 L517 693 L923 693 L923 660 L517 660 L517 525 L805 525 L805 261 L623 261 L623 19 Q623 -43 684 -43 L820 -43 Q856 -43 874 -31 Q904 -8 910 102 L942 91 Q933 -27 902 -56 Q878 -77 829 -77 L674 -77 Q590 -77 590 13 L590 261 L396 261 Q384 111 321 39 Q249 -38 83 -96 L61 -68 Q221 -17 287 54 Q350 122 362 261 L196 261 L196 525 L483 525 L483 660 L77 660 L77 693 L483 693 L483 815 ZM770 295 L770 493 L230 493 L230 295 L770 295 Z" /><glyph glyph-name="uni514D" unicode="&#x514d;" d="M193 528 L508 528 Q595 596 667 681 L320 681 Q217 564 78 477 L57 504 Q266 633 377 816 L412 808 Q386 764 347 713 L711 713 L711 686 Q631 589 554 528 L830 528 L830 255 L599 255 L599 14 Q599 -43 652 -43 L827 -43 Q863 -43 879 -24 Q899 4 905 131 L938 120 Q931 -14 903 -51 Q882 -77 834 -77 L642 -77 Q565 -77 565 7 L565 255 L484 255 Q470 216 459 192 Q370 16 81 -92 L60 -64 Q324 32 418 187 Q437 225 447 255 L193 255 L193 528 ZM797 289 L797 495 L520 495 Q517 376 494 289 L797 289 ZM458 289 Q483 381 486 495 L227 495 L227 289 L458 289 Z" /><glyph glyph-name="uni5151" unicode="&#x5151;" d="M205 593 L571 593 Q645 693 700 816 L734 804 Q680 687 606 593 L797 593 L797 287 L634 287 L634 0 Q634 -48 684 -48 L820 -48 Q861 -48 876 -30 Q895 -6 903 110 L936 99 Q927 -25 900 -58 Q879 -81 827 -81 L673 -81 Q600 -81 600 -7 L600 287 L414 287 Q399 24 89 -96 L70 -67 Q369 44 381 287 L205 287 L205 593 ZM763 320 L763 560 L239 560 L239 320 L763 320 ZM292 808 Q347 730 398 634 L367 618 Q318 713 262 794 L292 808 Z" /><glyph glyph-name="uni5154" unicode="&#x5154;" d="M179 533 L491 533 Q583 594 663 674 L315 674 Q211 557 73 471 L51 498 Q263 628 377 814 L411 805 Q380 753 342 706 L709 706 L709 679 Q622 589 543 533 L829 533 L829 269 L574 269 L574 2 Q574 -50 631 -50 L794 -50 Q850 -50 869 -32 Q898 -5 908 113 L941 102 Q930 -24 895 -57 Q864 -80 801 -80 L621 -80 Q540 -80 540 -5 L540 269 L486 269 Q458 183 419 129 Q319 -1 96 -92 L73 -65 Q294 21 386 140 Q427 195 450 269 L179 269 L179 533 ZM796 302 L796 500 L524 500 Q515 381 495 302 L796 302 ZM460 302 Q483 389 490 500 L212 500 L212 302 L460 302 ZM684 198 Q775 110 818 47 L792 27 Q744 96 657 181 L684 198 Z" /><glyph glyph-name="uni515C" unicode="&#x515c;" d="M350 711 L443 711 Q472 766 483 815 L518 810 Q503 754 478 711 L651 711 L651 327 L350 327 L350 711 ZM618 359 L618 505 L383 505 L383 359 L618 359 ZM383 537 L618 537 L618 679 L383 679 L383 537 ZM885 320 L710 320 L710 351 L852 351 L852 692 L710 692 L710 724 L885 724 L885 320 ZM668 -73 Q591 -73 591 8 L591 258 L624 258 L624 14 Q624 -39 678 -39 L822 -39 Q863 -39 878 -22 Q900 6 907 124 L940 113 Q931 -16 903 -48 Q880 -73 829 -73 L668 -73 ZM369 258 L403 258 L403 235 Q402 103 326 23 Q251 -49 83 -94 L63 -64 Q228 -25 303 47 Q367 119 369 235 L369 258 ZM301 749 Q240 713 161 689 L161 345 Q224 366 296 396 L304 366 Q225 331 122 298 L106 327 Q128 336 128 353 L128 714 Q213 734 280 775 L301 749 Z" /><glyph glyph-name="uni2F0A" unicode="&#x2f0a;&#x5165;" d="M474 593 Q403 725 302 793 L331 812 Q478 710 562 475 Q702 105 950 -49 L929 -78 Q675 80 528 471 Q512 516 495 552 Q399 137 68 -80 L47 -52 Q381 167 474 593 Z" /><glyph glyph-name="uni5168" unicode="&#x5168;" d="M512 803 Q706 596 952 481 L935 452 Q682 574 500 771 Q332 580 61 443 L45 473 Q311 605 488 803 L512 803 ZM222 480 L780 480 L780 447 L517 447 L517 235 L821 235 L821 202 L517 202 L517 -27 L912 -27 L912 -61 L89 -61 L89 -27 L483 -27 L483 202 L178 202 L178 235 L483 235 L483 447 L222 447 L222 480 Z" /><glyph glyph-name="uni2F0B" unicode="&#x2f0b;&#x516b;" d="M390 736 Q303 215 79 -72 L58 -45 Q279 245 355 742 L390 736 ZM620 777 Q659 222 946 -46 L929 -76 Q631 193 589 767 L620 777 Z" /><glyph glyph-name="uni516C" unicode="&#x516c;" d="M389 789 Q270 471 78 307 L52 330 Q252 503 358 801 L389 789 ZM645 273 Q760 106 843 -77 L811 -92 Q788 -38 755 26 Q492 -18 177 -39 L170 -9 Q314 96 480 467 L514 456 Q370 137 229 -4 Q511 16 739 56 Q679 170 613 263 L645 273 ZM630 807 Q722 515 950 332 L927 305 Q694 493 601 791 L630 807 Z" /><glyph glyph-name="uni516D" unicode="&#x516d;" d="M645 379 Q828 126 927 -66 L898 -86 Q796 117 616 361 L645 379 ZM381 360 Q269 69 92 -80 L64 -56 Q249 100 348 373 L381 360 ZM61 531 L939 531 L939 498 L61 498 L61 531 ZM389 803 Q515 713 599 620 L574 595 Q498 681 365 782 L389 803 Z" /><glyph glyph-name="uni5170" unicode="&#x5170;" d="M176 288 L824 288 L824 254 L176 254 L176 288 ZM62 -10 L938 -10 L938 -43 L62 -43 L62 -10 ZM101 559 L605 559 Q679 680 731 818 L765 806 Q710 663 639 559 L899 559 L899 526 L101 526 L101 559 ZM264 808 Q330 720 382 626 L351 610 Q291 718 232 792 L264 808 Z" /><glyph glyph-name="uni5171" unicode="&#x5171;" d="M109 596 L305 596 L305 820 L339 820 L339 596 L661 596 L661 816 L695 816 L695 596 L892 596 L892 562 L695 562 L695 283 L941 283 L941 250 L59 250 L59 283 L305 283 L305 562 L109 562 L109 596 ZM339 283 L661 283 L661 562 L339 562 L339 283 ZM401 163 Q273 18 85 -89 L63 -60 Q248 46 376 186 L401 163 ZM631 184 Q813 62 935 -62 L909 -87 Q795 30 606 162 L631 184 Z" /><glyph glyph-name="uni5173" unicode="&#x5173;" d="M290 809 Q359 722 411 629 L381 614 Q323 714 259 793 L290 809 ZM739 810 Q699 689 635 591 L866 591 L866 557 L517 557 L517 484 Q517 407 503 335 L924 335 L924 301 L538 301 Q615 65 947 -62 L928 -92 Q578 49 503 301 L496 301 Q469 193 411 114 Q312 -14 78 -89 L59 -60 Q289 13 390 142 Q436 209 461 301 L76 301 L76 335 L468 335 Q481 404 483 484 L483 557 L133 557 L133 591 L597 591 Q657 682 706 819 L739 810 Z" /><glyph glyph-name="uni5174" unicode="&#x5174;" d="M52 345 L615 345 Q731 552 811 805 L843 794 Q751 515 651 345 L948 345 L948 311 L52 311 L52 345 ZM157 746 Q235 610 301 449 L269 433 Q203 596 126 731 L157 746 ZM403 801 Q483 648 542 490 L511 474 Q446 645 371 786 L403 801 ZM369 216 Q266 46 119 -82 L91 -63 Q237 62 338 231 L369 216 ZM668 233 Q821 65 902 -61 L873 -82 Q789 51 640 215 L668 233 Z" /><glyph glyph-name="uni5175" unicode="&#x5175;" d="M272 499 L272 214 L645 214 L645 499 L272 499 ZM238 214 L238 726 Q564 749 788 796 L806 766 Q583 722 272 699 L272 533 L870 533 L870 499 L679 499 L679 214 L942 214 L942 180 L62 180 L62 214 L238 214 ZM374 111 Q261 -7 90 -96 L68 -68 Q237 20 349 134 L374 111 ZM644 137 Q806 30 908 -72 L883 -98 Q785 3 620 115 L644 137 Z" /><glyph glyph-name="uni5176" unicode="&#x5176;" d="M75 714 L250 714 L250 819 L284 819 L284 714 L716 714 L716 819 L750 819 L750 714 L925 714 L925 680 L750 680 L750 184 L944 184 L944 151 L57 151 L57 184 L250 184 L250 680 L75 680 L75 714 ZM284 184 L716 184 L716 331 L284 331 L284 184 ZM284 362 L716 362 L716 506 L284 506 L284 362 ZM284 538 L716 538 L716 680 L284 680 L284 538 ZM409 83 Q280 -16 94 -91 L73 -63 Q256 8 384 106 L409 83 ZM615 106 Q785 37 928 -63 L909 -91 Q758 17 598 80 L615 106 Z" /><glyph glyph-name="uni5177" unicode="&#x5177;" d="M780 763 L780 149 L940 149 L940 116 L60 116 L60 149 L220 149 L220 763 L780 763 ZM253 149 L747 149 L747 274 L253 274 L253 149 ZM253 304 L747 304 L747 424 L253 424 L253 304 ZM253 455 L747 455 L747 576 L253 576 L253 455 ZM253 606 L747 606 L747 730 L253 730 L253 606 ZM393 69 Q280 -26 115 -95 L95 -69 Q256 -1 368 92 L393 69 ZM623 93 Q777 28 903 -65 L884 -93 Q750 8 605 67 L623 93 Z" /><glyph glyph-name="uni5178" unicode="&#x5178;" d="M844 675 L844 196 L948 196 L948 163 L49 163 L49 196 L157 196 L157 675 L370 675 L370 824 L404 824 L404 675 L598 675 L598 824 L632 824 L632 675 L844 675 ZM191 196 L370 196 L370 410 L191 410 L191 196 ZM404 196 L598 196 L598 410 L404 410 L404 196 ZM632 196 L810 196 L810 410 L632 410 L632 196 ZM191 443 L370 443 L370 642 L191 642 L191 443 ZM404 642 L404 443 L598 443 L598 642 L404 642 ZM632 642 L632 443 L810 443 L810 642 L632 642 ZM619 120 Q795 41 938 -69 L919 -98 Q764 24 602 93 L619 120 ZM404 95 Q279 -22 82 -100 L66 -68 Q257 3 382 119 L404 95 Z" /><glyph glyph-name="uni517B" unicode="&#x517b;" d="M92 694 L356 694 Q316 761 282 800 L312 815 Q354 765 394 694 L608 694 Q650 753 679 817 L713 805 Q682 739 645 694 L911 694 L911 663 L518 663 Q504 609 483 551 L858 551 L858 520 L471 520 Q443 455 413 408 L930 408 L930 376 L654 376 Q744 248 951 176 L936 146 Q708 234 619 376 L391 376 Q274 214 74 146 L57 176 Q240 236 350 376 L70 376 L70 408 L374 408 Q409 459 435 520 L144 520 L144 551 L448 551 Q465 595 483 663 L92 663 L92 694 ZM646 263 L680 263 L680 -93 L646 -93 L646 263 ZM349 263 L383 263 L383 194 Q381 80 325 13 Q270 -50 141 -87 L121 -58 Q245 -25 300 36 Q347 95 349 194 L349 263 Z" /><glyph glyph-name="uni517C" unicode="&#x517c;" d="M89 692 L339 692 Q311 756 275 805 L307 817 Q343 767 373 692 L610 692 Q645 746 678 820 L711 808 Q681 739 647 692 L908 692 L908 660 L612 660 L612 545 L820 545 L820 389 L940 389 L940 358 L820 358 L820 205 L643 205 Q733 53 949 -31 L934 -63 Q703 39 616 205 L612 205 L612 -102 L579 -102 L579 205 L396 205 L396 -102 L362 -102 L362 205 L360 205 Q275 41 66 -64 L48 -34 Q250 60 335 205 L144 205 L144 237 L362 237 L362 358 L59 358 L59 389 L362 389 L362 513 L155 513 L155 545 L362 545 L362 660 L89 660 L89 692 ZM579 545 L579 660 L396 660 L396 545 L579 545 ZM396 513 L396 389 L579 389 L579 513 L396 513 ZM612 513 L612 389 L786 389 L786 513 L612 513 ZM396 358 L396 237 L579 237 L579 358 L396 358 ZM612 358 L612 237 L786 237 L786 358 L612 358 Z" /><glyph glyph-name="uni517D" unicode="&#x517d;" d="M798 174 L798 -96 L764 -96 L764 -54 L243 -54 L243 -96 L209 -96 L209 174 L798 174 ZM243 -23 L764 -23 L764 142 L243 142 L243 -23 ZM54 298 L946 298 L946 266 L54 266 L54 298 ZM166 683 L599 683 Q643 744 677 816 L710 804 Q675 735 634 683 L826 683 L826 381 L166 381 L166 683 ZM793 412 L793 519 L513 519 L513 412 L793 412 ZM479 412 L479 519 L199 519 L199 412 L479 412 ZM199 548 L479 548 L479 654 L199 654 L199 548 ZM513 654 L513 548 L793 548 L793 654 L513 654 ZM309 816 Q353 768 398 702 L368 687 Q324 756 279 801 L309 816 Z" /><glyph glyph-name="uni5185" unicode="&#x5185;" d="M490 446 Q430 251 237 128 L215 156 Q392 267 453 443 Q475 518 485 602 L154 602 L154 -94 L119 -94 L119 636 L489 636 Q498 720 498 815 L533 815 Q533 724 525 636 L882 636 L882 -4 Q882 -86 798 -86 L641 -86 L631 -52 L786 -53 Q848 -53 848 3 L848 602 L521 602 Q514 550 499 481 Q666 323 777 167 L753 141 Q648 293 490 446 Z" /><glyph glyph-name="uni518C" unicode="&#x518c;" d="M50 400 L178 400 L178 764 L432 764 L432 400 L574 400 L574 764 L830 764 L830 400 L950 400 L950 367 L830 367 L830 -27 Q830 -84 768 -84 L666 -84 L657 -51 Q729 -53 758 -53 Q797 -53 797 -15 L797 367 L608 367 L608 278 Q605 49 518 -92 L493 -69 Q571 66 574 276 L574 367 L432 367 L432 -26 Q432 -84 373 -84 L275 -84 L267 -51 Q335 -53 362 -53 Q399 -53 399 -14 L399 367 L211 367 L211 280 Q208 49 115 -92 L90 -69 Q175 67 178 278 L178 367 L50 367 L50 400 ZM797 400 L797 732 L608 732 L608 400 L797 400 ZM399 400 L399 732 L211 732 L211 400 L399 400 Z" /><glyph glyph-name="uni518D" unicode="&#x518d;" d="M89 756 L912 756 L912 722 L517 722 L517 584 L813 584 L813 204 L941 204 L941 170 L813 170 L813 -9 Q813 -92 739 -92 L645 -92 L636 -58 L727 -60 Q779 -60 779 -2 L779 170 L221 170 L221 -95 L187 -95 L187 170 L59 170 L59 204 L187 204 L187 584 L483 584 L483 722 L89 722 L89 756 ZM221 204 L483 204 L483 366 L221 366 L221 204 ZM517 204 L779 204 L779 366 L517 366 L517 204 ZM221 397 L483 397 L483 551 L221 551 L221 397 ZM517 551 L517 397 L779 397 L779 551 L517 551 Z" /><glyph glyph-name="uni5192" unicode="&#x5192;" d="M787 388 L787 -97 L754 -97 L754 -42 L248 -42 L248 -97 L215 -97 L215 388 L787 388 ZM248 -10 L754 -10 L754 91 L248 91 L248 -10 ZM248 121 L754 121 L754 222 L248 222 L248 121 ZM248 252 L754 252 L754 357 L248 357 L248 252 ZM854 763 L854 459 L819 459 L819 729 L181 729 L181 459 L146 459 L146 763 L854 763 ZM286 636 L715 636 L715 606 L286 606 L286 636 ZM286 515 L715 515 L715 485 L286 485 L286 515 Z" /><glyph glyph-name="uni5199" unicode="&#x5199;" d="M330 511 Q313 445 283 344 L827 344 Q824 -10 776 -55 Q747 -87 634 -90 L545 -90 L535 -57 L636 -58 Q731 -55 754 -26 Q787 12 793 311 L239 311 Q301 520 330 666 L364 662 Q355 616 338 545 L766 545 L766 511 L330 511 ZM78 153 L674 153 L674 120 L78 120 L78 153 ZM882 760 L882 563 L848 563 L848 726 L152 726 L152 564 L118 564 L118 760 L882 760 Z" /><glyph glyph-name="uni519B" unicode="&#x519b;" d="M144 548 L354 548 Q389 616 416 680 L449 673 Q423 609 390 548 L857 548 L857 515 L372 515 Q303 398 221 312 L515 312 L515 450 L549 450 L549 312 L842 312 L842 280 L549 280 L549 125 L927 125 L927 91 L549 91 L549 -97 L515 -97 L515 91 L73 91 L73 125 L515 125 L515 280 L175 280 L169 303 Q262 390 336 515 L144 515 L144 548 ZM892 763 L892 593 L858 593 L858 730 L147 730 L147 593 L113 593 L113 763 L892 763 Z" /><glyph glyph-name="uni519C" unicode="&#x519c;" d="M876 648 L876 447 L842 447 L842 615 L525 615 Q559 411 653 247 Q758 314 835 405 L860 381 Q783 291 670 219 Q772 56 934 -57 L914 -87 Q567 161 492 615 L482 615 Q413 439 301 311 L301 -43 Q453 2 575 65 L582 32 Q444 -35 256 -90 L249 -58 Q266 -50 266 -32 L266 274 Q180 187 66 122 L49 151 Q327 316 447 615 L158 615 L158 447 L124 447 L124 648 L460 648 Q490 733 507 817 L540 813 Q520 722 494 648 L876 648 Z" /><glyph glyph-name="uni51A0" unicode="&#x51a0;" d="M139 548 L459 548 L459 514 L139 514 L139 548 ZM93 358 L490 358 L490 325 L394 325 L394 21 Q394 -44 456 -44 L789 -44 Q840 -44 861 -25 Q887 1 898 122 L929 112 Q920 -17 885 -52 Q857 -77 796 -77 L446 -77 Q361 -77 361 14 L361 325 L252 325 Q245 150 210 64 Q170 -28 78 -93 L57 -66 Q142 -5 179 78 Q213 162 219 325 L93 325 L93 358 ZM518 505 L755 505 L755 627 L788 627 L788 505 L906 505 L906 471 L788 471 L788 138 Q788 59 714 59 L609 59 L602 92 Q655 89 702 89 Q755 89 755 146 L755 471 L518 471 L518 505 ZM563 393 Q619 318 666 220 L638 205 Q592 303 533 380 L563 393 ZM893 756 L893 595 L859 595 L859 723 L141 723 L141 595 L107 595 L107 756 L893 756 Z" /><glyph glyph-name="uni51AF" unicode="&#x51af;" d="M85 764 Q197 638 256 547 L227 527 Q165 627 57 747 L85 764 ZM268 347 Q192 130 92 -71 L59 -57 Q162 146 237 359 L268 347 ZM459 658 L493 655 L430 363 L730 363 L792 730 L347 730 L347 762 L830 762 L765 363 L911 363 Q911 25 864 -30 Q817 -82 667 -82 Q639 -82 571 -80 L561 -48 Q630 -51 658 -51 Q814 -51 845 4 Q877 62 877 330 L389 330 L459 658 ZM300 169 L764 169 L764 136 L300 136 L300 169 Z" /><glyph glyph-name="uni51B0" unicode="&#x51b0;" d="M75 759 Q178 647 235 561 L208 542 Q152 629 47 741 L75 759 ZM249 342 Q172 123 80 -67 L48 -53 Q146 144 219 354 L249 342 ZM445 -91 L438 -58 Q512 -60 543 -60 Q591 -60 591 -15 L591 810 L624 810 L624 614 Q650 517 690 425 Q806 501 892 646 L918 625 Q825 470 703 396 Q796 199 950 35 L928 6 Q716 242 624 523 L624 -24 Q624 -91 555 -91 L445 -91 ZM287 530 L287 563 L518 563 L518 532 Q474 173 253 7 L230 34 Q444 198 486 530 L287 530 Z" /><glyph glyph-name="uni51B2" unicode="&#x51b2;" d="M83 766 Q196 637 254 548 L226 527 Q163 628 55 749 L83 766 ZM263 344 Q186 120 91 -74 L59 -60 Q160 144 233 357 L263 344 ZM612 808 L646 808 L646 624 L911 624 L911 189 L878 189 L878 250 L646 250 L646 -99 L612 -99 L612 250 L382 250 L382 189 L349 189 L349 624 L612 624 L612 808 ZM382 282 L612 282 L612 590 L382 590 L382 282 ZM646 282 L878 282 L878 590 L646 590 L646 282 Z" /><glyph glyph-name="uni51B3" unicode="&#x51b3;" d="M363 651 L578 651 L578 811 L611 811 L611 651 L844 651 L844 354 L942 354 L942 321 L622 321 Q723 77 956 -65 L934 -90 Q689 69 590 321 Q527 34 267 -95 L246 -68 Q497 49 557 321 L322 321 L322 354 L564 354 Q577 433 578 513 L578 618 L363 618 L363 651 ZM611 618 L611 520 Q611 435 597 354 L810 354 L810 618 L611 618 ZM93 768 Q198 644 259 547 L231 527 Q172 625 65 751 L93 768 ZM270 347 Q192 133 89 -67 L57 -53 Q161 146 240 359 L270 347 Z" /><glyph glyph-name="uni51B5" unicode="&#x51b5;" d="M371 754 L855 754 L855 379 L708 379 L708 -3 Q708 -42 753 -42 L832 -42 Q875 -42 890 -21 Q912 9 920 151 L951 141 Q942 -7 915 -46 Q891 -75 839 -75 L743 -75 Q675 -75 675 -9 L675 379 L548 379 Q536 54 271 -94 L252 -65 Q505 73 514 379 L371 379 L371 754 ZM821 412 L821 721 L405 721 L405 412 L821 412 ZM93 766 Q205 648 267 555 L240 536 Q179 629 65 749 L93 766 ZM274 348 Q190 126 83 -75 L52 -61 Q164 146 244 360 L274 348 Z" /><glyph glyph-name="uni51C0" unicode="&#x51c0;" d="M84 768 Q191 647 250 550 L222 531 Q159 635 56 751 L84 768 ZM265 342 Q186 123 88 -67 L56 -53 Q161 150 235 355 L265 342 ZM854 173 L617 173 L617 -15 Q617 -90 544 -90 L399 -90 L393 -57 Q467 -60 532 -60 Q584 -60 584 -7 L584 173 L359 173 L359 205 L584 205 L584 339 L318 339 L318 372 L584 372 L584 501 L368 501 L368 533 L606 533 Q683 599 747 683 L495 683 Q425 604 311 541 L290 568 Q478 669 544 815 L577 811 Q555 762 521 715 L788 715 L788 688 Q718 594 650 533 L854 533 L854 372 L952 372 L952 339 L854 339 L854 173 ZM617 501 L617 372 L821 372 L821 501 L617 501 ZM617 339 L617 205 L821 205 L821 339 L617 339 Z" /><glyph glyph-name="uni51C6" unicode="&#x51c6;" d="M87 768 Q193 649 257 550 L228 531 Q171 625 59 751 L87 768 ZM265 329 Q187 107 91 -85 L59 -72 Q157 122 235 341 L265 329 ZM423 390 L423 215 L666 215 L666 390 L423 390 ZM423 182 L423 -8 L666 -8 L666 182 L423 182 ZM423 -40 L423 -96 L389 -96 L389 556 Q341 465 270 374 L258 410 Q398 598 454 815 L487 809 Q462 714 424 628 L927 628 L927 594 L699 594 L699 423 L907 423 L907 390 L699 390 L699 215 L909 215 L909 182 L699 182 L699 -8 L949 -8 L949 -40 L423 -40 ZM666 594 L423 594 L423 423 L666 423 L666 594 ZM652 821 Q687 739 707 665 L677 654 Q652 737 619 811 L652 821 Z" /><glyph glyph-name="uni51C9" unicode="&#x51c9;" d="M294 697 L612 697 Q586 764 560 810 L596 816 Q619 771 646 697 L947 697 L947 664 L294 664 L294 697 ZM383 553 L863 553 L863 292 L641 292 L641 -16 Q641 -92 568 -92 L459 -92 L451 -59 Q505 -62 556 -62 Q606 -62 606 -7 L606 292 L383 292 L383 553 ZM830 324 L830 521 L416 521 L416 324 L830 324 ZM456 191 Q391 64 300 -33 L272 -14 Q361 79 426 207 L456 191 ZM781 206 Q884 76 932 -11 L904 -31 Q849 68 754 188 L781 206 ZM82 766 Q197 636 252 548 L223 527 Q159 631 54 748 L82 766 ZM255 347 Q178 121 88 -68 L56 -54 Q151 142 225 359 L255 347 Z" /><glyph glyph-name="uni51CC" unicode="&#x51cc;" d="M80 776 Q189 649 245 556 L217 537 Q155 641 53 759 L80 776 ZM253 353 Q177 126 85 -72 L53 -58 Q148 143 222 366 L253 353 ZM348 716 L597 716 L597 811 L631 811 L631 716 L894 716 L894 684 L631 684 L631 549 L935 549 L935 517 L300 517 L300 549 L597 549 L597 684 L348 684 L348 716 ZM604 386 Q572 328 535 277 L814 277 L814 248 Q772 134 654 52 Q779 -25 958 -66 L939 -96 Q751 -51 626 33 Q497 -48 288 -96 L272 -66 Q471 -21 598 52 Q513 114 460 191 Q399 133 333 92 L307 115 Q480 219 573 398 L604 386 ZM626 70 Q737 145 779 247 L511 247 Q506 242 497 231 L482 214 Q538 132 626 70 ZM510 474 Q435 372 333 297 L306 316 Q407 387 480 489 L510 474 ZM738 490 Q872 390 941 319 L913 298 Q838 379 711 472 L738 490 Z" /><glyph glyph-name="uni51CF" unicode="&#x51cf;" d="M429 516 L639 516 L639 485 L429 485 L429 516 ZM442 374 L630 374 L630 103 L442 103 L442 374 ZM601 133 L601 344 L471 344 L471 133 L601 133 ZM906 510 Q862 303 779 156 Q796 79 823 19 Q862 -55 891 -57 Q923 -57 929 142 L958 130 Q955 -91 896 -91 Q849 -91 804 -8 Q776 47 757 119 Q672 -16 546 -90 L526 -64 Q660 13 746 161 Q732 216 721 290 Q695 465 689 637 L364 637 L364 351 Q360 75 247 -93 L222 -70 Q326 80 332 351 L332 670 L687 670 Q684 742 684 812 L717 812 Q717 741 720 670 L853 670 Q830 727 797 783 L827 789 Q858 735 883 670 L936 670 L936 637 L722 637 Q728 477 749 321 Q760 243 769 203 Q836 334 876 523 L906 510 ZM83 762 Q188 642 245 550 L218 531 Q157 629 55 744 L83 762 ZM260 343 Q179 119 82 -71 L51 -57 Q153 142 231 355 L260 343 Z" /><glyph glyph-name="uni51D1" unicode="&#x51d1;" d="M428 318 L786 318 L786 288 L618 288 L618 245 Q618 211 611 169 L888 169 L888 137 L604 137 Q586 73 547 26 Q477 -50 322 -95 L303 -66 Q453 -26 523 50 Q555 91 569 137 L321 137 L321 169 L577 169 Q585 207 585 245 L585 288 L428 288 L428 318 ZM83 775 Q187 656 247 557 L220 538 Q161 635 56 757 L83 775 ZM250 353 Q174 131 80 -66 L49 -52 Q148 152 220 365 L250 353 ZM329 724 L588 724 Q600 786 604 816 L639 812 Q633 767 624 724 L905 724 L905 693 L617 693 Q603 637 586 593 L865 593 L865 562 L574 562 Q550 505 525 464 L940 464 L940 432 L751 432 Q810 334 958 256 L936 229 Q780 318 719 432 L504 432 Q415 302 277 227 L259 256 Q385 322 465 432 L280 432 L280 464 L487 464 Q517 512 539 562 L356 562 L356 593 L551 593 Q568 638 582 693 L329 693 L329 724 ZM649 71 Q785 14 900 -69 L881 -98 Q758 -5 631 45 L649 71 Z" /><glyph glyph-name="uni51DD" unicode="&#x51dd;" d="M315 379 Q289 327 263 290 L243 314 Q296 387 325 498 L355 490 Q340 438 329 410 L545 410 L545 379 L432 379 L432 356 Q430 291 420 231 L550 231 L550 201 L414 201 Q409 180 400 150 Q470 101 531 27 L514 1 Q452 77 390 121 Q345 2 256 -93 L230 -72 Q346 47 382 201 L254 201 L254 231 L388 231 Q400 291 400 356 L400 379 L315 379 ZM743 463 L577 463 L577 494 L795 494 Q729 560 636 626 L657 646 Q707 611 748 578 Q816 644 872 734 L598 734 L598 764 L909 764 L909 737 Q851 638 772 557 Q807 528 839 494 L935 494 L935 468 Q899 379 859 319 L835 338 Q873 395 902 463 L775 463 L775 249 L908 249 L908 219 L775 219 L775 -35 Q811 -49 883 -51 L956 -50 L950 -83 Q815 -83 770 -68 Q688 -41 629 101 Q600 -32 539 -99 L514 -79 Q621 34 624 357 L654 357 Q652 237 638 149 Q683 27 743 -17 L743 463 ZM323 591 Q323 550 364 550 L440 550 Q473 550 488 556 Q517 570 523 660 L555 650 Q547 558 521 537 Q498 521 447 520 L356 520 Q325 520 307 538 Q291 555 291 584 L291 805 L323 805 L323 689 Q440 715 527 768 L539 739 Q446 685 323 658 L323 591 ZM75 743 Q176 630 230 546 L203 527 Q145 619 49 725 L75 743 ZM225 300 Q157 105 77 -65 L47 -52 Q131 121 196 312 L225 300 Z" /><glyph glyph-name="uni2F0F" unicode="&#x2f0f;&#x51e0;" d="M59 -70 Q178 48 223 185 Q259 302 259 464 L259 756 L684 756 L684 7 Q684 -38 731 -38 L824 -38 Q854 -38 873 -30 Q896 -18 902 18 Q910 69 910 210 L941 200 Q941 86 935 24 Q929 -35 899 -55 Q875 -70 824 -70 L732 -70 Q649 -70 649 7 L649 722 L293 722 L293 464 Q293 275 250 157 Q203 23 84 -94 L59 -70 Z" /><glyph glyph-name="uni51E1" unicode="&#x51e1;" d="M62 -63 Q174 50 218 184 Q251 298 251 454 L251 757 L706 757 L706 13 Q706 -35 754 -35 L828 -35 Q857 -35 880 -28 Q903 -19 909 14 Q917 59 917 185 L950 176 Q950 73 944 17 Q938 -37 906 -55 Q880 -68 829 -68 L755 -68 Q671 -68 671 13 L671 723 L285 723 L285 454 Q285 271 245 156 Q202 29 90 -89 L62 -63 ZM376 527 Q521 371 595 256 L566 236 Q490 357 349 509 L376 527 Z" /><glyph glyph-name="uni51E4" unicode="&#x51e4;" d="M309 451 Q417 358 518 253 Q597 377 634 535 L297 535 L297 568 L669 568 L669 536 Q628 356 544 226 Q639 123 708 33 L683 8 Q613 101 524 197 Q416 51 251 -29 L231 1 Q398 85 499 224 Q406 321 286 429 L309 451 ZM168 762 L811 762 L811 376 Q811 107 832 29 Q853 -45 884 -45 Q915 -43 933 125 L962 112 Q947 -1 928 -47 Q909 -81 887 -81 Q830 -81 803 10 Q776 100 776 376 L776 729 L201 729 L201 388 Q198 104 69 -88 L42 -68 Q162 115 168 388 L168 762 Z" /><glyph glyph-name="uni51ED" unicode="&#x51ed;" d="M327 570 L614 570 L614 716 Q512 704 394 704 L383 734 Q668 736 844 801 L860 772 Q773 739 649 720 L649 570 L930 570 L930 537 L649 537 L649 388 L892 388 L892 355 L375 355 L375 388 L614 388 L614 537 L327 537 L327 570 ZM199 619 Q145 557 77 502 L55 529 Q206 647 289 816 L322 808 Q281 725 233 661 L233 325 L199 325 L199 619 ZM309 256 L689 256 L689 -1 Q689 -49 733 -49 L841 -49 Q872 -49 891 -35 Q916 -16 925 109 L958 99 Q948 -10 929 -47 Q906 -81 847 -81 L726 -81 Q655 -81 655 -9 L655 223 L343 223 L343 136 Q337 -53 85 -98 L65 -69 Q309 -27 309 141 L309 256 Z" /><glyph glyph-name="uni51EF" unicode="&#x51ef;" d="M428 -66 Q499 34 526 152 Q548 256 548 390 L548 764 L795 764 L795 1 Q795 -39 830 -39 L863 -39 Q884 -39 897 -31 Q913 -18 917 16 Q923 64 923 205 L952 195 Q952 89 947 22 Q941 -36 920 -56 Q902 -71 863 -71 L832 -71 Q762 -71 762 1 L762 732 L581 732 L581 390 Q581 228 555 127 Q527 13 453 -89 L428 -66 ZM158 -7 Q303 33 446 93 L452 59 Q302 -2 108 -56 L98 -27 Q125 -19 125 4 L125 255 L388 255 L388 411 L64 411 L64 442 L420 442 L420 223 L158 223 L158 -7 ZM415 580 L415 763 L447 763 L447 548 L87 548 L87 760 L118 760 L118 580 L251 580 L251 808 L284 808 L284 580 L415 580 Z" /><glyph glyph-name="uni51F0" unicode="&#x51f0;" d="M282 606 L442 606 Q464 644 475 688 L509 683 Q498 643 475 606 L690 606 L690 338 L282 338 L282 606 ZM658 368 L658 458 L314 458 L314 368 L658 368 ZM314 488 L658 488 L658 577 L314 577 L314 488 ZM256 258 L714 258 L714 227 L502 227 L502 115 L690 115 L690 84 L502 84 L502 -30 L759 -30 L759 -61 L211 -61 L211 -30 L469 -30 L469 84 L280 84 L280 115 L469 115 L469 227 L256 227 L256 258 ZM147 761 L820 761 L820 314 Q820 80 841 12 Q859 -53 889 -53 Q918 -53 936 112 L964 99 Q950 -10 931 -56 Q914 -90 892 -90 Q837 -90 813 -8 Q786 72 786 314 L786 729 L181 729 L181 388 Q178 102 70 -93 L43 -71 Q143 113 147 388 L147 761 Z" /><glyph glyph-name="uni51FA" unicode="&#x51fa;" d="M793 451 L793 737 L827 737 L827 417 L518 417 L518 14 L839 14 L839 301 L872 301 L872 -89 L839 -89 L839 -19 L161 -19 L161 -89 L128 -89 L128 301 L161 301 L161 14 L482 14 L482 417 L173 417 L173 737 L207 737 L207 451 L482 451 L482 814 L518 814 L518 451 L793 451 Z" /><glyph glyph-name="uni51FB" unicode="&#x51fb;" d="M141 651 L482 651 L482 806 L518 806 L518 651 L855 651 L855 618 L518 618 L518 416 L937 416 L937 382 L518 382 L518 -11 L791 -11 L791 272 L824 272 L824 -97 L791 -97 L791 -43 L210 -43 L210 -97 L177 -97 L177 272 L210 272 L210 -11 L482 -11 L482 382 L64 382 L64 416 L482 416 L482 618 L141 618 L141 651 Z" /><glyph glyph-name="uni2F11" unicode="&#x2f11;&#x5200;" d="M117 696 L117 729 L866 729 Q866 230 852 106 Q834 -64 680 -64 L516 -62 L508 -30 L678 -31 Q800 -31 818 111 Q829 209 832 696 L450 696 Q441 165 96 -75 L77 -45 Q409 183 417 696 L117 696 Z" /><glyph glyph-name="uni5203" unicode="&#x5203;" d="M109 700 L109 733 L862 733 Q862 217 848 89 Q833 -81 692 -81 L518 -79 L509 -48 Q647 -50 689 -50 Q799 -50 814 94 Q825 195 828 700 L499 700 Q488 158 105 -86 L86 -57 Q460 176 467 700 L109 700 ZM264 549 Q234 368 128 263 L100 283 Q204 383 231 554 L264 549 Z" /><glyph glyph-name="uni5206" unicode="&#x5206;" d="M418 774 Q344 641 273 560 Q191 466 69 387 L50 417 Q165 486 247 583 Q327 672 388 791 L418 774 ZM191 369 L191 402 L776 402 Q772 228 759 111 Q744 3 714 -42 Q680 -85 612 -88 L426 -88 L417 -55 L596 -56 Q680 -56 707 22 Q733 100 742 369 L439 369 Q403 193 337 92 Q265 -10 118 -94 L96 -67 Q235 11 305 104 Q373 204 405 369 L191 369 ZM629 802 Q722 564 949 430 L926 403 Q693 549 600 786 L629 802 Z" /><glyph glyph-name="uni5207" unicode="&#x5207;" d="M617 704 L410 704 L410 737 L909 737 Q909 206 895 74 Q883 -72 774 -72 L635 -70 L626 -38 L773 -39 Q849 -39 861 79 Q872 183 875 704 L651 704 L651 588 Q645 121 339 -95 L312 -71 Q611 134 617 588 L617 704 ZM453 574 L458 541 L209 490 L209 122 Q314 163 415 224 L425 192 Q318 125 163 71 L153 103 Q175 112 175 130 L175 483 L40 456 L35 489 L175 517 L175 798 L209 798 L209 524 L453 574 Z" /><glyph glyph-name="uni520A" unicode="&#x520a;" d="M83 763 L520 763 L520 730 L319 730 L319 408 L554 408 L554 373 L319 373 L319 -94 L284 -94 L284 373 L49 373 L49 408 L284 408 L284 730 L83 730 L83 763 ZM626 718 L660 718 L660 92 L626 92 L626 718 ZM685 -87 L677 -53 Q775 -55 817 -55 Q865 -55 865 -9 L865 809 L901 809 L901 -17 Q901 -87 829 -87 L685 -87 Z" /><glyph glyph-name="uni5212" unicode="&#x5212;" d="M661 725 L695 725 L695 92 L661 92 L661 725 ZM676 -86 L669 -53 Q741 -56 808 -56 Q862 -56 862 1 L862 809 L896 809 L896 -8 Q896 -86 820 -86 L676 -86 ZM542 576 L547 542 L243 494 Q253 394 272 310 Q289 236 309 180 Q413 291 483 448 L514 431 Q436 259 322 143 Q346 79 371 39 Q432 -54 483 -55 Q515 -49 553 125 L581 106 Q562 24 543 -25 Q517 -89 484 -89 Q420 -89 354 6 Q322 50 296 117 Q193 23 64 -31 L44 0 Q181 55 282 153 Q262 211 243 286 Q222 374 210 489 L65 466 L60 500 L207 523 Q195 651 195 810 L229 810 Q229 644 240 528 L542 576 ZM362 816 Q422 744 473 660 L443 645 Q392 732 333 801 L362 816 Z" /><glyph glyph-name="uni5217" unicode="&#x5217;" d="M677 -86 L670 -53 Q736 -56 797 -56 Q863 -56 863 10 L863 805 L897 805 L897 1 Q897 -86 809 -86 L677 -86 ZM649 729 L683 729 L683 91 L649 91 L649 729 ZM77 756 L552 756 L552 722 L281 722 Q269 627 245 550 L496 550 L496 519 Q409 93 90 -84 L72 -54 Q250 44 353 220 Q269 295 153 359 Q117 308 70 263 L54 295 Q218 450 248 722 L77 722 L77 756 ZM170 385 Q284 323 369 250 Q430 368 462 516 L234 516 Q207 445 170 385 Z" /><glyph glyph-name="uni5218" unicode="&#x5218;" d="M59 654 L300 654 Q275 746 248 814 L283 820 Q310 747 334 654 L559 654 L559 621 L463 621 Q433 395 363 241 Q469 106 548 -23 L523 -47 Q448 77 347 207 Q246 5 67 -89 L49 -60 Q227 33 324 237 Q230 358 103 496 L127 517 Q245 391 339 271 Q402 421 429 621 L59 621 L59 654 ZM670 -86 L663 -53 Q759 -55 803 -55 Q855 -55 855 2 L855 809 L890 809 L890 -6 Q890 -86 814 -86 L670 -86 ZM637 724 L670 724 L670 91 L637 91 L637 724 Z" /><glyph glyph-name="uni5219" unicode="&#x5219;" d="M507 759 L507 165 L473 165 L473 726 L148 726 L148 156 L114 156 L114 759 L507 759 ZM367 132 Q483 31 559 -65 L534 -89 Q463 3 343 109 L367 132 ZM293 649 L326 649 L326 330 Q325 157 263 53 Q201 -42 62 -99 L41 -68 Q177 -17 238 79 Q291 174 293 330 L293 649 ZM653 725 L687 725 L687 92 L653 92 L653 725 ZM682 -85 L675 -52 Q763 -54 801 -54 Q862 -54 862 7 L862 809 L896 809 L896 -1 Q896 -85 813 -85 L682 -85 Z" /><glyph glyph-name="uni521A" unicode="&#x521a;" d="M374 -86 L364 -53 L471 -54 Q523 -54 523 1 L523 728 L123 728 L123 -91 L90 -91 L90 762 L556 762 L556 -6 Q556 -86 481 -86 L374 -86 ZM197 583 Q278 469 334 379 Q380 503 406 651 L438 645 Q407 480 355 345 Q429 227 474 137 L447 117 Q403 205 340 309 Q281 171 194 69 L172 95 Q259 198 320 343 Q256 448 170 566 L197 583 ZM683 724 L717 724 L717 92 L683 92 L683 724 ZM680 -86 L673 -53 Q745 -56 808 -56 Q866 -56 866 2 L866 809 L900 809 L900 -6 Q900 -86 820 -86 L680 -86 Z" /><glyph glyph-name="uni521B" unicode="&#x521b;" d="M451 454 L194 454 L194 -14 Q194 -44 229 -44 L448 -44 Q509 -44 525 -16 Q542 21 548 112 L581 101 Q572 -21 544 -53 Q520 -77 452 -77 L222 -77 Q159 -77 159 -20 L159 485 L485 485 L485 235 Q483 158 412 157 Q375 157 303 161 L293 193 Q369 189 405 189 Q451 189 451 240 L451 454 ZM346 797 Q479 653 599 500 L576 476 Q452 637 335 765 Q211 584 63 449 L43 476 Q193 612 318 797 L346 797 ZM679 724 L713 724 L713 92 L679 92 L679 724 ZM676 -86 L669 -53 Q756 -56 834 -56 Q866 -56 866 -18 L866 809 L900 809 L900 -26 Q900 -86 846 -86 L676 -86 Z" /><glyph glyph-name="uni521D" unicode="&#x521d;" d="M586 689 L426 689 L426 722 L904 722 Q904 209 889 87 Q874 -77 733 -77 L624 -75 L616 -43 L730 -44 Q840 -44 855 92 Q867 202 870 689 L619 689 L619 606 Q613 129 363 -90 L338 -68 Q581 142 586 606 L586 689 ZM203 344 Q137 264 55 188 L45 222 Q257 423 319 610 L65 610 L65 642 L353 642 L353 613 Q316 497 236 387 L236 373 Q278 344 301 323 Q361 358 416 442 L439 419 Q388 343 324 303 Q374 258 419 208 L400 179 Q319 279 236 339 L236 -97 L203 -97 L203 344 ZM184 813 Q220 746 243 681 L212 669 Q188 735 150 804 L184 813 Z" /><glyph glyph-name="uni5224" unicode="&#x5224;" d="M125 769 Q168 681 203 566 L172 557 Q139 668 96 759 L125 769 ZM525 770 Q493 651 439 555 L408 567 Q458 652 495 779 L525 770 ZM85 491 L292 491 L292 809 L325 809 L325 491 L528 491 L528 457 L325 457 L325 442 Q322 343 308 270 L557 270 L557 237 L301 237 Q250 27 96 -90 L69 -67 Q218 40 268 237 L60 237 L60 270 L275 270 Q291 354 292 442 L292 457 L85 457 L85 491 ZM656 718 L690 718 L690 92 L656 92 L656 718 ZM684 -86 L677 -53 Q745 -56 806 -56 Q863 -56 863 4 L863 809 L898 809 L898 -5 Q898 -86 817 -86 L684 -86 Z" /><glyph glyph-name="uni5229" unicode="&#x5229;" d="M63 529 L281 529 L281 708 Q190 689 73 679 L62 711 Q300 728 481 801 L498 772 Q413 738 316 715 L316 529 L510 529 L510 496 L316 496 L316 429 Q419 332 513 223 L493 193 Q393 317 316 393 L316 -96 L281 -96 L281 430 Q206 246 60 105 L45 142 Q213 298 279 496 L63 496 L63 529 ZM617 718 L651 718 L651 91 L617 91 L617 718 ZM667 -86 L660 -53 Q758 -55 801 -55 Q857 -55 857 3 L857 809 L892 809 L892 -6 Q892 -86 812 -86 L667 -86 Z" /><glyph glyph-name="uni522B" unicode="&#x522b;" d="M109 473 L109 763 L510 763 L510 473 L309 473 Q306 389 297 320 L517 320 Q517 68 502 8 Q488 -80 365 -80 L300 -79 L292 -47 Q348 -49 363 -49 Q454 -49 469 14 Q480 59 483 287 L293 287 Q278 186 250 120 Q195 -4 68 -92 L47 -65 Q166 15 219 132 Q244 188 260 287 L63 287 L63 320 L264 320 Q272 398 275 473 L109 473 ZM651 724 L685 724 L685 92 L651 92 L651 724 ZM680 -86 L673 -53 Q745 -56 808 -56 Q862 -56 862 4 L862 809 L896 809 L896 -5 Q896 -86 820 -86 L680 -86 ZM477 506 L477 731 L142 731 L142 506 L477 506 Z" /><glyph glyph-name="uni5230" unicode="&#x5230;" d="M561 2 Q333 -46 66 -79 L59 -46 Q216 -27 301 -14 L301 217 L91 217 L91 251 L301 251 L301 385 L335 385 L335 251 L534 251 L534 217 L335 217 L335 -8 Q465 14 561 35 L561 2 ZM68 756 L557 756 L557 722 L290 722 Q202 537 121 453 Q309 470 483 499 Q444 562 390 638 L416 655 Q519 514 573 408 L546 388 Q530 421 499 473 Q305 440 72 419 L64 450 L78 454 Q164 531 255 722 L68 722 L68 756 ZM682 -86 L674 -53 Q772 -55 814 -55 Q867 -55 867 -2 L867 809 L902 809 L902 -11 Q902 -86 826 -86 L682 -86 ZM657 719 L691 719 L691 91 L657 91 L657 719 Z" /><glyph glyph-name="uni5236" unicode="&#x5236;" d="M142 642 Q114 579 71 531 L43 552 Q124 636 147 787 L180 782 Q172 729 155 675 L315 675 L315 809 L349 809 L349 675 L551 675 L551 642 L349 642 L349 477 L579 477 L579 444 L349 444 L349 305 L547 305 L547 47 Q547 -26 477 -26 L419 -26 L410 8 L467 7 Q513 7 513 54 L513 273 L349 273 L349 -98 L315 -98 L315 273 L147 273 L147 -34 L113 -34 L113 305 L315 305 L315 444 L59 444 L59 477 L315 477 L315 642 L142 642 ZM657 719 L691 719 L691 92 L657 92 L657 719 ZM680 -86 L673 -53 Q747 -56 813 -56 Q870 -56 870 2 L870 809 L904 809 L904 -6 Q904 -86 825 -86 L680 -86 Z" /><glyph glyph-name="uni5238" unicode="&#x5238;" d="M246 232 L246 265 L755 265 Q750 130 739 54 Q727 -23 698 -57 Q670 -87 606 -90 L474 -90 L466 -57 Q552 -59 589 -59 Q665 -59 689 -5 Q715 53 721 232 L443 232 Q413 111 357 39 Q290 -38 163 -95 L142 -68 Q264 -14 325 52 Q384 119 411 232 L246 232 ZM252 811 Q296 747 330 674 L301 661 Q264 740 221 801 L252 811 ZM787 808 Q752 722 700 660 L674 676 Q724 737 757 819 L787 808 ZM129 639 L453 639 Q485 730 499 823 L533 819 Q517 718 489 639 L871 639 L871 608 L478 608 Q445 527 405 465 L925 465 L925 433 L673 433 Q751 308 953 208 L931 180 Q718 292 639 433 L383 433 Q265 272 67 179 L48 208 Q233 290 343 433 L75 433 L75 465 L366 465 Q409 528 442 608 L129 608 L129 639 Z" /><glyph glyph-name="uni523A" unicode="&#x523a;" d="M654 725 L687 725 L687 91 L654 91 L654 725 ZM693 -87 L686 -54 Q746 -57 801 -57 Q854 -57 854 -2 L854 809 L888 809 L888 -10 Q888 -87 812 -87 L693 -87 ZM334 -94 L301 -94 L301 284 Q211 104 60 -12 L42 19 Q211 141 301 340 L301 512 L145 512 L145 252 L111 252 L111 545 L301 545 L301 671 L77 671 L77 705 L301 705 L301 810 L334 810 L334 705 L557 705 L557 671 L334 671 L334 545 L527 545 L527 327 Q527 262 460 262 L410 262 L402 293 L449 292 Q494 292 494 337 L494 512 L334 512 L334 268 Q435 187 544 77 L525 48 Q418 164 334 235 L334 -94 Z" /><glyph glyph-name="uni523B" unicode="&#x523b;" d="M670 724 L703 724 L703 92 L670 92 L670 724 ZM676 -86 L669 -53 Q743 -56 809 -56 Q862 -56 862 -1 L862 809 L896 809 L896 -10 Q896 -86 821 -86 L676 -86 ZM375 99 Q242 -25 64 -90 L45 -60 Q371 54 536 374 L566 358 Q493 220 398 122 Q504 34 583 -60 L558 -84 Q488 3 375 99 ZM308 820 Q339 758 361 692 L582 692 L582 659 L294 659 Q204 473 141 410 Q266 419 390 434 Q429 489 464 560 L493 543 Q351 252 76 147 L58 177 Q244 246 366 401 Q254 387 100 376 L91 410 L99 413 Q159 458 258 659 L60 659 L60 692 L327 692 Q300 765 272 814 L308 820 Z" /><glyph glyph-name="uni524D" unicode="&#x524d;" d="M723 808 Q690 733 646 674 L942 674 L942 640 L57 640 L57 674 L354 674 Q321 750 280 811 L315 817 Q357 749 389 674 L609 674 Q656 741 689 820 L723 808 ZM319 -89 L310 -55 L388 -56 Q437 -56 437 -3 L437 133 L170 133 L170 -97 L136 -97 L136 528 L471 528 L471 -10 Q471 -89 399 -89 L319 -89 ZM170 165 L437 165 L437 313 L170 313 L170 165 ZM170 345 L437 345 L437 496 L170 496 L170 345 ZM656 -86 L649 -53 Q715 -56 774 -56 Q826 -56 826 -1 L826 566 L860 566 L860 -10 Q860 -86 787 -86 L656 -86 ZM615 491 L649 491 L649 54 L615 54 L615 491 Z" /><glyph glyph-name="uni5251" unicode="&#x5251;" d="M607 16 Q392 -29 101 -68 L93 -35 Q227 -18 406 11 Q484 167 541 399 L573 390 Q520 178 441 17 Q511 29 607 49 L607 16 ZM145 348 Q212 227 261 82 L230 75 Q186 211 114 339 L145 348 ZM307 394 Q358 286 397 145 L366 137 Q329 270 277 384 L307 394 ZM195 500 L512 500 L512 467 L195 467 L195 500 ZM668 720 L701 720 L701 92 L668 92 L668 720 ZM704 -90 L697 -57 Q757 -60 811 -60 Q869 -60 869 4 L869 805 L903 805 L903 -5 Q903 -90 823 -90 L704 -90 ZM361 805 Q473 699 602 543 L581 516 Q439 688 352 772 Q248 603 64 434 L44 462 Q221 619 336 805 L361 805 Z" /><glyph glyph-name="uni5256" unicode="&#x5256;" d="M659 724 L693 724 L693 92 L659 92 L659 724 ZM662 -86 L655 -53 Q730 -56 799 -56 Q857 -56 857 6 L857 809 L891 809 L891 -3 Q891 -86 811 -86 L662 -86 ZM77 710 L305 710 Q289 769 270 810 L307 816 Q323 776 339 710 L553 710 L553 676 L77 676 L77 710 ZM59 436 L209 436 Q181 521 137 597 L168 609 Q211 536 243 436 L396 436 Q437 513 472 614 L505 602 Q473 511 429 436 L575 436 L575 403 L59 403 L59 436 ZM518 274 L518 -86 L484 -86 L484 -18 L161 -18 L161 -86 L128 -86 L128 274 L518 274 ZM161 15 L484 15 L484 241 L161 241 L161 15 Z" /><glyph glyph-name="uni5267" unicode="&#x5267;" d="M170 367 Q159 103 70 -91 L44 -69 Q138 127 139 432 L139 761 L594 761 L594 546 L413 546 L413 400 L617 400 L617 367 L413 367 L413 214 L579 214 L579 -87 L546 -87 L546 -35 L256 -35 L256 -87 L224 -87 L224 214 L380 214 L380 367 L170 367 ZM380 546 L172 546 L172 416 L171 400 L380 400 L380 546 ZM256 -3 L546 -3 L546 182 L256 182 L256 -3 ZM561 727 L172 727 L172 578 L561 578 L561 727 ZM690 724 L724 724 L724 128 L690 128 L690 724 ZM687 -86 L681 -53 Q753 -56 817 -56 Q869 -56 869 0 L869 809 L903 809 L903 -9 Q903 -86 829 -86 L687 -86 Z" /><glyph glyph-name="uni526A" unicode="&#x526a;" d="M100 153 L100 184 L855 184 Q855 11 825 -36 Q795 -84 716 -84 Q661 -84 601 -82 L591 -49 Q659 -52 714 -52 Q796 -49 808 14 Q820 79 820 153 L466 153 Q399 -36 67 -87 L52 -56 Q370 -11 432 153 L100 153 ZM182 465 L182 391 L462 391 L462 465 L182 465 ZM462 493 L462 569 L182 569 L182 493 L462 493 ZM182 364 L182 246 L149 246 L149 598 L495 598 L495 309 Q495 248 429 248 L339 248 L330 278 L418 277 Q462 277 462 316 L462 364 L182 364 ZM334 818 Q364 771 387 716 L616 716 Q656 768 673 820 L707 815 Q688 761 650 716 L940 716 L940 684 L60 684 L60 716 L354 716 Q330 770 300 812 L334 818 ZM653 251 L646 283 Q709 280 765 280 Q815 280 815 331 L815 624 L849 624 L849 323 Q849 251 776 251 L653 251 ZM625 596 L658 596 L658 340 L625 340 L625 596 Z" /><glyph glyph-name="uni526F" unicode="&#x526f;" d="M667 713 L700 713 L700 91 L667 91 L667 713 ZM706 -86 L699 -53 Q762 -56 818 -56 Q868 -56 868 1 L868 809 L902 809 L902 -8 Q902 -86 830 -86 L706 -86 ZM61 763 L581 763 L581 732 L61 732 L61 763 ZM130 636 L524 636 L524 434 L130 434 L130 636 ZM490 465 L490 606 L163 606 L163 465 L490 465 ZM561 340 L561 -96 L528 -96 L528 -39 L120 -39 L120 -96 L88 -96 L88 340 L561 340 ZM120 -7 L308 -7 L308 135 L120 135 L120 -7 ZM341 -7 L528 -7 L528 135 L341 135 L341 -7 ZM120 167 L308 167 L308 308 L120 308 L120 167 ZM341 308 L341 167 L528 167 L528 308 L341 308 Z" /><glyph glyph-name="uni5272" unicode="&#x5272;" d="M149 435 L314 435 L314 534 L105 534 L105 564 L314 564 L314 626 L348 626 L348 564 L555 564 L555 534 L348 534 L348 435 L514 435 L514 406 L348 406 L348 305 L583 305 L583 275 L348 275 L348 211 L314 211 L314 275 L83 275 L83 305 L314 305 L314 406 L149 406 L149 435 ZM676 718 L708 718 L708 91 L676 91 L676 718 ZM710 -85 L703 -52 Q766 -55 822 -55 Q867 -55 867 -2 L867 810 L901 810 L901 -10 Q901 -85 833 -85 L710 -85 ZM590 721 L590 579 L557 579 L557 690 L120 690 L120 578 L88 578 L88 721 L315 721 Q290 773 261 813 L294 819 Q320 781 349 721 L590 721 ZM545 173 L545 -96 L512 -96 L512 -46 L167 -46 L167 -92 L135 -92 L135 173 L545 173 ZM167 -15 L512 -15 L512 142 L167 142 L167 -15 Z" /><glyph glyph-name="uni2F12" unicode="&#x2f12;&#x529b;" d="M436 809 L472 809 L472 734 Q472 687 468 607 L856 607 Q851 347 837 194 Q822 42 788 -24 Q756 -83 680 -89 L553 -89 L544 -56 L662 -57 Q753 -57 782 59 Q812 179 821 574 L465 574 Q447 350 381 201 Q296 17 97 -92 L77 -62 Q272 42 359 232 Q415 375 430 574 L121 574 L121 607 L432 607 Q436 691 436 734 L436 809 Z" /><glyph glyph-name="uni529E" unicode="&#x529e;" d="M222 441 Q167 259 79 165 L54 186 Q143 286 191 453 L222 441 ZM392 809 L426 809 L426 629 L425 603 L752 603 Q747 349 734 193 Q721 38 689 -25 Q656 -83 585 -89 L478 -89 L469 -56 L568 -57 Q654 -57 681 58 Q709 183 718 570 L424 570 Q413 326 346 172 Q268 6 89 -92 L70 -62 Q245 31 322 204 Q381 352 390 570 L127 570 L127 603 L391 603 L392 629 L392 809 ZM806 457 Q883 318 953 152 L922 136 Q852 307 775 442 L806 457 Z" /><glyph glyph-name="uni529F" unicode="&#x529f;" d="M216 669 L57 669 L57 704 L408 704 L408 669 L249 669 L249 139 Q339 168 423 202 L423 167 Q259 99 62 55 L53 89 Q148 109 216 129 L216 669 ZM617 809 L651 809 L651 612 L911 612 Q911 167 897 55 Q880 -84 731 -84 L648 -82 L640 -50 Q708 -52 729 -52 Q846 -52 864 60 Q875 148 878 579 L651 579 Q645 121 405 -92 L378 -69 Q611 131 617 579 L452 579 L452 612 L617 612 L617 809 Z" /><glyph glyph-name="uni52A0" unicode="&#x52a0;" d="M891 665 L891 -80 L857 -80 L857 -7 L637 -7 L637 -80 L603 -80 L603 665 L891 665 ZM637 27 L857 27 L857 631 L637 631 L637 27 ZM235 809 L269 809 L269 626 L483 626 Q483 166 468 55 Q453 -84 319 -84 L246 -82 L237 -51 L317 -52 Q420 -52 435 60 Q446 150 449 592 L269 592 L269 587 Q265 119 71 -97 L44 -73 Q232 133 235 587 L235 592 L60 592 L60 626 L235 626 L235 809 Z" /><glyph glyph-name="uni52A1" unicode="&#x52a1;" d="M400 810 Q379 762 352 720 L802 720 L802 692 Q696 569 543 489 Q722 401 952 374 L936 341 Q695 371 506 470 Q317 380 64 341 L49 373 Q289 407 471 489 Q366 548 277 631 Q211 568 131 521 L110 548 Q299 656 365 814 L400 810 ZM508 506 Q652 579 755 688 L329 688 L301 655 Q395 567 508 506 ZM495 379 Q495 312 482 247 L845 247 Q842 7 798 -38 Q753 -86 644 -86 Q622 -86 540 -84 L531 -52 Q594 -53 636 -55 Q748 -53 776 -10 Q804 37 810 216 L474 216 Q461 169 439 127 Q357 -9 86 -95 L63 -67 Q312 8 398 127 Q425 172 439 216 L116 216 L116 247 L447 247 Q462 309 462 379 L495 379 Z" /><glyph glyph-name="uni52A8" unicode="&#x52a8;" d="M97 729 L445 729 L445 696 L97 696 L97 729 ZM56 459 L485 459 L485 425 L245 425 Q171 155 117 58 Q266 82 413 139 Q373 225 324 308 L354 323 Q431 188 495 39 L465 24 Q460 37 446 68 L427 111 Q268 54 74 17 L66 50 L73 53 Q125 118 212 425 L56 425 L56 459 ZM659 809 L693 809 L693 620 L915 620 Q915 149 901 31 Q889 -84 789 -84 L688 -82 L680 -51 Q762 -53 788 -53 Q855 -53 867 36 Q879 136 882 587 L693 587 L693 575 Q689 118 477 -95 L450 -71 Q656 130 659 575 L659 587 L519 587 L519 620 L659 620 L659 809 Z" /><glyph glyph-name="uni52A9" unicode="&#x52a9;" d="M440 749 L440 119 L514 143 L514 110 Q315 41 63 -14 L54 19 L125 34 L125 749 L440 749 ZM159 42 Q288 72 405 108 L405 273 L159 273 L159 42 ZM159 305 L405 305 L405 496 L159 496 L159 305 ZM159 528 L405 528 L405 716 L159 716 L159 528 ZM647 807 L681 807 L681 611 L911 611 Q911 163 897 51 Q881 -84 735 -84 L668 -82 L660 -51 Q716 -53 733 -53 Q845 -53 863 56 Q874 144 877 578 L681 578 Q675 118 464 -96 L437 -72 Q643 132 647 578 L511 578 L511 611 L647 611 L647 807 Z" /><glyph glyph-name="uni52AA" unicode="&#x52aa;" d="M291 810 Q278 762 256 707 L456 707 L456 677 Q417 556 332 470 Q397 437 474 390 L455 363 Q388 408 308 447 Q218 369 86 321 L69 350 Q192 393 277 463 Q207 497 138 526 Q174 593 209 675 L79 675 L79 707 L222 707 Q244 766 258 813 L291 810 ZM301 485 Q384 565 424 675 L244 675 Q214 605 178 540 Q246 512 301 485 ZM520 694 L520 725 L875 725 L875 695 Q830 564 732 475 Q814 417 940 375 L923 345 Q790 391 708 454 Q633 394 534 355 L519 385 Q612 422 682 475 Q576 568 549 694 L520 694 ZM706 495 Q799 579 841 694 L580 694 Q604 579 706 495 ZM508 329 Q508 277 499 232 L851 232 Q848 6 804 -37 Q758 -81 649 -81 L552 -80 L543 -48 Q600 -49 641 -51 Q753 -50 783 -9 Q810 32 816 202 L492 202 Q478 147 452 105 Q371 -18 104 -93 L81 -65 Q324 1 411 107 Q441 150 456 202 L124 202 L124 232 L464 232 Q474 284 474 329 L508 329 Z" /><glyph glyph-name="uni52AB" unicode="&#x52ab;" d="M271 810 L306 810 L306 630 L469 630 L469 596 L306 596 L306 381 L514 381 L514 347 L273 347 Q192 120 134 39 Q278 60 419 108 Q384 173 334 248 L363 261 Q438 151 505 13 L475 -1 L434 80 Q280 32 92 1 L84 32 L91 35 Q147 93 240 347 L65 347 L65 381 L271 381 L271 596 L93 596 L93 630 L271 630 L271 810 ZM654 806 L688 806 L688 589 L902 589 Q902 137 883 28 Q865 -82 741 -82 L672 -80 L663 -49 L736 -50 Q830 -50 848 25 Q869 121 869 555 L687 555 Q676 113 488 -95 L463 -72 Q644 127 653 555 L520 555 L520 589 L654 589 L654 806 Z" /><glyph glyph-name="uni52B1" unicode="&#x52b1;" d="M279 543 L149 543 L149 421 Q145 100 68 -95 L43 -72 Q112 105 115 421 L115 759 L540 759 L540 727 L149 727 L149 575 L515 575 L515 543 L311 543 L311 387 L310 364 L499 364 Q499 111 485 18 Q470 -78 383 -81 L320 -80 L311 -49 Q365 -51 380 -51 Q445 -48 457 36 Q467 129 467 332 L309 332 Q294 50 188 -91 L163 -71 Q276 78 279 410 L279 543 ZM687 808 L721 808 L721 586 L905 586 Q905 136 886 27 Q868 -81 746 -81 L689 -80 L681 -50 L741 -51 Q833 -51 851 24 Q871 118 873 552 L720 552 Q710 114 543 -93 L519 -72 Q677 125 686 552 L560 552 L560 586 L687 586 L687 808 Z" /><glyph glyph-name="uni52B2" unicode="&#x52b2;" d="M475 10 Q296 -20 69 -41 L64 -7 Q183 3 261 12 L261 250 L85 250 L85 284 L466 284 L466 250 L294 250 L294 16 Q388 29 475 43 L475 10 ZM655 808 L689 808 L689 588 L901 588 Q901 130 883 28 Q866 -82 756 -82 L669 -80 L661 -49 Q729 -51 751 -51 Q833 -51 848 25 Q867 125 867 554 L688 554 Q676 116 489 -94 L464 -71 Q643 126 654 554 L518 554 L518 588 L655 588 L655 808 ZM321 528 Q223 424 77 357 L57 384 Q305 497 401 706 L85 706 L85 739 L439 739 L439 712 Q402 626 341 552 Q445 471 518 388 L494 364 Q428 442 321 528 Z" /><glyph glyph-name="uni52B3" unicode="&#x52b3;" d="M909 510 L909 346 L876 346 L876 477 L125 477 L125 345 L92 345 L92 510 L909 510 ZM71 705 L317 705 L317 804 L351 804 L351 705 L652 705 L652 805 L686 805 L686 705 L929 705 L929 672 L686 672 L686 571 L652 571 L652 672 L351 672 L351 571 L317 571 L317 672 L71 672 L71 705 ZM454 405 L488 405 L488 367 Q488 330 483 290 L824 290 Q821 22 778 -30 Q736 -83 628 -83 Q607 -83 529 -81 L520 -49 L620 -52 Q729 -49 758 1 Q784 50 790 258 L478 258 Q457 147 396 69 Q307 -35 105 -95 L85 -66 Q284 -9 375 94 Q426 163 444 258 L152 258 L152 290 L449 290 Q454 332 454 367 L454 405 Z" /><glyph glyph-name="uni52BF" unicode="&#x52bf;" d="M77 698 L232 698 L232 811 L266 811 L266 698 L400 698 L400 666 L266 666 L266 526 Q340 540 406 556 L406 524 Q333 507 266 494 L266 354 Q266 291 202 291 L109 291 L102 324 Q147 321 190 321 Q232 321 232 362 L232 487 Q180 478 72 462 L64 495 Q151 506 232 519 L232 666 L77 666 L77 698 ZM452 562 Q506 539 559 509 Q585 578 588 666 L457 666 L457 698 L589 698 L589 812 L622 812 L622 698 L809 698 L809 527 Q809 327 877 327 Q914 328 929 464 L958 449 Q949 368 926 325 Q905 295 876 295 Q832 295 806 342 Q777 396 777 527 L777 666 L621 666 Q616 567 587 493 Q657 453 715 410 L697 382 Q634 429 575 465 Q529 372 443 315 L417 338 Q503 393 547 481 Q496 511 435 536 L452 562 ZM499 297 Q494 259 482 216 L850 216 Q850 22 814 -32 Q778 -85 683 -85 Q640 -85 594 -83 L585 -49 Q636 -52 681 -52 Q786 -49 801 23 Q815 99 815 183 L471 183 Q440 101 381 43 Q285 -44 77 -91 L63 -60 Q266 -15 355 65 Q408 113 435 183 L91 183 L91 216 L447 216 Q459 255 465 297 L499 297 Z" /><glyph glyph-name="uni52C3" unicode="&#x52c3;" d="M86 705 L272 705 L272 800 L306 800 L306 705 L494 705 L494 672 L306 672 L306 551 L504 551 L504 388 L471 388 L471 519 L107 519 L107 390 L74 390 L74 551 L272 551 L272 672 L86 672 L86 705 ZM503 184 Q411 166 316 151 L316 -13 Q316 -80 256 -80 L163 -80 L154 -48 L243 -50 Q283 -50 283 -4 L283 146 Q187 133 82 122 L77 155 Q188 166 283 179 L283 267 Q339 311 390 376 L146 376 L146 407 L433 407 L433 382 Q388 322 316 257 L316 184 Q432 201 503 216 L503 184 ZM671 811 L704 811 L704 605 L910 605 Q910 148 896 36 Q883 -84 771 -84 L698 -82 L690 -51 L770 -52 Q851 -52 863 41 Q874 129 877 572 L703 572 Q688 120 483 -92 L457 -71 Q658 135 670 572 L541 572 L541 605 L671 605 L671 811 Z" /><glyph glyph-name="uni52C7" unicode="&#x52c7;" d="M182 455 L182 358 L482 358 L482 455 L182 455 ZM182 329 L182 227 L147 227 L147 612 L460 612 Q387 658 301 700 L326 716 Q435 663 498 622 Q678 706 741 740 L148 740 L148 770 L805 770 L805 743 Q683 678 539 612 L860 612 L860 233 L826 233 L826 329 L516 329 L516 258 L482 258 L482 329 L182 329 ZM826 358 L826 455 L516 455 L516 358 L826 358 ZM826 484 L826 582 L516 582 L516 484 L826 484 ZM482 582 L182 582 L182 484 L482 484 L482 582 ZM515 230 Q507 190 501 171 L884 171 Q884 5 847 -41 Q809 -87 713 -87 Q665 -87 611 -85 L602 -52 Q662 -55 711 -55 Q818 -52 835 8 Q849 70 849 139 L489 139 Q456 66 393 18 Q296 -53 78 -92 L64 -61 Q275 -25 367 42 Q422 80 451 139 L96 139 L96 171 L465 171 Q474 196 481 230 L515 230 Z" /><glyph glyph-name="uni52C9" unicode="&#x52c9;&#xfa33;" d="M112 540 L305 540 Q368 606 419 685 L211 685 Q152 603 75 541 L54 565 Q185 671 253 817 L284 810 Q262 761 233 717 L457 717 L457 690 Q400 599 343 540 L510 540 L510 282 L386 282 L386 3 Q386 -46 433 -46 L807 -46 Q857 -46 879 -30 Q906 -9 916 91 L947 81 Q938 -28 902 -57 Q874 -79 813 -79 L423 -79 Q353 -79 353 -4 L353 282 L307 282 Q296 226 288 196 Q235 15 61 -96 L40 -69 Q198 30 253 190 Q265 232 274 282 L112 282 L112 540 ZM477 313 L477 508 L325 508 Q324 404 311 313 L477 313 ZM279 313 Q291 403 294 508 L145 508 L145 313 L279 313 ZM663 801 L695 801 L695 630 L887 630 Q887 264 872 177 Q858 67 737 67 L685 68 L677 99 Q721 97 736 97 Q825 97 840 182 Q850 253 853 598 L694 598 Q685 215 504 39 L479 60 Q655 231 662 598 L546 598 L546 630 L663 630 L663 801 Z" /><glyph glyph-name="uni52E4" unicode="&#x52e4;&#xfa34;" d="M683 809 L717 809 L717 630 L716 612 L908 612 Q908 163 894 51 Q882 -84 767 -84 L699 -82 L691 -50 L765 -51 Q847 -51 861 55 Q872 142 875 579 L715 579 Q699 124 514 -95 L488 -73 Q666 135 681 579 L557 579 L557 612 L682 612 L683 647 L683 809 ZM493 -11 Q327 -38 71 -50 L66 -18 Q198 -13 289 -5 L289 104 L106 104 L106 134 L289 134 L289 225 L80 225 L80 255 L289 255 L289 337 L102 337 L102 506 L289 506 L289 584 L176 584 L176 705 L49 705 L49 736 L176 736 L176 809 L209 809 L209 736 L404 736 L404 809 L437 809 L437 736 L559 736 L559 705 L437 705 L437 584 L322 584 L322 506 L508 506 L508 337 L322 337 L322 255 L527 255 L527 225 L322 225 L322 134 L502 134 L502 104 L322 104 L322 -2 Q415 7 493 19 L493 -11 ZM209 705 L209 613 L404 613 L404 705 L209 705 ZM477 367 L477 476 L322 476 L322 367 L477 367 ZM289 367 L289 476 L133 476 L133 367 L289 367 Z" /><glyph glyph-name="uni52FE" unicode="&#x52fe;" d="M547 403 Q655 224 710 98 L681 78 Q659 131 638 174 Q440 131 197 111 L190 142 Q291 227 405 526 L437 515 Q337 262 243 147 Q448 165 622 205 Q579 288 520 386 L547 403 ZM354 811 Q331 726 299 658 L879 658 Q879 190 864 79 Q846 -91 666 -91 L563 -89 L555 -58 Q639 -60 664 -60 Q808 -60 831 85 Q844 187 845 624 L282 624 Q212 494 106 408 L84 434 Q258 576 318 817 L354 811 Z" /><glyph glyph-name="uni52FF" unicode="&#x52ff;" d="M348 811 Q319 715 275 641 L875 641 Q875 187 860 79 Q843 -88 681 -88 L558 -86 L549 -55 Q649 -57 679 -57 Q808 -57 827 84 Q839 178 842 608 L675 608 Q624 337 525 186 Q419 30 204 -93 L183 -66 Q388 53 490 195 Q596 350 641 608 L460 608 Q369 277 99 127 L77 154 Q338 295 427 608 L255 608 Q185 504 84 433 L62 460 Q249 592 313 817 L348 811 Z" /><glyph glyph-name="uni5300" unicode="&#x5300;" d="M343 811 Q322 730 291 659 L869 659 Q866 256 863 178 Q854 24 808 -33 Q760 -89 635 -89 L536 -90 L526 -57 L627 -57 Q725 -57 774 -14 Q824 33 833 203 L835 625 L275 625 Q210 497 107 398 L84 427 Q251 586 309 815 L343 811 ZM689 210 Q492 117 199 45 L185 78 Q469 143 681 241 L689 210 ZM317 488 Q466 414 573 320 L552 295 Q452 385 297 463 L317 488 Z" /><glyph glyph-name="uni5305" unicode="&#x5305;" d="M619 497 L619 223 L250 223 L250 1 Q250 -49 303 -49 L807 -49 Q848 -49 866 -12 Q880 22 886 123 L918 113 Q912 18 897 -24 Q873 -80 813 -82 L295 -82 Q216 -82 216 -6 L216 497 L619 497 ZM250 256 L586 256 L586 464 L250 464 L250 256 ZM343 814 Q318 753 287 692 L863 692 Q863 336 848 250 Q838 151 742 151 L681 153 L672 184 Q724 182 741 182 Q805 182 814 255 Q826 328 829 659 L269 659 Q193 532 93 436 L70 464 Q224 609 309 823 L343 814 Z" /><glyph glyph-name="uni5316" unicode="&#x5316;" d="M395 797 Q342 674 261 566 L261 -98 L227 -98 L227 523 Q149 430 56 353 L45 388 Q266 576 363 812 L395 797 ZM613 -79 Q529 -79 529 4 L529 349 Q445 300 371 264 L354 297 Q451 341 529 390 L529 809 L563 809 L563 411 Q736 523 866 674 L890 648 Q753 489 563 370 L563 9 Q563 -45 622 -45 L801 -45 Q849 -45 870 -18 Q891 9 897 177 L929 167 Q920 -7 897 -43 Q872 -79 807 -79 L613 -79 Z" /><glyph glyph-name="uni5317" unicode="&#x5317;" d="M362 806 L396 806 L396 -88 L362 -88 L362 110 Q221 41 62 -4 L53 29 Q217 71 362 143 L362 486 L67 486 L67 519 L362 519 L362 806 ZM656 -80 Q586 -80 586 -8 L586 807 L619 807 L619 446 Q767 494 911 588 L931 560 Q767 460 619 414 L619 -3 Q619 -46 664 -46 L808 -46 Q857 -46 879 -22 Q899 4 907 161 L940 150 Q931 -11 905 -46 Q880 -80 814 -80 L656 -80 Z" /><glyph glyph-name="uni5320" unicode="&#x5320;" d="M834 627 Q640 568 402 562 L402 411 L900 411 L900 377 L681 377 L681 24 L647 24 L647 377 L400 377 Q387 181 293 57 L268 83 Q362 202 369 410 L369 591 Q614 595 817 657 L834 627 ZM139 767 L902 767 L902 734 L173 734 L173 -20 L934 -20 L934 -53 L139 -53 L139 767 Z" /><glyph glyph-name="uni532E" unicode="&#x532e;" d="M139 774 L901 774 L901 743 L172 743 L172 -28 L930 -28 L930 -61 L139 -61 L139 774 ZM563 726 L595 726 L595 651 L823 651 L823 503 L595 503 L595 438 L910 438 L910 409 L249 409 L249 438 L563 438 L563 503 L335 503 L335 651 L563 651 L563 726 ZM563 624 L367 624 L367 530 L563 530 L563 624 ZM595 530 L790 530 L790 624 L595 624 L595 530 ZM814 350 L814 150 L781 150 L781 321 L378 321 L378 147 L345 147 L345 350 L814 350 ZM603 272 Q588 145 531 95 Q469 39 272 25 L260 53 Q445 62 506 115 Q559 164 571 275 L603 272 ZM633 146 Q781 102 901 40 L884 13 Q751 83 617 123 L633 146 Z" /><glyph glyph-name="uni5339" unicode="&#x5339;" d="M161 710 L161 -24 L933 -24 L933 -58 L127 -58 L127 744 L919 744 L919 710 L662 710 L662 251 Q662 206 715 206 L810 206 Q852 206 867 227 Q888 257 897 392 L929 381 Q921 237 892 200 Q868 173 816 173 L704 173 Q629 173 629 244 L629 710 L452 710 Q441 292 231 133 L203 156 Q410 300 419 710 L161 710 Z" /><glyph glyph-name="uni533A" unicode="&#x533a;" d="M308 602 Q453 492 582 377 Q681 496 750 657 L780 640 Q708 474 607 354 Q734 240 843 117 L818 92 Q723 202 585 328 Q446 174 263 95 L244 126 Q426 201 560 351 Q431 466 283 579 L308 602 ZM136 767 L915 767 L915 734 L169 734 L169 -18 L942 -18 L942 -51 L136 -51 L136 767 Z" /><glyph glyph-name="uni533B" unicode="&#x533b;" d="M380 537 Q332 463 274 415 L249 438 Q354 527 412 680 L444 671 Q423 614 399 569 L829 569 L829 537 L595 537 L595 462 Q595 404 586 353 L888 353 L888 320 L578 320 Q557 242 516 187 Q439 92 265 38 L245 67 Q414 117 493 213 Q524 257 543 320 L247 320 L247 353 L551 353 Q559 400 561 462 L561 537 L380 537 ZM599 253 Q757 178 891 69 L872 40 Q731 157 581 227 L599 253 ZM123 773 L898 773 L898 741 L157 741 L157 -26 L930 -26 L930 -60 L123 -60 L123 773 Z" /><glyph glyph-name="uni2F17" unicode="&#x2f17;&#x5341;" d="M486 810 L520 810 L520 470 L940 470 L940 436 L520 436 L520 -94 L486 -94 L486 436 L62 436 L62 470 L486 470 L486 810 Z" /><glyph glyph-name="uni5343" unicode="&#x5343;" d="M63 388 L488 388 L488 682 Q317 666 138 666 L126 699 Q574 701 848 784 L865 753 Q715 706 522 685 L522 388 L937 388 L937 354 L522 354 L522 -93 L488 -93 L488 354 L63 354 L63 388 Z" /><glyph glyph-name="uni5347" unicode="&#x5347;" d="M546 769 Q455 730 352 703 L352 419 L660 419 L660 802 L694 802 L694 419 L939 419 L939 385 L694 385 L694 -94 L660 -94 L660 385 L351 385 Q339 61 107 -92 L81 -70 Q308 74 317 385 L60 385 L60 419 L318 419 L318 694 Q213 671 92 660 L80 692 Q337 713 529 799 L546 769 Z" /><glyph glyph-name="uni534A" unicode="&#x534a;" d="M191 769 Q269 674 339 556 L308 541 Q239 659 159 754 L191 769 ZM129 471 L483 471 L483 817 L517 817 L517 471 L864 471 L864 437 L517 437 L517 221 L937 221 L937 187 L517 187 L517 -99 L483 -99 L483 187 L63 187 L63 221 L483 221 L483 437 L129 437 L129 471 ZM828 754 Q777 643 696 538 L665 553 Q746 659 798 769 L828 754 Z" /><glyph glyph-name="uni534E" unicode="&#x534e;" d="M73 203 L482 203 L482 314 L516 314 L516 203 L929 203 L929 169 L516 169 L516 -96 L482 -96 L482 169 L73 169 L73 203 ZM619 345 Q546 345 546 416 L546 525 Q460 487 371 456 L351 484 Q464 523 546 561 L546 799 L579 799 L579 576 Q753 662 863 761 L887 736 Q754 623 579 540 L579 423 Q579 378 630 378 L796 378 Q845 378 863 393 Q888 417 897 524 L930 513 Q921 397 888 367 Q861 345 803 345 L619 345 ZM224 603 Q152 531 70 475 L60 511 Q254 646 336 811 L366 797 Q320 710 258 640 L258 305 L224 305 L224 603 Z" /><glyph glyph-name="uni534F" unicode="&#x534f;" d="M60 585 L182 585 L182 804 L216 804 L216 585 L344 585 L344 551 L216 551 L216 -95 L182 -95 L182 551 L60 551 L60 585 ZM862 429 Q922 315 963 192 L934 179 Q890 312 833 420 L862 429 ZM568 804 L602 804 L602 619 L807 619 Q807 145 792 31 Q782 -83 686 -83 L591 -81 L582 -50 L685 -51 Q748 -51 759 37 Q770 127 773 585 L602 585 L602 550 Q596 111 364 -91 L339 -69 Q565 125 568 550 L568 585 L385 585 L385 619 L568 619 L568 804 ZM444 428 Q398 249 315 151 L291 174 Q374 273 415 436 L444 428 Z" /><glyph glyph-name="uni5353" unicode="&#x5353;" d="M466 812 L499 812 L499 727 L877 727 L877 696 L499 696 L499 596 L807 596 L807 249 L516 249 L516 132 L918 132 L918 98 L516 98 L516 -97 L482 -97 L482 98 L79 98 L79 132 L482 132 L482 249 L206 249 L206 596 L466 596 L466 812 ZM773 281 L773 408 L239 408 L239 281 L773 281 ZM239 439 L773 439 L773 564 L239 564 L239 439 Z" /><glyph glyph-name="uni5355" unicode="&#x5355;" d="M179 649 L594 649 Q646 731 680 816 L713 804 Q678 719 628 649 L823 649 L823 259 L518 259 L518 142 L940 142 L940 109 L518 109 L518 -97 L483 -97 L483 109 L60 109 L60 142 L483 142 L483 259 L179 259 L179 649 ZM789 291 L789 437 L518 437 L518 291 L789 291 ZM483 291 L483 437 L213 437 L213 291 L483 291 ZM213 469 L483 469 L483 617 L213 617 L213 469 ZM518 617 L518 469 L789 469 L789 617 L518 617 ZM306 811 Q358 749 403 675 L374 660 Q327 735 275 796 L306 811 Z" /><glyph glyph-name="uni5356" unicode="&#x5356;" d="M156 365 Q278 319 376 254 L358 226 Q250 299 139 339 L156 365 ZM250 463 Q364 422 457 363 L439 337 Q335 402 232 437 L250 463 ZM555 471 L588 471 L588 317 Q587 246 565 186 L916 186 L916 153 L551 153 Q537 124 521 103 Q734 29 901 -67 L882 -97 Q698 11 501 78 Q488 63 474 51 Q364 -41 112 -95 L93 -66 Q344 -16 454 76 Q491 113 514 153 L92 153 L92 186 L530 186 Q553 245 555 317 L555 471 ZM103 560 L487 560 L487 689 L176 689 L176 721 L487 721 L487 812 L521 812 L521 721 L826 721 L826 689 L521 689 L521 560 L876 560 L876 538 Q853 439 809 336 L775 345 Q819 434 842 527 L103 527 L103 560 Z" /><glyph glyph-name="uni5357" unicode="&#x5357;" d="M60 701 L483 701 Q490 757 495 814 L530 809 L518 701 L940 701 L940 667 L514 667 Q506 606 491 539 L880 539 L880 -16 Q880 -88 809 -88 L706 -88 L696 -54 L797 -55 Q845 -55 845 -9 L845 505 L156 505 L156 -94 L122 -94 L122 539 L457 539 Q469 595 479 667 L60 667 L60 701 ZM369 451 Q403 396 434 314 L559 314 Q604 386 632 458 L664 447 Q633 372 592 314 L735 314 L735 282 L517 282 L517 144 L768 144 L768 113 L517 113 L517 -80 L483 -80 L483 113 L233 113 L233 144 L483 144 L483 282 L268 282 L268 314 L400 314 Q376 381 338 439 L369 451 Z" /><glyph glyph-name="uni535A" unicode="&#x535a;" d="M433 446 L433 359 L629 359 L629 446 L433 446 ZM662 446 L662 359 L859 359 L859 446 L662 446 ZM859 475 L859 565 L662 565 L662 475 L859 475 ZM629 475 L629 565 L433 565 L433 475 L629 475 ZM433 330 L433 227 L400 227 L400 594 L629 594 L629 689 L358 689 L358 720 L629 720 L629 812 L662 812 L662 720 L817 720 Q797 768 770 813 L802 819 Q824 779 848 720 L936 720 L936 689 L662 689 L662 594 L892 594 L892 227 L859 227 L859 330 L662 330 L662 236 L629 236 L629 330 L433 330 ZM333 165 L779 165 L779 236 L813 236 L813 165 L940 165 L940 133 L813 133 L813 -38 Q813 -94 756 -94 L646 -94 L639 -61 Q693 -64 744 -64 Q779 -64 779 -29 L779 133 L333 133 L333 165 ZM61 553 L180 553 L180 810 L213 810 L213 553 L332 553 L332 519 L213 519 L213 -94 L180 -94 L180 519 L61 519 L61 553 ZM445 103 Q539 38 601 -27 L579 -49 Q522 11 423 82 L445 103 Z" /><glyph glyph-name="uni2F18" unicode="&#x2f18;&#x535c;" d="M425 811 L458 811 L458 503 Q632 403 823 265 L804 235 Q600 385 458 466 L458 -94 L425 -94 L425 811 Z" /><glyph glyph-name="uni5360" unicode="&#x5360;" d="M449 813 L483 813 L483 635 L923 635 L923 601 L483 601 L483 375 L828 375 L828 -94 L795 -94 L795 -17 L207 -17 L207 -95 L174 -95 L174 375 L449 375 L449 813 ZM207 16 L795 16 L795 341 L207 341 L207 16 Z" /><glyph glyph-name="uni5361" unicode="&#x5361;" d="M434 809 L468 809 L468 668 L807 668 L807 634 L468 634 L468 448 L939 448 L939 415 L468 415 L468 297 Q648 210 837 93 L818 64 Q611 194 468 264 L468 -94 L434 -94 L434 415 L60 415 L60 448 L434 448 L434 809 Z" /><glyph glyph-name="uni5362" unicode="&#x5362;" d="M517 671 L517 534 L838 534 L838 278 L222 278 Q213 66 80 -93 L55 -71 Q185 75 188 306 L188 534 L483 534 L483 814 L517 814 L517 704 L920 704 L920 671 L517 671 ZM804 500 L223 500 L223 310 L804 310 L804 500 Z" /><glyph glyph-name="uni536B" unicode="&#x536b;" d="M427 706 L158 706 L158 739 L815 739 L815 248 Q815 152 724 152 L598 152 L589 185 L717 183 Q781 183 781 258 L781 706 L460 706 L460 -26 L927 -26 L927 -59 L79 -59 L79 -26 L427 -26 L427 706 Z" /><glyph glyph-name="uni5370" unicode="&#x5370;" d="M160 406 L160 69 Q307 98 465 142 L475 111 Q297 61 121 28 L106 57 Q126 66 126 85 L126 721 Q307 755 461 808 L482 781 Q342 731 160 697 L160 439 L466 439 L466 406 L160 406 ZM722 39 L712 73 L812 72 Q864 72 864 119 L864 710 L588 710 L588 -96 L554 -96 L554 744 L899 744 L899 112 Q899 39 824 39 L722 39 Z" /><glyph glyph-name="uni5371" unicode="&#x5371;" d="M397 823 Q369 773 332 724 L740 724 L740 698 Q662 605 587 546 L924 546 L924 512 L231 512 L231 331 Q222 63 70 -98 L43 -74 Q190 72 196 331 L196 546 L538 546 Q622 610 696 693 L307 693 Q205 572 71 485 L48 512 Q254 644 363 831 L397 823 ZM740 332 L431 332 L431 12 Q431 -46 491 -46 L774 -46 Q856 -46 879 -17 Q901 21 910 115 L942 104 Q931 -21 895 -54 Q862 -79 778 -79 L484 -79 Q396 -79 396 6 L396 364 L775 364 L775 204 Q773 123 701 121 Q656 121 572 125 L562 157 Q652 153 693 153 Q740 153 740 209 L740 332 Z" /><glyph glyph-name="uni5373" unicode="&#x5373;" d="M149 533 L149 358 L432 358 L432 533 L149 533 ZM432 564 L432 731 L149 731 L149 564 L432 564 ZM95 -30 Q115 -22 115 -7 L115 763 L465 763 L465 325 L149 325 L149 -15 Q306 28 435 82 Q401 142 352 217 L379 234 Q478 82 528 -30 L501 -49 Q481 -4 451 53 Q303 -13 106 -61 L95 -30 ZM735 45 L726 79 L831 78 Q871 78 871 120 L871 731 L641 731 L641 -92 L606 -92 L606 763 L904 763 L904 113 Q904 45 843 45 L735 45 Z" /><glyph glyph-name="uni5374" unicode="&#x5374;" d="M73 658 L278 658 L278 816 L312 816 L312 658 L509 658 L509 624 L312 624 L312 421 L540 421 L540 387 L280 387 Q183 120 113 25 Q278 47 446 96 Q410 194 374 273 L405 284 Q476 130 528 -46 L496 -60 Q474 13 457 64 Q276 16 68 -14 L59 17 L67 21 Q135 88 246 387 L47 387 L47 421 L278 421 L278 624 L73 624 L73 658 ZM739 29 L730 63 L807 62 Q863 62 863 123 L863 714 L649 714 L649 -92 L615 -92 L615 748 L897 748 L897 115 Q897 29 818 29 L739 29 Z" /><glyph glyph-name="uni5377" unicode="&#x5377;" d="M244 797 Q293 729 328 657 L299 644 Q261 722 212 787 L244 797 ZM801 786 Q763 704 705 643 L678 659 Q735 721 770 798 L801 786 ZM133 620 L459 620 Q491 707 508 813 L542 809 Q526 707 494 620 L869 620 L869 586 L482 586 Q451 513 413 452 L924 452 L924 418 L663 418 Q747 295 953 198 L931 170 Q712 282 628 418 L390 418 Q270 256 69 163 L50 192 Q238 275 348 418 L76 418 L76 452 L373 452 Q419 521 446 586 L133 586 L133 620 ZM682 262 L312 262 L312 -8 Q312 -49 361 -49 L717 -49 Q786 -49 804 -23 Q823 11 830 93 L864 83 Q855 -29 822 -59 Q794 -81 721 -81 L354 -81 Q278 -81 278 -15 L278 294 L717 294 L717 153 Q717 86 644 84 Q592 84 494 86 L485 118 Q587 114 637 114 Q682 114 682 157 L682 262 Z" /><glyph glyph-name="uni2F1A" unicode="&#x2f1a;&#x5382;" d="M917 752 L917 718 L205 718 L205 400 Q199 92 68 -95 L42 -71 Q166 98 172 400 L172 752 L917 752 Z" /><glyph glyph-name="uni5385" unicode="&#x5385;" d="M923 756 L923 722 L206 722 L206 398 Q200 93 75 -92 L50 -69 Q166 98 172 398 L172 756 L923 756 ZM292 528 L910 528 L910 495 L644 495 L644 -2 Q644 -85 563 -85 L461 -85 L454 -52 Q505 -55 552 -55 Q610 -55 610 6 L610 495 L292 495 L292 528 Z" /><glyph glyph-name="uni5386" unicode="&#x5386;" d="M925 754 L925 720 L179 720 L179 402 Q173 92 70 -93 L44 -70 Q141 101 144 402 L144 754 L925 754 ZM870 457 Q867 70 834 -5 Q799 -82 715 -82 Q689 -82 597 -80 L588 -47 Q660 -50 706 -50 Q789 -47 810 29 Q832 106 836 426 L566 426 Q551 254 493 138 Q416 -8 240 -93 L221 -63 Q393 18 470 167 Q518 275 533 426 L281 426 L281 457 L536 457 Q540 523 540 558 L540 653 L573 653 L573 558 Q573 521 569 457 L870 457 Z" /><glyph glyph-name="uni538B" unicode="&#x538b;" d="M269 417 L559 417 L559 643 L593 643 L593 417 L894 417 L894 383 L593 383 L593 -10 L949 -10 L949 -44 L215 -44 L215 -10 L559 -10 L559 383 L269 383 L269 417 ZM725 303 Q823 176 876 80 L848 60 Q792 165 698 286 L725 303 ZM924 759 L924 725 L180 725 L180 455 Q174 107 67 -98 L40 -74 Q139 115 145 455 L145 759 L924 759 Z" /><glyph glyph-name="uni538C" unicode="&#x538c;" d="M266 413 L550 413 L555 457 L556 644 L590 644 L589 453 L587 433 Q588 424 592 413 L905 413 L905 379 L600 379 Q678 101 940 -65 L916 -90 Q645 88 576 365 Q515 96 234 -90 L211 -64 Q493 125 545 379 L266 379 L266 413 ZM693 645 Q793 565 856 491 L832 467 Q768 543 669 623 L693 645 ZM925 755 L925 721 L183 721 L183 386 Q177 85 76 -93 L51 -70 Q145 94 149 386 L149 755 L925 755 Z" /><glyph glyph-name="uni5395" unicode="&#x5395;" d="M930 757 L930 723 L168 723 L168 402 Q164 94 73 -93 L48 -70 Q131 100 135 402 L135 757 L930 757 ZM591 603 L591 113 L559 113 L559 571 L302 571 L302 112 L270 112 L270 603 L591 603 ZM482 75 Q578 3 642 -70 L618 -92 Q555 -19 460 54 L482 75 ZM416 503 L447 503 L447 273 Q446 125 393 35 Q339 -47 219 -97 L200 -68 Q315 -23 369 58 Q415 141 416 273 L416 503 ZM719 -88 L712 -56 Q763 -59 810 -59 Q859 -59 859 -8 L859 645 L893 645 L893 -17 Q893 -88 821 -88 L719 -88 ZM703 577 L735 577 L735 71 L703 71 L703 577 Z" /><glyph glyph-name="uni539A" unicode="&#x539a;" d="M316 634 L831 634 L831 369 L316 369 L316 634 ZM799 398 L799 487 L349 487 L349 398 L799 398 ZM349 516 L799 516 L799 604 L349 604 L349 516 ZM581 172 Q680 210 777 262 L278 262 L278 293 L845 293 L845 269 Q740 206 615 153 L615 122 L944 122 L944 90 L615 90 L615 -25 Q615 -90 546 -90 L420 -90 L411 -58 L532 -60 Q581 -60 581 -15 L581 90 L233 90 L233 122 L581 122 L581 172 ZM919 764 L919 732 L165 732 L165 403 Q161 93 73 -96 L47 -72 Q127 98 132 403 L132 764 L919 764 Z" /><glyph glyph-name="uni539F" unicode="&#x539f;" d="M309 604 L526 604 Q547 663 556 725 L169 725 L169 365 Q165 81 76 -93 L50 -70 Q130 86 135 365 L135 759 L928 759 L928 725 L590 725 Q580 663 560 604 L849 604 L849 246 L605 246 L605 -34 Q605 -92 546 -92 L445 -92 L438 -59 Q506 -61 534 -61 Q570 -61 570 -26 L570 246 L309 246 L309 604 ZM815 278 L815 410 L343 410 L343 278 L815 278 ZM343 441 L815 441 L815 572 L343 572 L343 441 ZM424 160 Q352 32 258 -58 L230 -38 Q323 51 393 175 L424 160 ZM759 175 Q870 49 927 -42 L899 -63 Q838 39 731 158 L759 175 Z" /><glyph glyph-name="uni53A8" unicode="&#x53a8;" d="M238 600 L605 600 L605 569 L238 569 L238 600 ZM282 469 L555 469 L555 254 L282 254 L282 469 ZM523 285 L523 439 L314 439 L314 285 L523 285 ZM300 204 Q334 133 364 32 L335 24 Q310 111 272 194 L300 204 ZM544 203 Q507 84 464 -2 Q549 12 601 23 L601 -9 Q430 -44 223 -65 L218 -32 Q341 -21 430 -7 Q478 94 514 214 L544 203 ZM924 758 L924 724 L167 724 L167 402 Q162 92 70 -93 L45 -70 Q130 102 133 402 L133 758 L924 758 ZM647 337 Q709 245 755 135 L728 122 Q679 235 618 325 L647 337 ZM674 -88 L667 -56 Q721 -59 771 -59 Q820 -59 820 -11 L820 441 L614 441 L614 473 L820 473 L820 647 L854 647 L854 473 L950 473 L950 441 L854 441 L854 -19 Q854 -88 782 -88 L674 -88 Z" /><glyph glyph-name="uni53BB" unicode="&#x53bb;" d="M659 271 Q810 75 894 -81 L865 -101 Q834 -42 810 -3 Q456 -43 141 -66 L135 -36 Q273 41 416 343 L60 343 L60 377 L483 377 L483 604 L123 604 L123 638 L483 638 L483 811 L517 811 L517 638 L875 638 L875 604 L517 604 L517 377 L939 377 L939 343 L452 343 Q329 74 200 -31 Q649 5 792 26 Q721 139 632 254 L659 271 Z" /><glyph glyph-name="uni53C2" unicode="&#x53c2;" d="M68 500 L408 500 Q445 552 464 607 L175 595 L169 627 Q284 669 419 810 L452 799 Q346 686 241 627 Q515 636 718 652 Q664 703 598 757 L624 775 Q777 649 854 561 L826 542 Q787 587 747 625 Q657 618 499 609 Q479 552 446 500 L921 500 L921 468 L644 468 Q738 350 955 284 L939 252 Q704 333 609 468 L422 468 Q309 328 65 244 L49 275 Q273 346 382 468 L68 468 L68 500 ZM545 390 Q444 265 235 193 L219 221 Q422 290 517 407 L545 390 ZM805 241 Q668 -5 212 -103 L191 -76 Q649 24 775 255 L805 241 ZM672 307 Q506 110 231 60 L211 88 Q488 134 644 326 L672 307 Z" /><glyph glyph-name="uni2F1C" unicode="&#x2f1c;&#x53c8;" d="M127 706 L127 739 L819 739 L819 708 Q729 401 522 192 Q600 119 700 58 Q813 -8 943 -59 L924 -90 Q787 -37 668 37 Q570 99 497 168 Q331 13 95 -85 L76 -54 Q310 42 472 192 Q467 196 446 217 Q358 309 290 438 Q225 556 201 706 L127 706 ZM497 216 Q700 417 782 706 L235 706 Q261 550 332 429 Q400 310 491 221 L497 216 Z" /><glyph glyph-name="uni53CA" unicode="&#x53ca;" d="M317 721 L130 721 L130 756 L699 756 L699 733 Q673 597 643 485 L848 485 L848 463 Q806 253 645 107 Q766 10 938 -68 L916 -97 Q742 -18 619 85 Q487 -25 281 -99 L261 -67 Q465 4 592 108 Q412 268 345 484 Q309 100 77 -91 L50 -68 Q313 144 317 610 L317 721 ZM617 130 Q770 265 812 452 L599 452 Q628 545 661 721 L351 721 L351 597 L350 584 Q399 319 617 130 Z" /><glyph glyph-name="uni53CB" unicode="&#x53cb;" d="M79 661 L369 661 L387 811 L421 811 Q412 732 403 661 L935 661 L935 627 L398 627 Q383 539 363 443 L829 443 L829 413 Q764 237 619 111 Q755 -2 952 -59 L934 -90 Q728 -27 594 90 Q453 -23 256 -91 L239 -60 Q438 9 569 112 Q439 234 379 411 L356 411 Q335 329 311 264 Q232 69 79 -83 L58 -56 Q205 93 277 271 Q331 413 364 627 L79 627 L79 661 ZM411 411 Q471 245 594 133 Q733 253 793 411 L411 411 Z" /><glyph glyph-name="uni53CC" unicode="&#x53cc;" d="M112 592 Q223 457 306 336 Q371 507 383 706 L76 706 L76 739 L416 739 L416 712 Q404 481 330 301 Q405 190 465 82 L439 57 Q386 155 314 264 Q228 78 70 -60 L47 -33 Q206 104 291 298 Q204 426 88 568 L112 592 ZM499 739 L892 739 L892 708 Q856 451 720 230 Q810 77 951 -64 L927 -91 Q787 49 699 198 Q594 41 446 -89 L423 -62 Q577 73 680 230 Q550 460 537 706 L499 706 L499 739 ZM570 706 Q583 477 701 263 Q823 466 858 706 L570 706 Z" /><glyph glyph-name="uni53CD" unicode="&#x53cd;" d="M230 469 L230 421 Q221 101 79 -89 L55 -64 Q185 110 196 421 L196 737 Q558 740 862 796 L879 766 Q589 712 230 706 L230 503 L843 503 L843 471 Q776 266 604 118 Q744 12 950 -66 L932 -95 Q721 -12 579 97 Q434 -18 223 -94 L204 -65 Q412 10 552 119 Q369 270 309 469 L230 469 ZM577 139 Q741 276 807 469 L342 469 Q404 279 577 139 Z" /><glyph glyph-name="uni53D1" unicode="&#x53d1;" d="M138 528 L216 783 L250 777 L182 561 L401 561 Q435 692 454 824 L489 820 Q468 684 436 561 L920 561 L920 528 L427 528 Q398 433 377 380 L799 380 L799 349 Q754 211 612 97 Q744 9 942 -62 L925 -92 Q718 -17 586 76 Q454 -20 259 -94 L242 -63 Q436 10 558 96 Q410 207 360 339 Q249 76 64 -75 L47 -44 Q285 161 392 528 L138 528 ZM390 347 Q441 218 584 116 Q721 223 763 347 L390 347 ZM657 804 Q769 716 843 629 L818 604 Q750 687 634 783 L657 804 Z" /><glyph glyph-name="uni53D6" unicode="&#x53d6;" d="M60 762 L530 762 L530 729 L438 729 L438 125 Q462 132 545 153 L545 119 Q487 103 438 92 L438 -100 L404 -100 L404 84 Q244 47 64 21 L56 54 Q88 58 150 68 L150 729 L60 729 L60 762 ZM184 74 Q305 95 404 117 L404 287 L184 287 L184 74 ZM184 318 L404 318 L404 505 L184 505 L184 318 ZM184 537 L404 537 L404 729 L184 729 L184 537 ZM613 676 Q632 425 741 217 Q842 409 874 676 L613 676 ZM724 186 Q602 411 581 676 L544 676 L544 710 L906 710 L906 678 Q871 385 761 182 Q837 48 952 -67 L930 -92 Q817 22 743 151 Q657 6 530 -93 L508 -67 Q639 37 724 186 Z" /><glyph glyph-name="uni53D7" unicode="&#x53d7;" d="M885 770 Q594 719 113 719 L102 750 Q571 751 868 800 L885 770 ZM902 494 L902 286 L868 286 L868 460 L132 460 L132 286 L98 286 L98 494 L659 494 Q728 588 772 693 L805 681 Q750 566 695 494 L902 494 ZM207 672 Q263 604 305 533 L274 517 Q225 599 177 657 L207 672 ZM443 689 Q494 620 537 540 L507 525 Q464 605 412 673 L443 689 ZM205 329 L783 329 L783 298 Q705 164 541 69 Q702 -14 937 -65 L917 -94 Q665 -38 508 51 Q340 -37 85 -92 L67 -61 Q311 -12 475 70 Q316 167 254 296 L205 296 L205 329 ZM289 296 Q355 175 508 87 Q670 175 745 296 L289 296 Z" /><glyph glyph-name="uni53D8" unicode="&#x53d8;" d="M744 593 Q870 514 951 439 L928 416 Q849 490 722 571 L744 593 ZM488 827 Q516 767 534 711 L925 711 L925 677 L635 677 L635 390 L601 390 L601 677 L400 677 L400 389 L366 389 L366 677 L75 677 L75 711 L500 711 Q474 777 450 820 L488 827 ZM283 568 Q196 475 72 407 L52 434 Q176 503 258 591 L283 568 ZM143 320 L810 320 L810 293 Q702 155 538 65 Q714 -22 955 -58 L938 -89 Q680 -47 504 47 Q321 -46 75 -88 L59 -56 Q294 -20 471 65 Q316 156 225 289 L143 289 L143 320 ZM263 289 Q357 164 505 82 Q663 167 764 289 L263 289 Z" /><glyph glyph-name="uni53E0" unicode="&#x53e0;" d="M899 333 L899 172 L866 172 L866 305 L134 305 L134 173 L101 173 L101 333 L899 333 ZM745 240 L745 -51 L932 -51 L932 -80 L77 -80 L77 -51 L255 -51 L255 240 L745 240 ZM288 -51 L712 -51 L712 21 L288 21 L288 -51 ZM288 47 L712 47 L712 115 L288 115 L288 47 ZM288 141 L712 141 L712 212 L288 212 L288 141 ZM81 562 L451 562 L451 538 Q399 483 329 444 Q400 420 464 393 L448 368 Q373 401 298 428 Q196 379 64 361 L53 387 Q175 403 262 440 Q170 471 101 486 L115 507 Q208 485 296 456 Q358 488 410 535 L81 535 L81 562 ZM514 563 L888 563 L888 538 Q834 481 766 444 Q848 420 931 388 L914 362 Q822 400 733 427 Q637 384 517 367 L506 393 Q609 405 695 439 Q603 467 528 483 L543 504 Q646 480 730 455 Q796 487 848 536 L514 536 L514 563 ZM208 783 L777 783 L777 758 Q694 707 590 671 L605 668 Q692 653 859 612 L847 585 Q695 627 577 649 Q559 654 541 655 Q375 605 144 587 L133 613 Q336 627 488 665 Q370 686 229 702 L239 724 Q400 705 541 680 Q646 712 726 755 L208 755 L208 783 Z" /><glyph glyph-name="uni2F1D" unicode="&#x2f1d;&#x53e3;" d="M847 681 L847 -79 L812 -79 L812 -4 L189 -4 L189 -79 L154 -79 L154 681 L847 681 ZM189 29 L812 29 L812 648 L189 648 L189 29 Z" /><glyph glyph-name="uni53E4" unicode="&#x53e4;" d="M63 615 L483 615 L483 814 L518 814 L518 615 L938 615 L938 581 L518 581 L518 354 L797 354 L797 -90 L762 -90 L762 -31 L239 -31 L239 -90 L205 -90 L205 354 L483 354 L483 581 L63 581 L63 615 ZM239 2 L762 2 L762 322 L239 322 L239 2 Z" /><glyph glyph-name="uni53E6" unicode="&#x53e6;" d="M219 761 L815 761 L815 447 L520 447 Q509 359 489 291 L883 291 Q883 50 845 -17 Q806 -83 706 -83 Q650 -83 586 -81 L577 -47 Q669 -51 704 -51 Q817 -46 833 49 Q848 145 848 257 L478 257 Q446 166 396 101 Q295 -24 74 -92 L60 -60 Q276 6 371 125 Q415 183 442 257 L108 257 L108 291 L454 291 Q474 360 485 447 L219 447 L219 761 ZM780 479 L780 728 L253 728 L253 479 L780 479 Z" /><glyph glyph-name="uni53EA" unicode="&#x53ea;" d="M192 744 L808 744 L808 322 L192 322 L192 744 ZM773 355 L773 710 L227 710 L227 355 L773 355 ZM662 248 Q830 68 928 -77 L899 -98 Q804 50 635 230 L662 248 ZM365 233 Q256 44 108 -97 L79 -76 Q226 58 335 248 L365 233 Z" /><glyph glyph-name="uni53EB" unicode="&#x53eb;" d="M833 808 L866 808 L866 -94 L833 -94 L833 186 Q687 138 515 98 L504 130 Q526 136 526 151 L526 737 L561 737 L561 144 Q693 173 833 221 L833 808 ZM357 717 L357 22 L323 22 L323 82 L129 82 L129 1 L95 1 L95 717 L357 717 ZM129 115 L323 115 L323 683 L129 683 L129 115 Z" /><glyph glyph-name="uni53EC" unicode="&#x53ec;" d="M245 -41 L245 -94 L211 -94 L211 297 L832 297 L832 -94 L799 -94 L799 -41 L245 -41 ZM799 -7 L799 263 L245 263 L245 -7 L799 -7 ZM849 750 Q849 516 818 448 Q785 383 703 383 Q653 383 593 385 L584 419 Q647 416 701 416 Q790 421 802 513 Q815 615 815 717 L423 717 Q366 415 80 337 L65 369 Q337 442 388 717 L121 717 L121 750 L849 750 Z" /><glyph glyph-name="uni53EF" unicode="&#x53ef;" d="M60 743 L942 743 L942 709 L801 709 L801 -2 Q801 -88 715 -88 L551 -88 L544 -55 Q656 -57 703 -57 Q766 -57 766 7 L766 709 L60 709 L60 743 ZM546 519 L546 181 L221 181 L221 84 L187 84 L187 519 L546 519 ZM221 213 L513 213 L513 487 L221 487 L221 213 Z" /><glyph glyph-name="uni53F0" unicode="&#x53f0;" d="M821 307 L821 -96 L787 -96 L787 -32 L213 -32 L213 -96 L179 -96 L179 307 L821 307 ZM213 2 L787 2 L787 274 L213 274 L213 2 ZM91 459 Q252 536 437 812 L470 800 Q312 568 158 462 Q518 476 792 505 Q718 605 645 684 L676 700 Q814 547 931 367 L899 351 Q847 431 816 473 Q506 444 98 427 L91 459 Z" /><glyph glyph-name="uni53F2" unicode="&#x53f2;" d="M155 674 L492 674 L492 810 L526 810 L526 674 L854 674 L854 362 L522 362 Q508 195 429 99 L424 94 Q647 -43 951 -58 L941 -91 Q627 -74 400 69 Q285 -40 78 -94 L58 -63 Q264 -9 370 89 Q265 163 179 262 L207 282 Q294 180 394 113 Q473 201 488 362 L155 362 L155 674 ZM820 395 L820 641 L526 641 L526 416 L525 395 L820 395 ZM491 395 L492 418 L492 641 L190 641 L190 395 L491 395 Z" /><glyph glyph-name="uni53F3" unicode="&#x53f3;" d="M835 365 L835 -96 L802 -96 L802 -34 L347 -34 L347 -96 L313 -96 L313 359 Q211 215 65 123 L48 153 Q300 318 408 621 L75 621 L75 654 L419 654 Q445 740 459 816 L494 812 Q476 726 454 654 L940 654 L940 621 L443 621 Q394 478 317 365 L835 365 ZM347 0 L802 0 L802 331 L347 331 L347 0 Z" /><glyph glyph-name="uni53F6" unicode="&#x53f6;" d="M335 721 L335 3 L302 3 L302 77 L135 77 L135 -21 L101 -21 L101 721 L335 721 ZM135 110 L302 110 L302 688 L135 688 L135 110 ZM653 810 L687 810 L687 469 L949 469 L949 435 L687 435 L687 -94 L653 -94 L653 435 L395 435 L395 469 L653 469 L653 810 Z" /><glyph glyph-name="uni53F7" unicode="&#x53f7;" d="M227 767 L773 767 L773 525 L227 525 L227 767 ZM739 557 L739 735 L261 735 L261 557 L739 557 ZM301 374 L59 374 L59 407 L940 407 L940 374 L336 374 L294 223 L791 223 Q782 2 749 -43 Q716 -85 623 -85 Q548 -85 489 -82 L476 -50 Q556 -53 615 -53 Q703 -53 725 -13 Q744 25 756 191 L254 191 L301 374 Z" /><glyph glyph-name="uni53F8" unicode="&#x53f8;" d="M162 376 L575 376 L575 96 L162 96 L162 376 ZM542 128 L542 343 L196 343 L196 128 L542 128 ZM624 -89 L615 -56 L753 -57 Q814 -57 814 13 L814 723 L118 723 L118 757 L848 757 L848 4 Q848 -89 760 -89 L624 -89 ZM97 562 L684 562 L684 529 L97 529 L97 562 Z" /><glyph glyph-name="uni53FD" unicode="&#x53fd;" d="M321 -70 Q413 34 448 160 Q475 265 475 410 L475 758 L765 758 L765 4 Q765 -36 804 -36 L859 -36 Q879 -36 893 -29 Q907 -19 913 15 Q918 63 918 189 L950 180 Q950 75 944 18 Q941 -35 917 -55 Q899 -67 859 -67 L806 -67 Q730 -67 730 4 L730 724 L509 724 L509 410 Q509 237 476 132 Q440 13 347 -94 L321 -70 ZM336 716 L336 145 L137 145 L137 58 L102 58 L102 716 L336 716 ZM137 179 L303 179 L303 682 L137 682 L137 179 Z" /><glyph glyph-name="uni5403" unicode="&#x5403;" d="M336 718 L336 6 L303 6 L303 79 L132 79 L132 -17 L98 -17 L98 718 L336 718 ZM132 112 L303 112 L303 684 L132 684 L132 112 ZM498 634 Q455 559 395 493 L373 518 Q484 641 544 817 L576 809 Q551 735 517 668 L925 668 L925 634 L498 634 ZM465 451 L834 451 L834 420 Q702 292 611 183 Q546 108 514 55 Q488 15 488 -7 Q488 -48 552 -48 L793 -48 Q849 -48 876 -21 Q902 8 914 159 L946 148 Q934 -13 899 -47 Q865 -80 793 -80 L546 -80 Q451 -80 451 -12 Q451 17 478 56 Q505 105 591 207 Q667 300 787 418 L465 418 L465 451 Z" /><glyph glyph-name="uni5404" unicode="&#x5404;" d="M769 264 L769 -97 L734 -97 L734 -40 L270 -40 L270 -97 L235 -97 L235 264 L769 264 ZM270 -6 L734 -6 L734 231 L270 231 L270 -6 ZM420 812 Q395 764 361 716 L761 716 L761 688 Q666 552 529 460 Q700 356 949 315 L934 285 Q674 330 500 441 Q316 329 66 281 L51 311 Q294 354 471 460 Q364 535 292 629 Q224 555 134 490 L111 516 Q292 643 387 821 L420 812 ZM312 653 Q388 551 499 478 Q629 566 718 683 L337 683 L312 653 Z" /><glyph glyph-name="uni5408" unicode="&#x5408;" d="M512 811 Q708 578 961 445 L943 414 Q683 554 500 780 Q332 569 53 412 L36 443 Q308 592 488 811 L512 811 ZM800 289 L800 -94 L766 -94 L766 -23 L234 -23 L234 -94 L200 -94 L200 289 L800 289 ZM234 11 L766 11 L766 255 L234 255 L234 11 ZM245 482 L755 482 L755 449 L245 449 L245 482 Z" /><glyph glyph-name="uni5409" unicode="&#x5409;" d="M483 812 L518 812 L518 673 L933 673 L933 638 L518 638 L518 448 L879 448 L879 414 L122 414 L122 448 L483 448 L483 638 L69 638 L69 673 L483 673 L483 812 ZM817 288 L817 -94 L783 -94 L783 -40 L218 -40 L218 -94 L183 -94 L183 288 L817 288 ZM218 -6 L783 -6 L783 254 L218 254 L218 -6 Z" /><glyph glyph-name="uni540C" unicode="&#x540c;" d="M680 -91 L670 -56 L805 -58 Q852 -58 852 -9 L852 730 L148 730 L148 -94 L113 -94 L113 763 L887 763 L887 -16 Q887 -91 816 -91 L680 -91 ZM241 582 L761 582 L761 548 L241 548 L241 582 ZM305 413 L696 413 L696 112 L305 112 L305 413 ZM663 144 L663 380 L338 380 L338 144 L663 144 Z" /><glyph glyph-name="uni540D" unicode="&#x540d;" d="M335 -24 L335 -91 L301 -91 L301 277 Q201 242 74 210 L57 242 Q326 306 508 406 Q444 465 309 543 L338 562 Q472 482 538 423 Q714 531 795 674 L384 674 Q280 576 120 502 L99 531 Q358 645 451 813 L487 809 Q459 756 416 707 L835 707 L835 675 Q709 446 381 308 L857 308 L857 -91 L822 -91 L822 -24 L335 -24 ZM822 10 L822 276 L335 276 L335 10 L822 10 Z" /><glyph glyph-name="uni540E" unicode="&#x540e;" d="M210 486 L210 438 Q201 106 70 -91 L45 -66 Q167 118 176 438 L176 722 Q547 725 859 795 L876 764 Q582 700 210 691 L210 520 L946 520 L946 486 L210 486 ZM860 310 L860 -95 L827 -95 L827 -37 L362 -37 L362 -95 L328 -95 L328 310 L860 310 ZM362 -3 L827 -3 L827 277 L362 277 L362 -3 Z" /><glyph glyph-name="uni5411" unicode="&#x5411;" d="M328 448 L675 448 L675 125 L328 125 L328 448 ZM641 157 L641 415 L362 415 L362 157 L641 157 ZM489 813 Q467 721 427 653 L888 653 L888 -16 Q888 -89 815 -89 L660 -89 L650 -54 L804 -56 Q853 -56 853 -9 L853 620 L155 620 L155 -93 L120 -93 L120 653 L392 653 Q435 733 454 818 L489 813 Z" /><glyph glyph-name="uni5412" unicode="&#x5412;" d="M924 439 L929 406 L641 361 L641 -4 Q641 -42 682 -42 L824 -42 Q868 -42 886 -19 Q908 13 917 167 L949 157 Q940 -3 910 -45 Q885 -76 831 -76 L672 -76 Q607 -76 607 -11 L607 356 L402 323 L397 356 L607 389 L607 677 Q524 663 426 655 L415 686 Q668 704 866 786 L884 755 Q770 710 641 683 L641 394 L924 439 ZM342 713 L342 18 L309 18 L309 85 L127 85 L127 -3 L93 -3 L93 713 L342 713 ZM127 119 L309 119 L309 679 L127 679 L127 119 Z" /><glyph glyph-name="uni5415" unicode="&#x5415;" d="M218 748 L781 748 L781 460 L218 460 L218 748 ZM747 494 L747 714 L252 714 L252 494 L747 494 ZM854 314 L854 -95 L819 -95 L819 -22 L182 -22 L182 -95 L147 -95 L147 314 L854 314 ZM182 12 L819 12 L819 281 L182 281 L182 12 Z" /><glyph glyph-name="uni5417" unicode="&#x5417;" d="M330 717 L330 21 L297 21 L297 85 L134 85 L134 0 L100 0 L100 717 L330 717 ZM134 119 L297 119 L297 683 L134 683 L134 119 ZM528 637 L562 634 L508 359 L751 359 L815 722 L429 722 L429 756 L853 756 L785 359 L911 359 Q911 19 869 -35 Q826 -86 687 -86 Q660 -86 600 -84 L589 -50 L678 -54 Q821 -54 848 1 Q878 57 878 326 L469 326 L528 637 ZM394 167 L773 167 L773 133 L394 133 L394 167 Z" /><glyph glyph-name="uni541B" unicode="&#x541b;" d="M792 369 L369 369 Q270 165 56 47 L36 78 Q240 188 333 369 L142 369 L142 401 L349 401 Q379 472 397 551 L64 551 L64 585 L404 585 Q417 660 418 732 L165 732 L165 764 L792 764 L792 585 L946 585 L946 551 L792 551 L792 369 ZM450 732 Q447 647 436 585 L758 585 L758 732 L450 732 ZM430 551 Q413 469 384 401 L758 401 L758 551 L430 551 ZM824 241 L824 -92 L791 -92 L791 -35 L334 -35 L334 -92 L301 -92 L301 241 L824 241 ZM334 -2 L791 -2 L791 208 L334 208 L334 -2 Z" /><glyph glyph-name="uni541F" unicode="&#x541f;" d="M603 532 Q680 460 723 404 L695 383 Q650 443 575 515 L603 532 ZM331 721 L331 6 L297 6 L297 82 L124 82 L124 -17 L90 -17 L90 721 L331 721 ZM124 114 L297 114 L297 688 L124 688 L124 114 ZM656 797 Q785 575 956 446 L938 417 Q766 549 644 764 Q542 562 376 416 L359 446 Q523 587 632 797 L656 797 ZM416 309 L864 309 L864 282 Q780 31 551 -99 L531 -72 Q744 50 828 276 L416 276 L416 309 Z" /><glyph glyph-name="uni5427" unicode="&#x5427;" d="M339 717 L339 22 L305 22 L305 89 L138 89 L138 1 L104 1 L104 717 L339 717 ZM138 123 L305 123 L305 683 L138 683 L138 123 ZM648 720 L486 720 L486 370 L648 370 L648 720 ZM681 370 L850 370 L850 720 L681 720 L681 370 ZM884 753 L884 337 L486 337 L486 21 Q486 -43 553 -45 L815 -45 Q860 -45 881 -1 Q896 38 902 156 L935 146 Q929 39 912 -11 Q885 -78 821 -79 L546 -79 Q452 -79 452 14 L452 753 L884 753 Z" /><glyph glyph-name="uni542B" unicode="&#x542b;" d="M446 613 Q512 575 573 518 L553 494 Q494 549 423 592 L446 613 ZM816 218 L816 -96 L781 -96 L781 -43 L220 -43 L220 -96 L185 -96 L185 218 L542 218 Q641 294 719 393 L200 393 L200 425 L761 425 L761 397 Q689 296 594 218 L816 218 ZM220 -11 L781 -11 L781 184 L220 184 L220 -11 ZM516 799 Q644 632 958 504 L939 475 Q644 593 500 766 Q325 577 60 475 L41 504 Q330 619 484 799 L516 799 Z" /><glyph glyph-name="uni542C" unicode="&#x542c;" d="M921 764 Q750 696 530 687 L530 473 L945 473 L945 440 L778 440 L778 -95 L744 -95 L744 440 L530 440 L530 387 Q519 95 358 -80 L332 -54 Q485 105 497 387 L497 717 Q721 722 904 795 L921 764 ZM350 713 L350 142 L144 142 L144 55 L110 55 L110 713 L350 713 ZM144 176 L316 176 L316 679 L144 679 L144 176 Z" /><glyph glyph-name="uni542F" unicode="&#x542f;" d="M861 263 L861 -99 L827 -99 L827 -39 L341 -39 L341 -99 L307 -99 L307 263 L861 263 ZM341 -6 L827 -6 L827 230 L341 230 L341 -6 ZM837 659 L210 659 L210 462 L837 462 L837 659 ZM210 429 L210 384 Q209 107 76 -92 L50 -70 Q175 107 176 384 L176 692 L517 692 Q495 755 462 813 L496 819 Q525 764 552 692 L871 692 L871 429 L210 429 Z" /><glyph glyph-name="uni5434" unicode="&#x5434;" d="M85 211 L466 211 Q480 263 482 326 L482 360 L153 360 L153 392 L846 392 L846 360 L517 360 L517 326 Q516 266 503 211 L918 211 L918 177 L533 177 Q652 25 934 -62 L917 -95 Q613 7 494 177 L492 177 Q467 107 417 54 Q320 -40 102 -95 L82 -65 Q300 -14 395 80 Q434 124 455 177 L85 177 L85 211 ZM221 756 L778 756 L778 499 L221 499 L221 756 ZM744 531 L744 722 L255 722 L255 531 L744 531 Z" /><glyph glyph-name="uni5438" unicode="&#x5438;" d="M329 716 L329 138 L130 138 L130 57 L95 57 L95 716 L329 716 ZM130 172 L296 172 L296 682 L130 682 L130 172 ZM505 725 L395 725 L395 760 L831 760 L831 737 Q803 590 774 484 L897 484 L897 463 Q867 255 746 108 Q836 9 963 -68 L941 -97 Q813 -18 724 82 Q628 -21 485 -92 L465 -61 Q606 7 701 109 Q579 259 530 456 Q497 97 316 -87 L288 -63 Q502 148 505 610 L505 725 ZM723 135 Q832 271 863 453 L730 453 Q759 540 794 725 L538 725 L538 592 L537 573 Q573 318 723 135 Z" /><glyph glyph-name="uni5446" unicode="&#x5446;" d="M202 758 L796 758 L796 445 L202 445 L202 758 ZM762 478 L762 724 L237 724 L237 478 L762 478 ZM79 294 L483 294 L483 411 L517 411 L517 294 L921 294 L921 260 L574 260 Q678 89 949 -43 L926 -73 Q647 76 542 260 L517 260 L517 -97 L483 -97 L483 260 L457 260 Q346 53 72 -79 L54 -48 Q313 70 423 260 L79 260 L79 294 Z" /><glyph glyph-name="uni544A" unicode="&#x544a;" d="M811 252 L811 -94 L776 -94 L776 -32 L230 -32 L230 -94 L195 -94 L195 252 L811 252 ZM230 1 L776 1 L776 218 L230 218 L230 1 ZM218 625 Q166 552 98 494 L77 522 Q220 641 270 817 L306 813 Q282 730 239 659 L491 659 L491 813 L525 813 L525 659 L880 659 L880 625 L525 625 L525 422 L947 422 L947 388 L53 388 L53 422 L491 422 L491 625 L218 625 Z" /><glyph glyph-name="uni5457" unicode="&#x5457;" d="M341 712 L341 142 L137 142 L137 53 L103 53 L103 712 L341 712 ZM137 176 L307 176 L307 678 L137 678 L137 176 ZM871 757 L871 186 L837 186 L837 723 L493 723 L493 182 L459 182 L459 757 L871 757 ZM650 633 L684 633 L684 397 Q683 200 604 79 Q528 -32 351 -96 L331 -66 Q502 -7 581 106 Q649 217 650 397 L650 633 ZM713 148 Q849 59 959 -66 L939 -95 Q818 43 694 121 L713 148 Z" /><glyph glyph-name="uni5458" unicode="&#x5458;" d="M808 443 L808 98 L773 98 L773 411 L236 411 L236 83 L202 83 L202 443 L808 443 ZM255 765 L744 765 L744 550 L255 550 L255 765 ZM710 583 L710 732 L288 732 L288 583 L710 583 ZM527 320 Q507 107 433 27 Q351 -67 91 -90 L77 -60 Q325 -42 406 48 Q479 133 492 324 L527 320 ZM560 82 Q751 15 906 -77 L887 -106 Q717 -3 541 55 L560 82 Z" /><glyph glyph-name="uni5462" unicode="&#x5462;" d="M871 727 L466 727 L466 535 L871 535 L871 727 ZM466 502 L466 405 Q465 114 345 -95 L318 -72 Q431 113 433 405 L433 761 L905 761 L905 502 L466 502 ZM611 12 Q611 -48 667 -48 L813 -48 Q857 -48 876 -29 Q899 -3 908 123 L941 113 Q932 -20 900 -55 Q875 -80 820 -80 L657 -80 Q577 -80 577 6 L577 404 L611 404 L611 250 Q781 278 912 352 L924 321 Q782 245 611 218 L611 12 ZM324 717 L324 124 L135 124 L135 35 L101 35 L101 717 L324 717 ZM135 156 L292 156 L292 683 L135 683 L135 156 Z" /><glyph glyph-name="uni5468" unicode="&#x5468;" d="M495 685 L528 685 L528 582 L726 582 L726 550 L528 550 L528 423 L763 423 L763 390 L263 390 L263 423 L495 423 L495 550 L295 550 L295 582 L495 582 L495 685 ZM865 763 L865 -18 Q865 -84 794 -84 L669 -84 L660 -51 L783 -52 Q832 -52 832 -6 L832 730 L194 730 L194 320 Q191 67 101 -91 L75 -68 Q157 84 160 318 L160 763 L865 763 ZM327 296 L695 296 L695 68 L327 68 L327 296 ZM662 100 L662 265 L361 265 L361 100 L662 100 Z" /><glyph glyph-name="uni5471" unicode="&#x5471;" d="M787 736 Q726 725 649 717 L649 -30 Q706 -15 754 9 Q730 120 707 197 L734 206 Q770 90 802 -83 L774 -90 L761 -20 Q693 -49 609 -72 L601 -40 Q617 -34 617 -14 L617 715 Q569 711 471 707 L471 375 Q464 81 360 -93 L335 -68 Q430 92 438 375 L438 737 Q690 740 904 795 L921 764 Q856 749 818 742 Q821 242 959 -66 L935 -88 Q793 228 787 736 ZM330 716 L330 137 L129 137 L129 58 L95 58 L95 716 L330 716 ZM129 170 L297 170 L297 682 L129 682 L129 170 Z" /><glyph glyph-name="uni5473" unicode="&#x5473;" d="M326 717 L326 5 L293 5 L293 75 L133 75 L133 -18 L99 -18 L99 717 L326 717 ZM133 106 L293 106 L293 684 L133 684 L133 106 ZM683 389 L683 -98 L649 -98 L649 389 L630 389 Q561 147 388 -8 L370 20 Q535 163 604 389 L398 389 L398 423 L649 423 L649 624 L434 624 L434 658 L649 658 L649 814 L683 814 L683 658 L897 658 L897 624 L683 624 L683 423 L930 423 L930 389 L728 389 Q791 184 962 25 L940 -2 Q767 171 701 389 L683 389 Z" /><glyph glyph-name="uni547C" unicode="&#x547c;" d="M913 634 Q877 498 823 395 L792 407 Q844 502 881 642 L913 634 ZM459 607 Q500 517 531 400 L501 392 Q473 499 429 597 L459 607 ZM491 -92 L484 -59 Q538 -62 588 -62 Q645 -62 645 -15 L645 286 L379 286 L379 319 L645 319 L645 715 Q531 700 406 694 L395 724 Q686 739 901 801 L918 771 Q806 740 679 720 L679 319 L951 319 L951 286 L679 286 L679 -24 Q679 -92 601 -92 L491 -92 ZM131 75 L131 -17 L98 -17 L98 718 L320 718 L320 6 L287 6 L287 75 L131 75 ZM287 107 L287 684 L131 684 L131 107 L287 107 Z" /><glyph glyph-name="uni547D" unicode="&#x547d;" d="M434 373 L434 15 L400 15 L400 75 L196 75 L196 -3 L163 -3 L163 373 L434 373 ZM196 107 L400 107 L400 341 L196 341 L196 107 ZM514 811 Q673 621 949 494 L930 465 Q650 595 501 779 Q344 595 69 465 L51 494 Q334 629 488 811 L514 811 ZM297 547 L703 547 L703 515 L297 515 L297 547 ZM683 10 L674 44 L759 43 Q809 43 809 93 L809 344 L595 344 L595 -103 L561 -103 L561 377 L843 377 L843 86 Q843 10 770 10 L683 10 Z" /><glyph glyph-name="uni548B" unicode="&#x548b;" d="M353 718 L353 6 L319 6 L319 76 L140 76 L140 -17 L106 -17 L106 718 L353 718 ZM140 108 L319 108 L319 684 L140 684 L140 108 ZM508 630 Q461 497 404 396 L375 415 Q477 592 528 826 L562 819 Q542 736 519 664 L943 664 L943 630 L630 630 L630 420 L908 420 L908 386 L630 386 L630 179 L935 179 L935 146 L630 146 L630 -93 L597 -93 L597 630 L508 630 Z" /><glyph glyph-name="uni548C" unicode="&#x548c;" d="M892 732 L892 -57 L858 -57 L858 31 L573 31 L573 -65 L539 -65 L539 732 L892 732 ZM573 63 L858 63 L858 699 L573 699 L573 63 ZM76 525 L264 525 L264 707 Q174 691 88 684 L76 716 Q290 731 450 795 L467 765 Q385 735 298 714 L298 525 L482 525 L482 492 L298 492 L298 428 Q387 345 480 234 L460 206 Q364 328 298 395 L298 -93 L264 -93 L264 423 Q196 248 66 112 L52 147 Q204 299 262 492 L76 492 L76 525 Z" /><glyph glyph-name="uni5494" unicode="&#x5494;" d="M345 717 L345 5 L311 5 L311 74 L137 74 L137 -18 L103 -18 L103 717 L345 717 ZM137 106 L311 106 L311 683 L137 683 L137 106 ZM647 628 L647 441 L954 441 L954 408 L651 408 L651 275 Q783 205 923 111 L904 84 Q764 179 651 241 L651 -105 L617 -105 L617 408 L401 408 L401 441 L612 441 L612 807 L647 807 L647 662 L885 662 L885 628 L647 628 Z" /><glyph glyph-name="uni5496" unicode="&#x5496;" d="M287 715 L287 114 L126 114 L126 25 L94 25 L94 715 L287 715 ZM126 145 L256 145 L256 683 L126 683 L126 145 ZM432 815 L465 815 L465 661 L617 661 Q617 185 603 67 Q591 -81 483 -81 L441 -80 L432 -48 L482 -49 Q559 -49 571 72 Q582 165 585 627 L465 627 L465 548 Q462 111 296 -93 L271 -71 Q431 123 432 548 L432 627 L348 627 L348 661 L432 661 L432 815 ZM906 699 L906 -75 L874 -75 L874 -9 L731 -9 L731 -77 L699 -77 L699 699 L906 699 ZM731 22 L874 22 L874 667 L731 667 L731 22 Z" /><glyph glyph-name="uni54A8" unicode="&#x54a8;" d="M471 680 Q428 599 360 532 L339 559 Q449 669 488 827 L523 822 Q510 765 487 714 L885 714 L885 685 Q841 589 785 520 L759 540 Q809 604 847 680 L643 680 Q641 614 636 575 Q696 388 949 325 L935 292 Q691 359 625 530 Q565 368 322 296 L306 328 Q563 400 601 569 Q608 612 609 680 L471 680 ZM122 783 Q222 718 288 652 L263 627 Q203 690 98 760 L122 783 ZM323 525 Q216 390 95 299 L72 326 Q194 418 296 546 L323 525 ZM815 249 L815 -96 L781 -96 L781 -38 L224 -38 L224 -96 L189 -96 L189 249 L815 249 ZM224 -5 L781 -5 L781 216 L224 216 L224 -5 Z" /><glyph glyph-name="uni54AA" unicode="&#x54aa;" d="M326 712 L326 142 L137 142 L137 57 L103 57 L103 712 L326 712 ZM137 176 L293 176 L293 678 L137 678 L137 176 ZM628 802 L662 802 L662 445 L919 445 L919 412 L713 412 Q779 184 957 11 L934 -18 Q751 174 685 412 L662 412 L662 -88 L628 -88 L628 412 L605 412 Q534 144 356 -25 L338 5 Q507 160 579 412 L387 412 L387 445 L628 445 L628 802 ZM895 752 Q849 629 780 518 L750 533 Q821 649 864 765 L895 752 ZM433 745 Q495 652 548 533 L519 519 Q467 639 402 732 L433 745 Z" /><glyph glyph-name="uni54C1" unicode="&#x54c1;" d="M236 758 L761 758 L761 465 L236 465 L236 758 ZM726 499 L726 724 L271 724 L271 499 L726 499 ZM429 327 L429 -80 L395 -80 L395 -24 L141 -24 L141 -80 L107 -80 L107 327 L429 327 ZM141 9 L395 9 L395 294 L141 294 L141 9 ZM892 327 L892 -80 L858 -80 L858 -24 L595 -24 L595 -80 L561 -80 L561 327 L892 327 ZM595 9 L858 9 L858 294 L595 294 L595 9 Z" /><glyph glyph-name="uni54C6" unicode="&#x54c6;" d="M327 722 L327 117 L133 117 L133 30 L99 30 L99 722 L327 722 ZM133 150 L294 150 L294 689 L133 689 L133 150 ZM776 427 Q742 373 700 333 L933 333 L933 302 Q834 21 347 -97 L330 -67 Q536 -19 671 58 Q636 94 561 169 L587 188 Q642 138 699 75 Q845 168 896 300 L661 300 Q560 224 404 181 L386 210 Q645 279 746 440 L776 427 ZM686 809 Q656 763 621 723 L875 723 L875 694 Q782 454 398 349 L379 377 Q526 415 624 471 Q566 543 521 574 L547 592 Q606 548 649 486 Q785 571 839 693 L593 693 Q508 608 398 553 L377 578 Q554 666 652 816 L686 809 Z" /><glyph glyph-name="uni54C7" unicode="&#x54c7;" d="M428 679 L641 679 L641 813 L675 813 L675 679 L893 679 L893 645 L675 645 L675 461 L937 461 L937 427 L392 427 L392 461 L641 461 L641 645 L428 645 L428 679 ZM421 228 L641 228 L641 358 L675 358 L675 228 L898 228 L898 195 L675 195 L675 -28 L948 -28 L948 -61 L385 -61 L385 -28 L641 -28 L641 195 L421 195 L421 228 ZM140 75 L140 -17 L106 -17 L106 718 L327 718 L327 6 L294 6 L294 75 L140 75 ZM294 107 L294 684 L140 684 L140 107 L294 107 Z" /><glyph glyph-name="uni54C8" unicode="&#x54c8;" d="M858 288 L858 -96 L824 -96 L824 -32 L478 -32 L478 -96 L444 -96 L444 288 L858 288 ZM478 0 L824 0 L824 255 L478 255 L478 0 ZM667 799 Q767 607 957 480 L936 452 Q757 574 650 766 Q531 567 362 444 L342 473 Q516 599 634 799 L667 799 ZM327 717 L327 21 L294 21 L294 85 L133 85 L133 0 L99 0 L99 717 L327 717 ZM133 119 L294 119 L294 684 L133 684 L133 119 ZM479 482 L816 482 L816 449 L479 449 L479 482 Z" /><glyph glyph-name="uni54C9" unicode="&#x54c9;" d="M472 323 L472 50 L173 50 L173 -28 L141 -28 L141 323 L472 323 ZM173 82 L439 82 L439 291 L173 291 L173 82 ZM99 683 L302 683 L302 809 L335 809 L335 683 L530 683 L530 650 L335 650 L335 485 L627 485 Q615 628 615 810 L649 810 Q649 630 660 485 L941 485 L941 452 L663 452 Q673 347 686 284 Q700 217 719 161 Q799 262 846 395 L876 381 Q818 229 732 125 Q749 76 773 35 Q819 -44 851 -44 Q888 -42 912 130 L940 115 Q910 -82 858 -82 Q808 -82 750 9 Q724 51 707 97 Q591 -26 433 -82 L414 -54 Q583 6 694 131 Q671 198 654 280 Q639 357 630 452 L54 452 L54 485 L302 485 L302 650 L99 650 L99 683 ZM764 767 Q846 664 892 585 L866 565 Q820 649 738 750 L764 767 Z" /><glyph glyph-name="uni54CD" unicode="&#x54cd;" d="M550 495 L766 495 L766 127 L550 127 L550 495 ZM734 158 L734 464 L581 464 L581 158 L734 158 ZM662 809 Q649 729 627 671 L914 671 L914 -8 Q914 -89 841 -89 L715 -89 L705 -55 L830 -56 Q881 -56 881 -1 L881 637 L439 637 L439 -93 L405 -93 L405 671 L592 671 Q617 742 627 814 L662 809 ZM313 714 L313 3 L279 3 L279 72 L129 72 L129 -21 L96 -21 L96 714 L313 714 ZM129 104 L279 104 L279 680 L129 680 L129 104 Z" /><glyph glyph-name="uni54D2" unicode="&#x54d2;" d="M291 718 L291 83 L133 83 L133 -14 L99 -14 L99 718 L291 718 ZM133 116 L259 116 L259 684 L133 684 L133 116 ZM563 581 L727 581 L728 602 L728 803 L762 803 L762 601 L761 581 L930 581 L930 547 L759 547 Q756 497 750 450 Q848 286 926 86 L895 72 Q827 252 743 404 Q704 184 589 65 L563 88 Q707 237 725 547 L563 547 L563 581 ZM385 771 Q471 703 531 632 L508 608 Q453 674 361 749 L385 771 ZM942 -40 L932 -74 L798 -74 Q770 -74 710 -72 Q643 -70 593 -54 Q542 -33 508 10 Q490 34 476 34 Q438 34 340 -89 L317 -64 Q406 52 462 65 L462 428 L342 428 L342 461 L495 461 L495 62 Q508 56 521 41 Q552 0 596 -21 Q635 -36 692 -39 Q764 -41 801 -41 L942 -40 Z" /><glyph glyph-name="uni54DF" unicode="&#x54df;" d="M277 716 L277 22 L245 22 L245 88 L122 88 L122 1 L90 1 L90 716 L277 716 ZM122 121 L245 121 L245 684 L122 684 L122 121 ZM613 46 Q484 -11 330 -43 L325 -10 Q486 23 613 79 L613 46 ZM596 599 Q471 290 394 184 Q501 209 596 251 L596 219 Q477 170 355 148 L347 180 Q356 183 362 189 Q422 270 504 459 Q428 441 338 426 L332 454 Q374 479 477 815 L510 803 Q421 532 377 463 Q475 481 518 492 Q544 551 566 610 L596 599 ZM664 386 Q737 263 776 174 L752 155 Q709 256 639 370 L664 386 ZM743 811 Q729 712 707 629 L912 629 Q912 160 898 42 Q886 -71 777 -71 L691 -69 L684 -38 Q754 -40 776 -40 Q853 -40 865 48 Q876 138 879 597 L697 597 Q664 494 619 411 L600 437 Q681 593 711 815 L743 811 Z" /><glyph glyph-name="uni54E5" unicode="&#x54e5;" d="M101 759 L913 759 L913 725 L787 725 L787 420 L754 420 L754 725 L101 725 L101 759 ZM214 632 L571 632 L571 453 L214 453 L214 632 ZM539 481 L539 603 L246 603 L246 481 L539 481 ZM61 362 L938 362 L938 330 L789 330 L789 -13 Q789 -93 709 -93 L592 -93 L585 -61 Q644 -64 698 -64 Q756 -64 756 -4 L756 330 L61 330 L61 362 ZM205 224 L573 224 L573 35 L205 35 L205 224 ZM541 64 L541 195 L238 195 L238 64 L541 64 Z" /><glyph glyph-name="uni54EA" unicode="&#x54ea;" d="M277 717 L277 84 L125 84 L125 -14 L93 -14 L93 717 L277 717 ZM125 115 L246 115 L246 685 L125 685 L125 115 ZM341 530 L424 530 L424 723 L349 723 L349 755 L604 755 Q604 190 590 56 Q578 -81 489 -81 L433 -80 L425 -48 Q469 -50 484 -50 Q545 -50 557 47 Q564 114 568 270 L442 270 Q412 42 315 -84 L290 -63 Q382 53 411 270 L339 270 L339 302 L415 302 Q423 382 424 470 L424 499 L341 499 L341 530 ZM569 302 Q571 418 571 499 L455 499 L455 470 Q454 380 446 302 L569 302 ZM571 530 L572 723 L455 723 L455 530 L571 530 ZM705 760 L925 760 L925 732 Q899 580 863 439 Q937 287 939 174 Q939 110 916 84 Q883 48 802 48 L790 82 Q824 80 833 80 Q868 83 890 103 Q907 126 907 174 Q907 290 832 434 Q871 589 893 728 L737 728 L737 -93 L705 -93 L705 760 Z" /><glyph glyph-name="uni54F3" unicode="&#x54f3;" d="M295 718 L295 6 L262 6 L262 71 L135 71 L135 -17 L101 -17 L101 718 L295 718 ZM135 103 L262 103 L262 684 L135 684 L135 103 ZM593 344 Q546 317 493 292 L493 -13 Q493 -87 424 -87 L350 -87 L343 -55 Q379 -58 412 -58 Q460 -58 460 -5 L460 277 Q406 254 345 235 L337 267 Q402 287 460 312 L460 583 L358 583 L358 614 L460 614 L460 809 L493 809 L493 614 L583 614 L583 583 L493 583 L493 327 Q553 357 593 382 L593 344 ZM934 764 Q823 702 689 692 L689 474 L951 474 L951 443 L857 443 L857 -102 L823 -102 L823 443 L689 443 L689 384 Q681 87 570 -91 L545 -66 Q647 96 656 384 L656 720 Q798 724 918 795 L934 764 Z" /><glyph glyph-name="uni5510" unicode="&#x5510;" d="M542 273 L289 273 L289 304 L542 304 L542 407 L210 407 L210 438 L542 438 L542 541 L298 541 L298 572 L542 572 L542 629 L575 629 L575 572 L819 572 L819 438 L936 438 L936 407 L819 407 L819 273 L575 273 L575 166 L834 166 L834 -95 L802 -95 L802 -54 L341 -54 L341 -98 L308 -98 L308 166 L542 166 L542 273 ZM341 -23 L802 -23 L802 134 L341 134 L341 -23 ZM575 304 L785 304 L785 407 L575 407 L575 304 ZM785 438 L785 541 L575 541 L575 438 L785 438 ZM527 816 Q549 772 566 721 L913 721 L913 687 L195 687 L195 422 Q189 115 71 -76 L46 -52 Q155 118 161 422 L161 721 L532 721 Q510 776 492 810 L527 816 Z" /><glyph glyph-name="uni5524" unicode="&#x5524;" d="M878 525 L878 248 L949 248 L949 216 L692 216 Q774 33 964 -65 L948 -97 Q740 19 658 216 L647 216 Q593 22 362 -98 L341 -70 Q559 41 614 216 L375 216 L375 248 L440 248 L440 525 L653 525 Q723 598 774 683 L546 683 Q476 581 359 502 L340 528 Q514 644 578 817 L612 813 Q591 758 566 715 L814 715 L814 688 Q747 583 692 525 L878 525 ZM472 248 L622 248 L623 250 Q643 347 645 494 L472 494 L472 248 ZM847 248 L847 494 L677 494 Q675 340 655 248 L847 248 ZM315 710 L315 93 L130 93 L130 7 L97 7 L97 710 L315 710 ZM130 126 L281 126 L281 677 L130 677 L130 126 Z" /><glyph glyph-name="uni552E" unicode="&#x552e;" d="M834 173 L834 -99 L801 -99 L801 -39 L232 -39 L232 -99 L198 -99 L198 173 L834 173 ZM232 -7 L801 -7 L801 141 L232 141 L232 -7 ZM195 603 Q134 527 56 459 L45 492 Q212 639 278 815 L313 808 Q296 765 264 705 L557 705 Q532 769 504 810 L538 816 Q568 766 591 705 L898 705 L898 673 L574 673 L574 572 L854 572 L854 543 L574 543 L574 447 L856 447 L856 416 L574 416 L574 311 L910 311 L910 280 L195 280 L195 603 ZM245 673 L228 648 L228 572 L540 572 L540 673 L245 673 ZM540 311 L540 416 L228 416 L228 311 L540 311 ZM540 447 L540 543 L228 543 L228 447 L540 447 Z" /></font>
</defs>
</svg>
