<?xml version="1.0" standalone="no"?><!DOCTYPE svg PUBLIC "-//W3C//DTD SVG 1.1//EN" "http://www.w3.org/Graphics/SVG/1.1/DTD/svg11.dtd" ><svg xmlns="http://www.w3.org/2000/svg"><metadata></metadata><defs><font id="fonteditor" horiz-adv-x="1000"><font-face font-family="`nÑOSeç[W_b Regular" font-weight="400" font-stretch="normal" units-per-em="1000" panose-1="2 11 5 0 0 0 0 0 0 0" ascent="1160" descent="-320" x-height="0" bbox="11 -229 986 880" underline-thickness="0" underline-position="0" unicode-range="U+002e-f815" /><missing-glyph horiz-adv-x="1000" d="M100 880 L900 880 L900 -120 L100 -120 L100 880 ZM818 830 L182 830 L500 421 L818 830 ZM850 -29 L850 789 L532 380 L850 -29 ZM818 -70 L500 339 L182 -70 L818 -70 ZM150 -29 L468 380 L150 789 L150 -29 Z" /><glyph glyph-name="period" unicode="." d="M139 -13 Q111 -13 93 6 Q73 26 73 56 Q73 86 93 107 Q112 127 139 127 Q166 127 186 107 Q205 86 205 56 Q205 26 186 6 Q167 -13 139 -13 Z" /><glyph glyph-name="slash" unicode="/" d="M311 793 L377 793 L78 -179 L11 -179 L311 793 Z" /><glyph glyph-name="zero" unicode="0" d="M278 -13 Q171 -13 111 82 Q49 182 49 369 Q49 556 111 654 Q170 747 278 747 Q385 747 444 653 Q506 555 506 369 Q506 182 444 82 Q385 -13 278 -13 ZM278 60 Q417 60 417 369 Q417 673 278 673 Q138 673 138 369 Q138 60 278 60 Z" /><glyph glyph-name="one" unicode="1" d="M88 76 L251 76 L251 623 L121 623 L121 681 Q212 698 273 733 L343 733 L343 76 L490 76 L490 0 L88 0 L88 76 Z" /><glyph glyph-name="two" unicode="2" d="M44 54 Q380 348 380 527 Q380 593 347 631 Q311 672 245 672 Q164 672 93 587 L40 639 Q140 747 256 747 Q354 747 412 688 Q469 629 469 530 Q469 344 182 72 Q271 79 302 79 L505 79 L505 0 L44 0 L44 54 Z" /><glyph glyph-name="three" unicode="3" d="M264 -13 Q121 -13 29 87 L75 147 Q155 63 257 63 Q323 63 364 100 Q406 137 406 199 Q406 346 178 346 L178 416 Q381 416 381 556 Q381 609 348 641 Q314 672 257 674 Q175 671 105 601 L56 659 Q151 747 261 747 Q356 747 414 699 Q474 649 474 563 Q474 435 343 386 L343 382 Q411 366 454 319 Q499 268 499 196 Q499 100 430 42 Q365 -13 264 -13 Z" /><glyph glyph-name="four" unicode="4" d="M339 275 L339 500 Q339 519 345 633 L341 633 Q317 585 282 525 L115 275 L339 275 ZM523 202 L426 202 L426 0 L339 0 L339 202 L20 202 L20 262 L325 733 L426 733 L426 275 L523 275 L523 202 Z" /><glyph glyph-name="five" unicode="5" d="M261 -13 Q125 -13 28 84 L73 144 Q154 63 253 63 Q319 63 363 109 Q409 158 409 236 Q409 314 368 359 Q327 403 257 403 Q200 403 135 360 L86 390 L109 733 L466 733 L466 655 L189 655 L171 443 Q223 472 280 472 Q377 472 436 416 Q501 354 501 239 Q501 123 428 53 Q359 -13 261 -13 Z" /><glyph glyph-name="six" unicode="6" d="M301 58 Q354 58 389 104 Q425 151 425 225 Q425 387 293 387 Q209 387 143 293 Q160 58 301 58 ZM448 615 Q402 671 330 671 Q146 671 141 366 Q214 455 308 455 Q403 455 456 397 Q511 337 511 225 Q511 121 449 53 Q389 -13 301 -13 Q191 -13 126 78 Q56 174 56 350 Q56 552 138 656 Q210 747 327 747 Q428 747 498 672 L448 615 Z" /><glyph glyph-name="eight" unicode="8" d="M279 -13 Q178 -13 111 42 Q45 97 45 182 Q45 311 180 384 L180 389 Q81 457 81 558 Q81 641 138 693 Q195 744 282 744 Q374 744 429 690 Q483 637 483 551 Q483 450 385 374 L385 369 Q509 297 509 177 Q509 96 446 42 Q381 -13 279 -13 ZM329 398 Q405 465 405 546 Q405 602 372 639 Q337 677 280 677 Q229 677 197 644 Q164 611 164 558 Q164 499 214 458 Q249 430 329 398 ZM281 55 Q344 55 383 90 Q422 124 422 179 Q422 245 364 289 Q328 316 228 356 Q128 292 128 190 Q128 132 172 93 Q215 55 281 55 Z" /><glyph glyph-name="nine" unicode="9" d="M261 346 Q345 346 414 444 Q399 675 254 675 Q201 675 166 630 Q130 583 130 509 Q130 433 163 390 Q197 346 261 346 ZM108 119 Q158 63 231 63 Q406 63 415 369 Q342 278 246 278 Q152 278 99 337 Q44 397 44 509 Q44 613 106 681 Q166 747 254 747 Q364 747 430 660 Q500 567 500 398 Q500 189 419 81 Q348 -13 234 -13 Q130 -13 58 62 L108 119 Z" /><glyph glyph-name="at" unicode="@" d="M450 -173 Q279 -173 171 -70 Q56 39 56 227 Q56 445 196 587 Q329 722 522 722 Q690 722 790 620 Q889 518 889 352 Q889 216 815 130 Q750 55 666 55 Q561 55 551 140 L548 140 Q484 63 412 63 Q353 63 317 104 Q278 148 278 222 Q278 318 336 396 Q400 481 493 481 Q552 481 582 426 L584 426 L597 472 L657 472 L613 249 Q582 118 674 118 Q732 118 776 179 Q825 245 825 348 Q825 488 746 572 Q663 661 515 661 Q359 661 245 543 Q124 419 124 230 Q124 70 219 -23 Q310 -112 456 -112 Q552 -112 638 -62 L662 -116 Q567 -173 450 -173 ZM430 126 Q478 126 533 192 L565 370 Q536 417 493 417 Q431 417 389 354 Q351 296 351 227 Q351 126 430 126 Z" /><glyph glyph-name="D" unicode="d" d="M100 733 L284 733 Q452 733 541 638 Q630 544 630 369 Q630 194 542 98 Q453 0 288 0 L100 0 L100 733 ZM276 76 Q404 76 470 153 Q534 228 534 369 Q534 658 276 658 L193 658 L193 76 L276 76 Z" /><glyph glyph-name="G" unicode="g" d="M388 -13 Q241 -13 151 87 Q58 190 58 366 Q58 541 153 645 Q246 747 394 747 Q520 747 605 656 L555 596 Q489 666 396 666 Q285 666 219 586 Q153 506 153 369 Q153 229 216 149 Q281 68 397 68 Q484 68 530 111 L530 303 L375 303 L375 380 L615 380 L615 72 Q533 -13 388 -13 Z" /><glyph glyph-name="J" unicode="j" d="M237 -13 Q101 -13 35 103 L101 150 Q148 68 228 68 Q346 68 346 224 L346 733 L438 733 L438 215 Q438 113 391 54 Q339 -13 237 -13 Z" /><glyph glyph-name="M" unicode="m" d="M100 733 L212 733 L353 341 Q387 239 405 188 L410 188 Q419 214 435 265 L460 341 L600 733 L712 733 L712 0 L625 0 L625 406 Q625 468 637 622 L633 622 L575 455 L436 74 L374 74 L235 455 L177 622 L173 622 Q184 446 184 406 L184 0 L100 0 L100 733 Z" /><glyph glyph-name="P" unicode="p" d="M100 733 L309 733 Q584 733 584 518 Q584 405 509 346 Q439 291 314 291 L193 291 L193 0 L100 0 L100 733 ZM302 366 Q492 366 492 518 Q492 595 443 628 Q398 658 298 658 L193 658 L193 366 L302 366 Z" /><glyph glyph-name="Q" unicode="q" d="M153 369 Q153 229 213 146 Q272 63 371 63 Q470 63 529 146 Q589 229 589 369 Q589 506 529 587 Q470 666 371 666 Q271 666 213 587 Q153 506 153 369 ZM700 -168 Q656 -184 595 -184 Q397 -184 326 -10 Q204 7 132 107 Q58 210 58 369 Q58 543 146 646 Q231 747 371 747 Q511 747 597 646 Q684 543 684 369 Q684 213 613 111 Q543 12 425 -9 Q475 -107 605 -107 Q647 -107 682 -96 L700 -168 Z" /><glyph glyph-name="c" unicode="c" d="M306 -13 Q195 -13 125 62 Q51 139 51 271 Q51 402 130 482 Q204 557 313 557 Q399 557 472 493 L425 432 Q371 481 316 481 Q242 481 194 423 Q146 364 146 271 Q146 177 193 120 Q239 63 314 63 Q383 63 442 117 L481 56 Q406 -13 306 -13 Z" /><glyph glyph-name="d" unicode="d" d="M277 -13 Q174 -13 114 61 Q53 137 53 271 Q53 399 124 480 Q191 557 288 557 Q364 557 441 493 L436 587 L436 796 L527 796 L527 0 L453 0 L444 64 L442 64 Q363 -13 277 -13 ZM297 63 Q369 63 436 138 L436 423 Q372 480 304 480 Q237 480 193 423 Q147 364 147 272 Q147 173 186 118 Q225 63 297 63 Z" /><glyph glyph-name="m" unicode="m" d="M92 543 L167 543 L175 464 L178 464 Q262 557 347 557 Q461 557 497 453 Q592 557 676 557 Q841 557 841 344 L841 0 L750 0 L750 332 Q750 477 649 477 Q588 477 512 394 L512 0 L421 0 L421 332 Q421 477 320 477 Q257 477 183 394 L183 0 L92 0 L92 543 Z" /><glyph glyph-name="o" unicode="o" d="M303 -13 Q198 -13 127 62 Q51 141 51 271 Q51 402 127 482 Q198 557 303 557 Q408 557 479 482 Q555 402 555 271 Q555 141 479 62 Q408 -13 303 -13 ZM303 63 Q374 63 417 120 Q461 177 461 271 Q461 365 417 423 Q374 481 303 481 Q233 481 189 423 Q146 365 146 271 Q146 177 189 120 Q232 63 303 63 Z" /><glyph glyph-name="q" unicode="q" d="M436 -36 L441 63 Q363 -13 277 -13 Q174 -13 114 61 Q53 137 53 271 Q53 399 124 480 Q191 557 288 557 Q371 557 443 491 L446 491 L455 543 L527 543 L527 -229 L436 -229 L436 -36 ZM297 63 Q369 63 436 138 L436 423 Q372 480 304 480 Q237 480 193 423 Q147 364 147 272 Q147 173 186 118 Q225 63 297 63 Z" /><glyph glyph-name="quotedblleft" unicode="&#x201c;" d="M208 735 Q124 679 123 596 Q126 597 133 597 Q158 597 174 583 Q192 567 192 541 Q192 480 133 480 Q63 480 63 580 Q63 708 182 778 L208 735 ZM404 735 Q321 678 320 596 Q323 597 329 597 Q354 597 371 583 Q389 567 389 541 Q389 480 329 480 Q260 480 260 580 Q260 708 378 778 L404 735 Z" /><glyph glyph-name="quotedblright" unicode="&#x201d;" d="M70 525 Q153 582 154 664 Q151 663 144 663 Q120 663 104 678 Q86 694 86 720 Q86 781 144 781 Q215 781 215 680 Q215 552 96 482 L70 525 ZM266 525 Q350 582 351 664 Q348 663 341 663 Q316 663 300 678 Q282 693 282 720 Q282 781 341 781 Q411 781 411 680 Q411 552 292 482 L266 525 Z" /><glyph glyph-name="uni3001" unicode="&#x3001;" d="M273 -56 Q175 67 52 167 L117 224 Q229 134 341 2 L273 -56 Z" /><glyph glyph-name="uni3002" unicode="&#x3002;" d="M194 244 Q258 244 302 200 Q347 155 347 92 Q347 29 302 -16 Q258 -61 194 -61 Q132 -61 87 -16 Q42 29 42 92 Q42 155 87 200 Q132 244 194 244 ZM194 -10 Q237 -10 266 20 Q295 49 295 92 Q295 134 266 163 Q236 193 194 193 Q153 193 123 163 Q93 133 93 92 Q93 50 123 20 Q153 -10 194 -10 Z" /><glyph glyph-name="uni300A" unicode="&#x300a;" d="M806 -68 L752 -86 L530 380 L752 846 L806 828 L591 380 L806 -68 ZM964 -68 L910 -86 L688 380 L910 846 L964 828 L749 380 L964 -68 Z" /><glyph glyph-name="uni300B" unicode="&#x300b;" d="M194 -68 L409 380 L194 828 L248 846 L470 380 L248 -86 L194 -68 ZM36 -68 L251 380 L36 828 L90 846 L312 380 L90 -86 L36 -68 Z" /><glyph glyph-name="uni2F00" unicode="&#x2f00;&#x4e00;" d="M956 430 L956 349 L48 349 L48 430 L956 430 Z" /><glyph glyph-name="uni4E08" unicode="&#x4e08;" d="M644 571 Q629 272 518 138 Q675 24 950 -7 Q920 -39 906 -77 Q625 -38 465 83 Q344 -21 113 -70 Q102 -38 71 -5 Q296 40 405 134 Q272 265 206 507 L276 524 Q331 308 458 187 Q553 304 565 571 L67 571 L67 643 L568 643 Q569 699 569 822 L649 822 Q649 757 647 643 L935 643 L935 571 L644 571 Z" /><glyph glyph-name="uni4E09" unicode="&#x4e09;" d="M876 740 L876 666 L126 666 L126 740 L876 740 ZM798 416 L798 341 L190 341 L190 416 L798 416 ZM930 71 L930 -4 L69 -4 L69 71 L930 71 Z" /><glyph glyph-name="uni4E0A" unicode="&#x4e0a;" d="M946 45 L946 -29 L55 -29 L55 45 L428 45 L428 821 L506 821 L506 515 L878 515 L878 441 L506 441 L506 45 L946 45 Z" /><glyph glyph-name="uni4E0B" unicode="&#x4e0b;" d="M520 689 L520 511 L533 526 Q756 419 888 319 L836 252 Q732 337 520 451 L520 -75 L441 -75 L441 689 L59 689 L59 763 L942 763 L942 689 L520 689 Z" /><glyph glyph-name="uni4E0D" unicode="&#x4e0d;&#xf967;" d="M610 692 Q586 651 539 582 L539 -74 L460 -74 L460 482 Q296 295 98 191 Q84 215 48 256 Q351 408 515 692 L73 692 L73 766 L927 766 L927 692 L610 692 ZM614 525 Q847 374 955 262 L896 205 Q776 334 559 477 L614 525 Z" /><glyph glyph-name="uni4E0E" unicode="&#x4e0e;" d="M945 190 L754 190 Q726 6 680 -40 Q649 -71 591 -75 Q523 -79 413 -71 Q409 -29 386 2 Q474 -6 565 -6 Q602 -6 617 7 Q654 39 679 190 L57 190 L57 262 L689 262 Q694 297 706 407 L290 407 L277 355 L200 363 Q258 566 305 838 L381 831 L354 695 L841 695 L841 624 L340 624 Q330 576 306 475 L786 475 L784 440 Q771 311 764 262 L945 262 L945 190 Z" /><glyph glyph-name="uni4E13" unicode="&#x4e13;" d="M390 464 L353 354 L784 354 L797 358 L853 324 Q739 206 588 64 Q698 18 751 -14 L706 -78 Q538 26 259 108 L301 162 Q391 137 514 92 Q640 211 711 284 L247 284 Q270 341 312 464 L60 464 L60 536 L335 536 Q357 602 373 654 L140 654 L140 725 L394 725 Q417 805 424 835 L503 835 Q487 777 470 725 L853 725 L853 654 L450 654 Q441 627 413 536 L925 536 L925 464 L390 464 Z" /><glyph glyph-name="uni4E14" unicode="&#x4e14;" d="M287 39 L722 39 L722 215 L287 215 L287 39 ZM287 706 L287 534 L722 534 L722 706 L287 706 ZM722 464 L287 464 L287 287 L722 287 L722 464 ZM944 39 L944 -34 L57 -34 L57 39 L214 39 L214 778 L798 778 L798 39 L944 39 Z" /><glyph glyph-name="uni4E1A" unicode="&#x4e1a;" d="M918 573 Q831 366 746 229 L685 262 Q790 434 851 606 L918 573 ZM221 237 Q184 373 85 588 L154 609 Q252 404 295 265 L221 237 ZM938 49 L938 -24 L64 -24 L64 49 L342 49 L342 824 L416 824 L416 49 L585 49 L585 823 L659 823 L659 49 L938 49 Z" /><glyph glyph-name="uni4E25" unicode="&#x4e25;" d="M431 455 L566 455 L566 715 L431 715 L431 455 ZM933 389 L189 389 L189 291 Q189 49 90 -77 Q63 -43 33 -26 Q116 81 116 292 L116 455 L358 455 L358 715 L108 715 L108 780 L902 780 L902 715 L639 715 L639 455 L933 455 L933 389 ZM234 477 Q213 567 149 661 L212 684 Q279 591 301 501 L234 477 ZM683 497 Q744 590 780 687 L856 662 Q789 540 743 476 L683 497 Z" /><glyph glyph-name="uni4E2A" unicode="&#x4e2a;" d="M496 757 Q352 536 70 371 Q47 407 22 430 Q313 593 453 834 L530 834 Q705 582 983 443 Q957 417 932 376 Q648 543 496 757 ZM535 509 L535 -76 L458 -76 L458 509 L535 509 Z" /><glyph glyph-name="uni4E2D" unicode="&#x4e2d;" d="M823 321 L823 586 L536 586 L536 321 L823 321 ZM459 321 L459 586 L173 586 L173 321 L459 321 ZM899 659 L899 191 L823 191 L823 248 L536 248 L536 -76 L459 -76 L459 248 L173 248 L173 186 L100 186 L100 659 L459 659 L459 837 L536 837 L536 659 L899 659 Z" /><glyph glyph-name="uni4E3A" unicode="&#x4e3a;" d="M269 629 Q238 696 165 780 L229 808 Q299 731 337 662 L269 629 ZM898 597 L897 558 Q876 30 829 -26 Q799 -61 746 -65 Q691 -70 588 -63 Q584 -23 562 14 Q628 7 717 7 Q746 7 760 22 Q800 62 819 523 L476 523 Q429 145 116 -63 Q96 -33 58 -9 Q354 184 400 523 L86 523 L86 597 L408 597 Q412 653 412 717 L412 834 L486 834 L486 716 Q486 660 483 597 L898 597 ZM634 175 Q593 261 499 371 L560 401 Q657 295 699 211 L634 175 Z" /><glyph glyph-name="uni4E3B" unicode="&#x4e3b;" d="M944 29 L944 -44 L60 -44 L60 29 L460 29 L460 274 L152 274 L152 346 L460 346 L460 565 L106 565 L106 638 L545 638 Q481 713 375 791 L435 833 Q557 745 618 672 L571 638 L894 638 L894 565 L539 565 L539 346 L853 346 L853 274 L539 274 L539 29 L944 29 Z" /><glyph glyph-name="uni4E3E" unicode="&#x4e3e;" d="M487 658 Q460 732 398 815 L460 842 Q525 757 553 688 L487 658 ZM537 189 L912 189 L912 118 L537 118 L537 -78 L463 -78 L463 118 L96 118 L96 189 L463 189 L463 311 L236 311 L236 381 L463 381 L463 503 L537 503 L537 381 L772 381 L772 311 L537 311 L537 189 ZM705 573 Q808 428 970 362 Q939 336 920 302 Q737 389 629 573 L377 573 Q275 383 82 294 Q62 327 34 351 Q205 421 301 573 L59 573 L59 641 L261 641 Q228 707 160 784 L223 814 Q297 737 331 668 L278 641 L636 641 Q712 732 759 824 L837 798 Q775 707 718 641 L943 641 L943 573 L705 573 Z" /><glyph glyph-name="uni4E45" unicode="&#x4e45;" d="M683 655 Q650 520 592 400 Q706 98 963 -10 Q937 -30 910 -75 Q677 35 547 319 Q384 48 106 -79 Q82 -38 49 -14 Q460 161 586 601 L325 601 Q228 417 104 306 Q76 334 38 360 Q238 521 339 836 L417 818 Q394 747 361 675 L616 675 L630 679 L683 655 Z" /><glyph glyph-name="uni4E4B" unicode="&#x4e4b;" d="M902 609 Q707 295 380 74 Q485 13 703 13 Q914 13 959 14 Q939 -20 931 -59 L699 -59 Q519 -59 416 -22 Q293 21 225 132 Q163 10 106 -75 L35 -32 Q148 109 220 305 L292 276 L261 207 Q284 157 321 120 Q595 299 781 568 L101 568 L101 639 L461 639 L461 835 L535 835 L535 639 L830 639 L846 644 L902 609 Z" /><glyph glyph-name="uni4E5F" unicode="&#x4e5f;" d="M758 12 Q826 12 849 46 Q869 78 879 188 Q906 169 948 158 Q936 33 902 -9 Q864 -56 759 -56 L409 -56 Q297 -56 258 -24 Q217 8 217 101 L217 413 L54 362 L34 429 L217 485 L217 769 L289 769 L289 507 L496 571 L496 835 L569 835 L569 593 L801 665 L822 681 L874 658 L870 644 Q865 354 838 278 Q813 211 758 203 Q714 196 641 198 Q636 243 622 267 Q657 264 722 264 Q759 264 774 311 Q794 368 797 593 L569 522 L569 136 L496 136 L496 499 L289 435 L289 99 Q289 46 311 29 Q334 12 406 12 L758 12 Z" /><glyph glyph-name="uni4E66" unicode="&#x4e66;" d="M902 615 Q839 676 716 757 L760 805 Q881 730 948 671 L902 615 ZM494 395 L725 395 L725 590 L494 590 L494 395 ZM942 395 Q941 371 939 360 Q919 92 880 52 Q853 25 802 22 Q755 19 650 24 Q648 61 626 95 Q689 89 776 89 Q806 89 818 99 Q846 124 863 324 L494 324 L494 -76 L420 -76 L420 324 L64 324 L64 395 L420 395 L420 590 L130 590 L130 662 L420 662 L420 833 L494 833 L494 662 L798 662 L798 395 L942 395 Z" /><glyph glyph-name="uni4E86" unicode="&#x4e86;&#xf9ba;" d="M886 722 Q740 548 540 433 L540 20 Q540 -49 488 -65 Q450 -76 282 -76 Q278 -47 252 -2 Q377 -7 434 -4 Q463 -3 463 21 L463 498 L512 498 Q634 572 745 686 L101 686 L101 759 L812 759 L828 764 L886 722 Z" /><glyph glyph-name="uni4E88" unicode="&#x4e88;" d="M950 443 Q850 279 771 200 L711 238 Q772 304 828 394 L544 394 L544 17 Q544 -46 497 -61 Q459 -73 317 -73 Q311 -47 289 -1 Q383 -5 445 -2 Q469 -1 469 18 L469 394 L57 394 L57 465 L575 465 Q448 529 287 598 L325 653 Q422 614 506 577 Q611 637 696 714 L151 714 L151 783 L768 783 L785 787 L839 746 Q730 637 579 543 Q640 516 687 491 L670 465 L876 465 L891 471 L950 443 Z" /><glyph glyph-name="uni4E89" unicode="&#x4e89;" d="M774 334 L531 334 L531 218 L774 218 L774 334 ZM531 402 L774 402 L774 512 L531 512 L531 402 ZM322 689 Q263 623 209 578 L479 578 Q525 621 573 689 L322 689 ZM958 334 L849 334 L849 97 L774 97 L774 150 L531 150 L531 15 Q531 -49 484 -65 Q447 -77 305 -77 Q299 -45 277 -6 Q385 -11 431 -8 Q456 -5 456 15 L456 150 L144 150 L144 218 L456 218 L456 334 L46 334 L46 402 L456 402 L456 512 L184 512 L184 557 Q148 530 118 510 Q93 544 63 561 Q242 669 339 838 L420 823 Q401 792 373 754 L622 754 L634 758 L687 721 Q642 651 571 578 L849 578 L849 402 L958 402 L958 334 Z" /><glyph glyph-name="uni4E8B" unicode="&#x4e8b;" d="M774 207 L534 207 L534 132 L774 132 L774 207 ZM534 266 L774 266 L774 336 L534 336 L534 266 ZM460 513 L460 585 L245 585 L245 513 L460 513 ZM534 585 L534 513 L758 513 L758 585 L534 585 ZM951 207 L848 207 L848 30 L774 30 L774 75 L534 75 L534 6 Q534 -52 490 -68 Q456 -80 324 -80 Q318 -51 298 -17 Q328 -18 435 -18 Q460 -17 460 6 L460 75 L137 75 L137 132 L460 132 L460 207 L51 207 L51 266 L460 266 L460 336 L146 336 L146 391 L460 391 L460 461 L174 461 L174 637 L460 637 L460 695 L70 695 L70 756 L460 756 L460 836 L534 836 L534 756 L932 756 L932 695 L534 695 L534 637 L832 637 L832 461 L534 461 L534 391 L848 391 L848 266 L951 266 L951 207 Z" /><glyph glyph-name="uni4E8E" unicode="&#x4e8e;" d="M943 367 L548 367 L548 32 Q548 -41 496 -58 Q456 -72 293 -72 Q284 -36 261 5 Q392 2 442 4 Q471 5 471 32 L471 367 L58 367 L58 440 L471 440 L471 692 L127 692 L127 765 L873 765 L873 692 L548 692 L548 440 L943 440 L943 367 Z" /><glyph glyph-name="uni4E92" unicode="&#x4e92;" d="M656 274 Q668 370 680 490 L347 490 Q315 340 300 274 L656 274 ZM947 37 L947 -32 L55 -32 L55 37 L621 37 Q634 118 647 206 L285 206 L272 154 L192 162 Q255 388 311 704 L89 704 L89 773 L917 773 L917 704 L389 704 L375 633 Q367 586 361 558 L765 558 Q732 242 701 37 L947 37 Z" /><glyph glyph-name="uni4E94" unicode="&#x4e94;" d="M432 375 Q395 185 364 51 L702 51 L702 375 L432 375 ZM943 51 L943 -21 L60 -21 L60 51 L283 51 Q318 197 353 375 L162 375 L162 448 L367 448 Q388 556 406 667 L123 667 L123 740 L871 740 L871 667 L487 667 Q475 598 447 448 L777 448 L777 51 L943 51 Z" /><glyph glyph-name="uni4EA4" unicode="&#x4ea4;" d="M936 635 L65 635 L65 707 L461 707 L461 838 L535 838 L535 707 L936 707 L936 635 ZM677 608 Q860 485 945 387 L880 336 Q795 440 618 563 L677 608 ZM395 575 Q294 436 118 326 Q80 369 57 385 Q226 475 320 604 L395 575 ZM721 411 Q664 263 558 158 Q713 35 961 -6 Q935 -31 912 -76 Q660 -28 500 106 Q347 -15 90 -80 Q77 -46 43 -10 Q298 44 445 158 Q347 262 289 406 L360 428 Q409 303 502 208 Q596 302 644 433 L721 411 Z" /><glyph glyph-name="uni4EA7" unicode="&#x4ea7;" d="M899 645 L113 645 L113 716 L487 716 Q463 770 426 817 L499 838 Q553 771 574 718 L569 716 L899 716 L899 645 ZM349 466 Q325 528 265 610 L329 636 Q387 564 417 496 L349 466 ZM925 391 L204 391 L204 325 Q204 59 101 -84 Q69 -49 40 -32 Q128 89 128 327 L128 463 L606 463 Q656 546 687 631 L767 605 Q720 522 681 463 L925 463 L925 391 Z" /><glyph glyph-name="uni4EAE" unicode="&#x4eae;&#xf977;" d="M938 687 L64 687 L64 751 L459 751 L459 840 L536 840 L536 751 L938 751 L938 687 ZM857 179 L857 303 L143 303 L143 179 L77 179 L77 363 L926 363 L926 179 L857 179 ZM728 573 L274 573 L274 477 L728 477 L728 573 ZM805 627 L805 424 L201 424 L201 627 L805 627 ZM402 257 Q388 105 329 36 Q259 -45 83 -79 Q72 -46 44 -16 Q205 10 264 75 Q314 129 326 257 L402 257 ZM831 -8 Q857 -8 865 13 Q873 34 876 111 Q902 90 945 82 Q938 -11 917 -41 Q896 -72 838 -72 L688 -72 Q618 -72 594 -52 Q571 -32 571 25 L571 253 L650 253 L650 26 Q650 4 659 -2 Q667 -8 698 -8 L831 -8 Z" /><glyph glyph-name="uni2F08" unicode="&#x2f08;&#x4eba;" d="M531 806 Q530 799 530 785 L529 760 Q542 562 611 392 Q726 105 968 -6 Q931 -34 913 -67 Q600 81 497 511 Q407 101 97 -67 Q75 -36 37 -10 Q295 122 392 426 Q436 564 449 806 L531 806 Z" /><glyph glyph-name="uni4ECB" unicode="&#x4ecb;" d="M496 762 Q365 536 86 383 Q73 412 40 443 Q321 588 453 837 L530 837 Q691 580 964 456 Q935 427 915 390 Q639 536 496 762 ZM713 487 L713 -75 L636 -75 L636 487 L713 487 ZM358 483 L358 344 Q358 211 322 125 Q271 2 137 -77 Q115 -47 78 -24 Q204 47 250 154 Q282 228 282 345 L282 483 L358 483 Z" /><glyph glyph-name="uni4ECD" unicode="&#x4ecd;" d="M348 813 Q305 705 246 607 L246 -74 L176 -74 L176 500 Q122 425 65 368 Q46 412 23 440 Q187 594 279 834 L348 813 ZM947 500 Q947 475 946 465 Q922 14 876 -36 Q853 -65 801 -71 Q740 -75 652 -69 Q650 -27 629 2 Q703 -4 771 -4 Q801 -4 814 10 Q853 49 872 431 L768 431 L760 365 L689 371 Q708 505 722 697 L538 697 Q532 429 499 273 Q450 41 328 -79 Q305 -50 271 -29 Q454 144 463 697 L348 697 L348 766 L798 766 Q787 612 775 500 L947 500 Z" /><glyph glyph-name="uni4ED6" unicode="&#x4ed6;" d="M337 812 Q295 704 236 601 L236 -75 L163 -75 L163 487 Q117 422 64 366 Q40 414 22 436 Q180 590 269 833 L337 812 ZM811 4 Q856 4 871 32 Q884 58 891 149 Q922 127 960 118 Q950 11 923 -24 Q894 -63 814 -63 L553 -63 Q464 -63 432 -35 Q399 -7 399 74 L399 399 L302 361 L273 426 L399 475 L399 738 L472 738 L472 504 L618 561 L618 835 L689 835 L689 588 L845 648 L867 667 L918 646 L915 633 Q915 323 903 267 Q893 207 843 194 Q808 185 742 187 Q738 229 724 257 Q751 255 800 255 Q827 255 834 285 Q843 317 845 573 L689 512 L689 145 L618 145 L618 484 L472 426 L472 74 Q472 31 487 18 Q503 4 555 4 L811 4 Z" /><glyph glyph-name="uni4EE3" unicode="&#x4ee3;" d="M873 615 Q820 689 712 779 L766 815 Q874 730 931 655 L873 615 ZM384 803 Q345 709 277 601 L277 -75 L202 -75 L202 494 Q139 412 68 347 Q51 385 25 419 Q212 578 314 825 L384 803 ZM648 465 Q704 25 854 11 Q894 8 909 183 Q931 163 971 144 Q942 -81 857 -76 Q638 -60 575 455 L335 425 L325 495 L567 525 Q553 685 548 821 L622 821 Q627 660 641 535 L940 573 L950 503 L648 465 Z" /><glyph glyph-name="uni4EE5" unicode="&#x4ee5;" d="M520 436 Q473 556 366 680 L432 713 Q541 592 590 474 L520 436 ZM465 209 Q322 144 66 32 L39 109 Q101 133 177 165 L160 783 L236 786 L251 196 L448 280 L465 209 ZM905 -73 Q844 18 681 191 Q565 16 338 -79 Q316 -46 279 -15 Q526 76 638 270 Q737 443 772 785 L853 777 Q815 439 721 259 Q907 71 967 -16 L905 -73 Z" /><glyph glyph-name="uni4EEC" unicode="&#x4eec;" d="M296 812 Q268 712 220 599 L220 -76 L148 -76 L148 454 Q115 396 79 349 Q64 391 39 424 Q155 573 228 831 L296 812 ZM340 636 L412 636 L412 -77 L340 -77 L340 636 ZM439 836 Q523 722 558 645 L497 610 Q460 698 381 805 L439 836 ZM918 18 Q918 -44 878 -61 Q846 -74 719 -74 Q714 -40 695 -3 Q773 -7 823 -4 Q845 -3 845 19 L845 732 L575 732 L575 800 L918 800 L918 18 Z" /><glyph glyph-name="uni4EF6" unicode="&#x4ef6;" d="M340 811 Q294 692 241 595 L241 -75 L170 -75 L170 480 Q133 425 78 363 Q64 400 36 436 Q185 592 270 833 L340 811 ZM948 268 L677 268 L677 -77 L603 -77 L603 268 L318 268 L318 341 L603 341 L603 560 L446 560 Q413 468 374 408 Q349 427 310 446 Q393 561 433 787 L503 772 Q489 699 470 633 L603 633 L603 824 L677 824 L677 633 L905 633 L905 560 L677 560 L677 341 L948 341 L948 268 Z" /><glyph glyph-name="uni4EFB" unicode="&#x4efb;" d="M368 814 Q321 700 262 602 L262 -77 L189 -77 L189 492 Q132 415 71 357 Q56 397 25 431 Q197 584 296 836 L368 814 ZM674 340 L674 33 L941 33 L941 -39 L343 -39 L343 33 L600 33 L600 340 L305 340 L305 412 L600 412 L600 676 Q482 655 361 641 Q357 663 338 704 Q687 749 861 812 L916 750 Q814 717 674 689 L674 412 L956 412 L956 340 L674 340 Z" /><glyph glyph-name="uni4EFD" unicode="&#x4efd;" d="M336 812 Q294 702 233 596 L233 -74 L163 -74 L163 487 Q116 420 62 364 Q38 416 20 436 Q178 590 267 833 L336 812 ZM515 709 Q439 500 313 378 Q297 399 265 427 Q387 543 443 727 L515 709 ZM846 440 Q846 416 845 405 Q834 8 803 -32 Q781 -62 740 -65 Q699 -68 626 -65 Q624 -21 605 8 Q649 4 705 4 Q727 4 737 16 Q762 47 770 373 L595 373 Q561 43 354 -76 Q330 -38 308 -20 Q497 81 521 373 L384 373 L384 440 L846 440 ZM775 809 Q823 559 972 455 Q941 431 916 395 Q774 509 718 742 L504 742 L504 809 L775 809 Z" /><glyph glyph-name="uni4F18" unicode="&#x4f18;" d="M859 634 Q817 696 712 774 L762 813 Q867 736 913 676 L859 634 ZM336 810 Q304 717 247 607 L247 -77 L175 -77 L175 483 Q131 414 76 352 Q51 401 32 422 Q177 578 267 830 L336 810 ZM845 19 Q872 19 880 47 Q888 74 891 172 Q919 150 959 141 Q953 28 932 -11 Q910 -50 851 -50 L704 -50 Q639 -50 616 -28 Q594 -6 594 57 L594 267 Q529 30 338 -78 Q319 -47 286 -23 Q430 57 496 206 Q549 328 562 530 L313 530 L313 601 L565 601 Q568 674 568 826 L641 826 Q641 698 637 601 L943 601 L943 530 L635 530 Q631 475 628 451 L667 451 L667 59 Q667 34 675 27 Q684 19 712 19 L845 19 Z" /><glyph glyph-name="uni4F1A" unicode="&#x4f1a;" d="M92 338 L914 338 L914 269 L445 269 Q380 133 327 39 Q549 46 732 54 Q663 133 600 189 L663 223 Q819 89 898 -38 L831 -79 Q809 -42 785 -12 Q402 -31 110 -41 L100 32 Q205 34 247 36 Q313 157 355 269 L92 269 L92 338 ZM735 528 L735 460 L262 460 L262 528 L735 528 ZM530 835 Q694 606 966 493 Q942 468 918 427 Q642 561 496 764 Q357 559 83 423 Q67 456 40 482 Q322 617 454 835 L530 835 Z" /><glyph glyph-name="uni4F20" unicode="&#x4f20;" d="M338 811 Q294 701 235 596 L235 -75 L162 -75 L162 483 Q120 423 64 364 Q42 410 21 436 Q179 590 268 833 L338 811 ZM549 464 L513 345 L833 345 L845 350 L896 317 Q817 225 676 69 Q746 17 785 -22 L730 -77 Q636 22 469 127 L523 172 Q577 139 619 110 Q703 201 767 275 L412 275 Q439 348 473 464 L294 464 L294 533 L494 533 L527 652 L351 652 L351 721 L546 721 L560 777 Q569 812 573 831 L647 821 Q630 754 620 721 L905 721 L905 652 L602 652 Q580 572 568 533 L950 533 L950 464 L549 464 Z" /><glyph glyph-name="uni4F46" unicode="&#x4f46;" d="M800 695 L469 695 L469 500 L800 500 L800 695 ZM800 431 L469 431 L469 231 L800 231 L800 431 ZM878 161 L393 161 L393 765 L878 765 L878 161 ZM352 810 Q306 695 248 596 L248 -75 L175 -75 L175 483 Q132 422 74 361 Q53 409 31 437 Q191 591 280 833 L352 810 ZM962 33 L962 -37 L309 -37 L309 33 L962 33 Z" /><glyph glyph-name="uni4F4D" unicode="&#x4f4d;" d="M588 641 L588 825 L663 825 L663 641 L936 641 L936 571 L329 571 L329 641 L588 641 ZM486 87 Q473 267 412 492 L478 504 Q543 278 559 103 L486 87 ZM348 812 Q307 709 246 606 L246 -73 L176 -73 L176 499 Q118 420 66 369 Q48 408 23 442 Q187 595 279 834 L348 812 ZM961 40 L961 -30 L305 -30 L305 40 L650 40 Q727 251 774 513 L854 499 Q792 228 722 40 L961 40 Z" /><glyph glyph-name="uni4F4E" unicode="&#x4f4e;" d="M336 812 Q294 702 233 596 L233 -74 L163 -74 L163 487 Q116 420 62 364 Q38 416 20 436 Q178 590 267 833 L336 812 ZM328 16 L752 16 L752 -50 L328 -50 L328 16 ZM650 488 Q640 584 638 687 Q556 673 438 659 L438 488 L650 488 ZM730 421 Q753 248 794 142 Q836 34 881 35 Q910 35 916 173 Q940 147 974 134 Q967 35 944 -2 Q923 -38 875 -38 Q794 -38 736 93 Q683 212 657 421 L438 421 L438 165 Q561 186 669 206 L672 140 Q368 82 315 73 L299 142 L366 153 L366 735 L415 719 Q706 754 851 804 L909 747 Q827 722 712 700 Q713 595 723 488 L956 488 L956 421 L730 421 Z" /><glyph glyph-name="uni4F53" unicode="&#x4f53;" d="M323 812 Q289 710 234 601 L234 -75 L163 -75 L163 478 Q123 416 78 363 Q57 407 35 436 Q173 588 254 833 L323 812 ZM700 564 Q800 281 970 144 Q937 120 914 85 Q754 231 652 523 L652 176 L813 176 L813 108 L652 108 L652 -71 L580 -71 L580 108 L417 108 L417 176 L580 176 L580 516 Q473 228 315 83 Q288 118 261 139 Q430 274 535 564 L300 564 L300 636 L580 636 L580 833 L652 833 L652 636 L950 636 L950 564 L700 564 Z" /><glyph glyph-name="uni4F55" unicode="&#x4f55;" d="M338 814 Q298 706 249 613 L249 -75 L176 -75 L176 491 Q137 429 83 370 Q67 408 42 442 Q187 597 269 836 L338 814 ZM440 462 L440 251 L612 251 L612 462 L440 462 ZM440 185 L440 116 L369 116 L369 528 L681 528 L681 185 L440 185 ZM959 668 L886 668 L886 26 Q886 -44 837 -61 Q794 -75 637 -75 Q632 -41 610 1 Q718 -3 785 0 Q813 1 813 26 L813 668 L340 668 L340 740 L959 740 L959 668 Z" /><glyph glyph-name="uni4F5C" unicode="&#x4f5c;" d="M358 810 Q321 710 256 596 L256 -75 L182 -75 L182 481 Q138 419 83 362 Q64 409 40 436 Q197 588 287 833 L358 810 ZM650 599 L650 456 L935 456 L935 387 L650 387 L650 236 L949 236 L949 166 L650 166 L650 -76 L575 -76 L575 599 L506 599 Q440 476 364 391 Q340 417 306 441 Q446 586 526 824 L597 805 Q576 745 542 670 L958 670 L958 599 L650 599 Z" /><glyph glyph-name="uni4F60" unicode="&#x4f60;" d="M337 812 Q294 703 234 598 L234 -74 L163 -74 L163 487 Q123 429 62 363 Q41 411 20 436 Q175 588 267 833 L337 812 ZM522 397 Q470 185 376 57 Q358 72 312 98 Q402 207 449 411 L522 397 ZM684 576 L684 14 Q684 -46 649 -62 Q618 -77 517 -77 Q511 -43 491 -2 Q515 -3 594 -3 Q611 -3 611 14 L611 576 L459 576 Q416 474 362 404 Q334 430 303 451 Q412 588 467 832 L540 816 Q517 729 487 645 L892 645 L904 648 L955 636 Q934 517 911 424 L849 436 Q867 542 872 576 L684 576 ZM822 419 Q918 241 947 85 L876 61 Q849 215 757 397 L822 419 Z" /><glyph glyph-name="uni4F7F" unicode="&#x4f7f;" d="M349 817 Q309 718 246 609 L246 -81 L175 -81 L175 502 Q125 432 65 372 Q48 414 23 444 Q186 598 279 839 L349 817 ZM597 349 Q598 364 598 394 L598 497 L420 497 L420 349 L597 349 ZM671 497 L671 394 Q671 364 670 349 L855 349 L855 497 L671 497 ZM666 286 Q653 170 600 94 Q744 15 968 -12 Q943 -37 924 -79 Q703 -46 556 42 Q476 -37 330 -80 Q311 -42 285 -19 Q422 16 496 82 Q405 151 351 245 L413 265 Q457 190 539 132 Q581 194 593 286 L351 286 L351 560 L598 560 L598 658 L322 658 L322 726 L598 726 L598 833 L671 833 L671 726 L959 726 L959 658 L671 658 L671 560 L926 560 L926 286 L666 286 Z" /><glyph glyph-name="uni4F9B" unicode="&#x4f9b;" d="M341 812 Q299 704 239 598 L239 -75 L166 -75 L166 486 Q121 420 67 365 Q47 408 25 438 Q180 588 271 834 L341 812 ZM555 157 Q478 23 364 -74 Q333 -43 305 -28 Q418 59 484 179 L555 157 ZM768 176 Q885 66 946 -37 L883 -78 Q828 25 710 143 L768 176 ZM536 308 L731 308 L731 552 L536 552 L536 308 ZM957 308 L957 235 L311 235 L311 308 L464 308 L464 552 L335 552 L335 624 L464 624 L464 825 L536 825 L536 624 L731 624 L731 826 L803 826 L803 624 L945 624 L945 552 L803 552 L803 308 L957 308 Z" /><glyph glyph-name="uni4FDD" unicode="&#x4fdd;" d="M348 813 Q301 697 246 605 L246 -74 L175 -74 L175 496 Q128 430 68 368 Q43 417 26 440 Q188 595 278 834 L348 813 ZM451 540 L822 540 L822 723 L451 723 L451 540 ZM714 282 Q824 107 977 24 Q949 1 924 -35 Q781 57 671 236 L671 -77 L597 -77 L597 233 Q484 56 330 -33 Q301 7 278 26 Q444 108 554 282 L307 282 L307 350 L597 350 L597 474 L381 474 L381 790 L896 790 L896 474 L671 474 L671 350 L951 350 L951 282 L714 282 Z" /><glyph glyph-name="uni4FE1" unicode="&#x4fe1;" d="M864 728 L406 728 L406 789 L864 789 L864 728 ZM348 813 Q305 705 246 607 L246 -73 L176 -73 L176 500 Q122 425 65 368 Q46 412 23 440 Q187 594 279 834 L348 813 ZM455 179 L455 32 L817 32 L817 179 L455 179 ZM383 239 L891 239 L891 -73 L817 -73 L817 -29 L455 -29 L455 -76 L383 -76 L383 239 ZM394 376 L880 376 L880 316 L394 316 L394 376 ZM882 453 L394 453 L394 514 L882 514 L882 453 ZM958 652 L958 590 L312 590 L312 652 L958 652 Z" /><glyph glyph-name="uni4FEE" unicode="&#x4fee;" d="M304 812 Q271 713 227 619 L227 -76 L155 -76 L155 484 Q110 409 60 350 Q46 391 21 425 Q157 580 235 831 L304 812 ZM550 664 Q593 593 673 534 Q746 591 788 667 L552 667 L550 664 ZM866 667 Q817 570 730 497 Q837 434 978 408 Q952 378 937 348 Q788 381 677 456 Q576 386 424 339 Q405 372 379 397 Q519 433 621 497 Q560 546 514 612 Q471 556 427 517 Q409 535 377 557 L377 89 L312 89 L312 718 L377 718 L377 566 Q501 671 565 837 L632 820 Q609 765 588 728 L946 728 L946 667 L866 667 ZM848 267 Q739 150 506 85 Q487 117 467 134 Q693 188 791 290 L848 267 ZM753 363 Q666 273 496 217 Q469 249 454 261 Q619 309 696 386 L753 363 ZM948 154 Q811 -9 452 -72 Q437 -39 413 -13 Q758 39 884 181 L948 154 Z" /><glyph glyph-name="uni505A" unicode="&#x505a;" d="M304 812 Q274 720 224 612 L224 -77 L155 -77 L155 485 Q114 416 61 353 Q40 401 22 428 Q159 586 236 831 L304 812 ZM707 579 L701 560 Q724 364 770 244 Q823 371 845 579 L707 579 ZM527 321 L367 321 L367 98 L527 98 L527 321 ZM911 579 Q880 316 805 166 Q870 44 968 -18 Q934 -52 922 -77 Q830 -13 768 101 Q697 -8 586 -78 Q568 -52 539 -27 Q663 43 734 169 Q683 289 659 449 Q637 400 611 359 L603 370 Q596 379 593 384 L593 33 L367 33 L367 -32 L301 -32 L301 386 L413 386 L413 575 L275 575 L275 643 L413 643 L413 825 L484 825 L484 643 L613 643 L613 575 L484 575 L484 386 L591 386 Q577 405 564 416 Q655 555 695 836 L762 825 Q745 722 724 644 L957 644 L957 579 L911 579 Z" /><glyph glyph-name="uni505C" unicode="&#x505c;" d="M593 740 L593 833 L667 833 L667 740 L952 740 L952 675 L316 675 L316 740 L593 740 ZM463 474 L801 474 L801 568 L463 568 L463 474 ZM393 422 L393 620 L874 620 L874 422 L393 422 ZM336 812 Q294 702 233 596 L233 -74 L163 -74 L163 487 Q116 420 62 364 Q38 416 20 436 Q175 588 267 833 L336 812 ZM413 237 L856 237 L856 176 L666 176 L666 3 Q666 -53 626 -66 Q595 -77 470 -77 Q466 -53 447 -10 Q540 -13 573 -11 Q593 -11 593 5 L593 176 L413 176 L413 237 ZM961 364 L961 194 L893 194 L893 304 L366 304 L366 192 L299 192 L299 364 L961 364 Z" /><glyph glyph-name="uni50A8" unicode="&#x50a8;" d="M403 603 Q368 668 291 747 L342 781 Q426 701 457 642 L403 603 ZM281 821 Q251 715 207 613 L207 -74 L142 -74 L142 481 Q104 414 66 363 Q49 403 28 432 Q145 582 219 838 L281 821 ZM508 140 Q512 118 526 80 Q367 -18 347 -41 Q334 -5 311 20 Q347 46 347 97 L347 448 L249 448 L249 519 L412 519 L412 84 L508 140 ZM845 300 L629 300 L629 200 L845 200 L845 300 ZM845 40 L845 143 L629 143 L629 40 L845 40 ZM699 535 L721 535 Q766 592 808 660 L699 660 L699 535 ZM751 467 Q707 414 651 362 L912 362 L912 -69 L845 -69 L845 -22 L629 -22 L629 -73 L565 -73 L565 290 Q512 252 491 239 Q475 264 443 296 Q559 362 661 467 L472 467 L472 535 L631 535 L631 660 L501 660 L501 724 L631 724 L631 837 L699 837 L699 724 L815 724 L815 672 Q854 737 881 803 L947 785 Q889 649 805 535 L955 535 L955 467 L751 467 Z" /><glyph glyph-name="uni50CF" unicode="&#x50cf;" d="M304 812 Q269 708 226 617 L226 -76 L155 -76 L155 484 Q108 405 61 350 Q46 390 22 425 Q158 583 235 831 L304 812 ZM406 473 L589 473 L589 586 L406 586 L406 473 ZM475 716 Q442 672 413 641 L614 641 Q639 667 669 716 L475 716 ZM848 586 L657 586 L657 473 L848 473 L848 586 ZM948 345 Q877 282 784 225 Q858 85 964 26 Q932 -2 915 -33 Q726 85 647 420 L623 420 Q595 396 560 375 Q676 278 696 135 Q714 5 647 -46 Q611 -75 551 -77 Q516 -77 474 -74 Q472 -35 456 -11 Q499 -15 537 -15 Q578 -15 598 2 Q646 36 630 136 Q487 16 309 -51 Q291 -18 267 4 Q478 68 613 200 Q603 230 583 260 Q471 173 324 119 Q307 150 286 170 Q444 217 553 302 Q533 326 509 345 Q420 295 321 259 Q301 287 277 311 Q422 354 528 420 L338 420 L338 569 Q329 561 309 545 Q284 574 254 587 Q392 685 472 835 L543 822 Q527 794 513 772 L709 772 L722 776 L768 745 Q738 693 696 641 L918 641 L918 420 L711 420 Q731 342 759 278 Q831 326 896 389 L948 345 Z" /><glyph glyph-name="uni5143" unicode="&#x5143;" d="M855 687 L151 687 L151 758 L855 758 L855 687 ZM834 12 Q864 12 873 44 Q881 75 885 191 Q908 172 954 158 Q948 28 926 -14 Q903 -59 839 -59 L696 -59 Q630 -59 606 -35 Q583 -12 583 52 L583 408 L396 408 Q380 222 327 122 Q258 -10 99 -74 Q81 -38 52 -16 Q198 40 259 156 Q304 243 317 408 L64 408 L64 480 L939 480 L939 408 L658 408 L658 53 Q658 27 667 20 Q676 12 705 12 L834 12 Z" /><glyph glyph-name="uni5149" unicode="&#x5149;" d="M869 771 Q790 605 730 518 L668 543 Q744 662 794 799 L869 771 ZM259 515 Q228 628 141 763 L208 788 Q300 651 329 543 L259 515 ZM837 -5 Q866 -5 875 25 Q884 55 888 163 Q910 144 956 130 Q949 8 928 -32 Q905 -74 843 -74 L699 -74 Q633 -74 610 -51 Q586 -29 586 34 L586 387 L402 387 Q386 201 329 105 Q257 -19 84 -76 Q67 -39 38 -13 Q198 35 262 142 Q310 222 324 387 L58 387 L58 458 L460 458 L460 837 L534 837 L534 458 L945 458 L945 387 L661 387 L661 35 Q661 10 670 3 Q679 -5 707 -5 L837 -5 Z" /><glyph glyph-name="uni514D" unicode="&#x514d;" d="M544 519 Q536 419 521 345 L797 345 L797 519 L544 519 ZM443 345 Q458 409 467 519 L230 519 L230 345 L443 345 ZM329 697 Q287 642 231 586 L496 586 Q541 634 579 697 L329 697 ZM830 11 Q862 11 872 36 Q881 60 884 150 Q912 128 953 121 Q945 14 923 -21 Q900 -56 836 -56 L669 -56 Q597 -56 573 -35 Q548 -14 548 45 L548 278 L503 278 Q422 21 97 -67 Q84 -31 55 -4 Q347 68 423 278 L156 278 L156 517 Q134 498 97 472 Q78 502 45 526 Q233 651 333 838 L415 823 Q405 805 374 760 L621 760 L634 764 L684 730 Q647 664 582 586 L874 586 L874 278 L624 278 L624 46 Q624 24 634 17 Q643 11 677 11 L830 11 Z" /><glyph glyph-name="uni5154" unicode="&#x5154;" d="M545 513 Q537 407 519 324 L800 324 L800 513 L545 513 ZM441 324 Q459 396 468 513 L221 513 L221 324 L441 324 ZM327 696 Q280 634 227 579 L487 579 Q533 628 572 696 L327 696 ZM833 -4 Q866 -4 877 19 Q887 42 890 123 Q912 106 958 95 Q950 -5 927 -38 Q903 -72 838 -72 L654 -72 Q578 -72 552 -51 Q526 -30 526 31 L526 258 L500 258 Q413 7 90 -79 Q78 -47 49 -16 Q337 55 419 258 L148 258 L148 505 Q123 484 88 459 Q70 488 36 512 Q230 641 328 838 L407 824 Q398 805 370 761 L617 761 L629 764 L680 730 Q646 665 574 579 L876 579 L876 258 L599 258 L599 32 Q599 9 610 3 Q621 -4 659 -4 L833 -4 ZM701 239 Q799 168 850 101 L798 57 Q753 121 651 200 L701 239 Z" /><glyph glyph-name="uni2F0A" unicode="&#x2f0a;&#x5165;" d="M548 776 Q548 236 963 -11 Q932 -33 903 -73 Q594 114 506 484 Q395 95 107 -74 Q70 -35 40 -15 Q350 146 445 581 L489 574 Q479 637 476 702 L230 702 L230 776 L548 776 Z" /><glyph glyph-name="uni516D" unicode="&#x516d;&#xf9d1;" d="M937 526 L64 526 L64 602 L458 602 L458 832 L536 832 L536 602 L937 602 L937 526 ZM377 367 Q276 101 119 -67 Q75 -31 46 -16 Q202 135 294 389 L377 367 ZM691 387 Q871 141 938 -30 L857 -66 Q792 112 619 357 L691 387 Z" /><glyph glyph-name="uni5171" unicode="&#x5171;" d="M408 158 Q295 21 124 -78 Q100 -52 65 -25 Q240 66 331 188 L408 158 ZM651 189 Q831 62 930 -31 L860 -77 Q763 20 587 151 L651 189 ZM358 318 L642 318 L642 554 L358 554 L358 318 ZM952 318 L952 246 L53 246 L53 318 L283 318 L283 554 L93 554 L93 626 L283 626 L283 828 L358 828 L358 626 L642 626 L642 828 L718 828 L718 626 L916 626 L916 554 L718 554 L718 318 L952 318 Z" /><glyph glyph-name="uni5173" unicode="&#x5173;" d="M289 827 Q361 740 392 660 L326 624 Q296 706 227 796 L289 827 ZM564 300 Q683 69 957 1 Q922 -32 905 -69 Q642 7 515 244 Q435 40 105 -75 Q79 -32 52 -11 Q386 103 445 300 L72 300 L72 373 L460 373 Q462 413 462 430 L462 551 L132 551 L132 624 L600 624 Q665 724 710 833 L789 805 Q728 696 680 624 L878 624 L878 551 L545 551 L545 429 Q545 411 543 373 L932 373 L932 300 L564 300 Z" /><glyph glyph-name="uni5176" unicode="&#x5176;" d="M314 206 L684 206 L684 315 L314 315 L314 206 ZM314 650 L314 551 L684 551 L684 650 L314 650 ZM314 379 L684 379 L684 487 L314 487 L314 379 ZM941 137 L58 137 L58 206 L241 206 L241 650 L86 650 L86 720 L241 720 L241 835 L314 835 L314 720 L684 720 L684 835 L758 835 L758 720 L918 720 L918 650 L758 650 L758 206 L941 206 L941 137 ZM428 73 Q298 -7 97 -75 Q79 -49 48 -18 Q249 42 362 119 L428 73 ZM623 114 Q813 47 944 -24 L878 -73 Q756 -1 573 67 L623 114 Z" /><glyph glyph-name="uni5185" unicode="&#x5185;" d="M900 22 Q900 -46 855 -62 Q820 -75 669 -75 Q663 -34 644 0 Q750 -5 803 -2 Q827 -1 827 23 L827 593 L537 593 Q534 523 519 463 Q711 295 801 185 L740 137 Q667 234 497 392 Q435 231 254 124 Q232 157 201 180 Q450 313 463 593 L175 593 L175 -78 L102 -78 L102 666 L464 666 L464 837 L538 837 L538 666 L900 666 L900 22 Z" /><glyph glyph-name="uni5199" unicode="&#x5199;" d="M155 566 L82 566 L82 782 L920 782 L920 566 L844 566 L844 714 L155 714 L155 566 ZM945 150 L735 150 Q713 -4 672 -44 Q643 -73 589 -76 Q532 -79 427 -73 Q425 -34 402 -3 Q472 -10 565 -10 Q599 -10 611 1 Q641 27 661 150 L58 150 L58 219 L671 219 Q677 270 683 336 L296 336 L287 303 L213 310 Q260 475 301 706 L376 698 L354 588 L775 588 L775 522 L339 522 Q321 440 312 403 L763 403 Q762 378 760 368 Q753 287 745 219 L945 219 L945 150 Z" /><glyph glyph-name="uni51B3" unicode="&#x51b3;" d="M207 558 Q163 644 54 761 L113 797 Q224 682 271 600 L207 558 ZM269 296 Q199 134 105 -32 L42 13 Q130 156 214 342 L269 296 ZM635 504 Q635 431 629 379 L787 379 L787 608 L635 608 L635 504 ZM675 307 Q752 62 964 -11 Q940 -33 915 -75 Q695 14 612 279 Q552 45 304 -79 Q278 -41 251 -20 Q492 89 542 307 L308 307 L308 379 L554 379 Q559 433 559 504 L559 608 L359 608 L359 679 L559 679 L559 835 L635 835 L635 679 L859 679 L859 379 L958 379 L958 307 L675 307 Z" /><glyph glyph-name="uni51B5" unicode="&#x51b5;" d="M242 559 Q194 634 75 732 L126 780 Q247 687 297 614 L242 559 ZM291 365 Q195 179 102 38 L44 91 Q145 234 241 415 L291 365 ZM439 449 L818 449 L818 718 L439 718 L439 449 ZM864 5 Q884 5 891 33 Q897 61 899 160 Q923 141 965 130 Q959 16 940 -22 Q921 -61 870 -61 L769 -61 Q713 -61 693 -40 Q674 -19 674 39 L674 378 L557 378 Q546 190 498 96 Q439 -20 291 -76 Q271 -38 245 -18 Q381 30 433 131 Q474 211 482 378 L368 378 L368 789 L894 789 L894 378 L747 378 L747 40 Q747 18 753 12 Q759 5 778 5 L864 5 Z" /><glyph glyph-name="uni51C6" unicode="&#x51c6;" d="M246 574 Q190 643 69 724 L117 775 Q240 697 296 632 L246 574 ZM40 50 Q138 178 230 338 L283 289 Q200 140 102 0 L40 50 ZM467 40 L642 40 L642 178 L467 178 L467 40 ZM642 573 L467 573 L467 443 L642 443 L642 573 ZM642 376 L467 376 L467 243 L642 243 L642 376 ZM956 -28 L467 -28 L467 -76 L396 -76 L396 504 Q356 443 308 391 Q273 432 252 448 Q395 590 476 837 L548 817 Q516 725 474 640 L655 640 Q693 729 716 832 L792 811 Q755 706 726 640 L933 640 L933 573 L714 573 L714 443 L909 443 L909 376 L714 376 L714 243 L909 243 L909 178 L714 178 L714 40 L956 40 L956 -28 Z" /><glyph glyph-name="uni51E1" unicode="&#x51e1;" d="M399 536 Q547 388 608 311 L549 260 Q482 353 343 494 L399 536 ZM855 21 Q877 21 884 59 Q891 93 894 210 Q922 185 963 176 Q958 44 939 -1 Q918 -51 861 -51 L753 -51 Q696 -51 676 -26 Q656 0 656 72 L656 707 L315 707 L315 498 Q315 100 98 -79 Q66 -42 40 -25 Q239 138 239 499 L239 780 L730 780 L730 71 Q730 39 736 30 Q742 21 763 21 L855 21 Z" /><glyph glyph-name="uni51FA" unicode="&#x51fa;" d="M890 336 L890 -74 L814 -74 L814 -14 L190 -14 L190 -76 L116 -76 L116 336 L190 336 L190 59 L457 59 L457 400 L154 400 L154 742 L228 742 L228 472 L457 472 L457 831 L533 831 L533 472 L773 472 L773 742 L850 742 L850 400 L533 400 L533 59 L814 59 L814 336 L890 336 Z" /><glyph glyph-name="uni5207" unicode="&#x5207;&#xfa00;" d="M346 183 Q365 183 372 211 Q377 237 379 326 Q406 304 446 294 Q440 189 422 152 Q402 113 352 113 L247 113 Q191 113 172 136 Q153 159 153 226 L153 472 L46 449 L33 517 L153 543 L153 809 L226 809 L226 558 L451 606 L465 539 L226 488 L226 225 Q226 198 231 191 Q237 183 257 183 L346 183 ZM937 749 L936 708 Q919 38 873 -21 Q847 -59 796 -65 Q752 -71 656 -65 Q654 -27 632 11 Q690 6 766 6 Q791 5 805 23 Q845 72 861 678 L651 678 Q644 386 601 240 Q537 23 364 -80 Q346 -49 310 -21 Q476 71 534 272 Q572 404 576 678 L402 678 L402 749 L937 749 Z" /><glyph glyph-name="uni5212" unicode="&#x5212;" d="M453 633 Q406 698 310 774 L360 814 Q459 740 505 678 L453 633 ZM280 498 Q298 368 332 248 Q413 352 462 475 L533 454 Q469 300 359 168 Q420 0 484 0 Q518 0 526 161 Q557 131 589 122 Q579 10 555 -32 Q531 -73 480 -73 Q379 -73 304 108 Q208 12 95 -56 Q73 -24 42 3 Q172 72 276 182 Q232 314 208 491 L48 472 L40 542 L200 560 Q184 698 183 835 L258 835 Q258 700 272 568 L587 604 L594 534 L280 498 ZM717 181 L646 181 L646 726 L717 726 L717 181 ZM910 826 L910 21 Q910 -44 868 -61 Q832 -76 701 -76 Q694 -41 676 -3 Q765 -6 813 -3 Q837 -3 837 20 L837 825 L910 826 Z" /><glyph glyph-name="uni5219" unicode="&#x5219;" d="M370 162 Q502 56 552 1 L503 -53 Q448 12 324 116 L370 162 ZM535 783 L535 182 L463 182 L463 716 L176 716 L176 180 L106 180 L106 783 L535 783 ZM904 829 L904 28 Q904 -40 859 -57 Q816 -72 681 -71 Q673 -30 653 3 Q689 2 805 2 Q831 3 831 27 L831 829 L904 829 ZM717 747 L717 152 L647 152 L647 747 L717 747 ZM352 647 L352 364 Q352 47 94 -78 Q77 -44 48 -23 Q189 46 243 159 Q282 239 282 366 L282 647 L352 647 Z" /><glyph glyph-name="uni521B" unicode="&#x521b;" d="M451 3 Q485 3 495 28 Q505 52 509 141 Q541 121 575 114 Q568 9 545 -26 Q521 -62 456 -62 L271 -62 Q198 -62 172 -40 Q145 -17 145 47 L145 473 L507 473 Q507 452 506 443 Q492 210 464 179 Q445 158 407 153 Q356 150 309 154 Q306 189 291 218 Q327 214 376 214 Q396 214 405 223 Q424 248 434 407 L217 407 L217 47 Q217 19 228 11 Q239 3 277 3 L451 3 ZM384 814 Q384 813 364 771 Q527 604 594 505 L541 456 Q471 561 331 711 Q232 541 85 427 Q57 459 31 479 Q226 618 315 835 L384 814 ZM713 169 L642 169 L642 720 L713 720 L713 169 ZM909 821 L909 22 Q909 -43 864 -60 Q825 -75 684 -73 Q676 -35 658 -2 Q752 -6 810 -3 Q836 -2 836 22 L836 821 L909 821 Z" /><glyph glyph-name="uni5229" unicode="&#x5229;&#xf9dd;" d="M334 537 L525 537 L525 469 L334 469 L334 396 Q414 333 522 237 L479 176 Q421 240 334 320 L334 -74 L262 -74 L262 357 Q174 164 72 62 Q57 94 31 131 Q163 256 247 469 L53 469 L53 537 L262 537 L262 706 Q186 692 69 675 Q65 701 46 734 Q339 778 459 831 L514 774 Q442 745 334 721 L334 537 ZM664 171 L592 171 L592 718 L664 718 L664 171 ZM910 817 L910 23 Q910 -45 865 -64 Q826 -77 685 -77 Q676 -34 658 -2 Q769 -5 810 -3 Q836 -3 836 22 L836 817 L910 817 Z" /><glyph glyph-name="uni5230" unicode="&#x5230;" d="M566 94 L568 27 L55 -46 L43 28 Q106 35 274 56 L274 231 L83 231 L83 299 L274 299 L274 418 L346 418 L346 299 L534 299 L534 231 L346 231 L346 65 L566 94 ZM424 653 Q542 517 582 430 L524 395 Q507 429 490 457 Q396 450 258 443 L58 431 L52 502 L143 506 Q184 596 217 705 L54 705 L54 771 L564 771 L564 705 L300 705 Q244 563 218 509 Q412 517 448 519 Q412 570 369 622 L424 653 ZM678 167 L607 167 L607 717 L678 717 L678 167 ZM914 809 L914 24 Q914 -45 869 -63 Q833 -76 696 -76 Q688 -37 671 1 Q714 -1 818 -1 Q842 0 842 24 L842 809 L914 809 Z" /><glyph glyph-name="uni5236" unicode="&#x5236;" d="M362 520 L603 520 L603 452 L362 452 L362 352 L568 352 L568 79 Q568 28 538 14 Q513 2 422 2 Q417 34 400 67 Q470 65 486 67 Q500 67 500 80 L500 284 L362 284 L362 -75 L291 -75 L291 284 L162 284 L162 5 L94 5 L94 352 L291 352 L291 452 L48 452 L48 520 L291 520 L291 625 L161 625 Q135 561 111 522 Q89 536 45 550 Q111 648 145 813 L215 799 Q198 734 185 693 L291 693 L291 833 L362 833 L362 693 L564 693 L564 625 L362 625 L362 520 ZM745 196 L675 196 L675 746 L745 746 L745 196 ZM924 826 L924 26 Q924 -40 883 -58 Q847 -73 723 -73 Q715 -32 699 5 Q758 3 831 3 Q852 4 852 25 L852 826 L924 826 Z" /><glyph glyph-name="uni524D" unicode="&#x524d;" d="M411 202 L411 302 L190 302 L190 202 L411 202 ZM190 458 L190 360 L411 360 L411 458 L190 458 ZM483 9 Q483 -44 447 -60 Q419 -72 308 -72 Q301 -40 284 -7 Q364 -10 392 -8 Q411 -7 411 10 L411 143 L190 143 L190 -72 L119 -72 L119 522 L483 522 L483 9 ZM805 542 L878 542 L878 17 Q878 -44 838 -60 Q799 -75 680 -73 Q673 -39 653 -2 Q750 -5 783 -3 Q805 -2 805 17 L805 542 ZM673 106 L604 106 L604 512 L673 512 L673 106 ZM945 679 L945 611 L57 611 L57 679 L302 679 Q276 736 211 812 L279 838 Q346 766 379 698 L330 679 L628 679 Q684 758 722 841 L800 815 Q765 755 711 679 L945 679 Z" /><glyph glyph-name="uni2F12" unicode="&#x2f12;&#x529b;&#xf98a;" d="M904 619 Q903 591 902 580 Q873 37 815 -29 Q787 -63 730 -69 Q680 -73 570 -66 Q568 -24 545 10 Q624 3 702 3 Q733 3 748 18 Q799 66 825 545 L484 545 Q456 128 114 -81 Q89 -43 57 -22 Q377 168 407 545 L87 545 L87 619 L411 619 L411 835 L488 835 L488 619 L904 619 Z" /><glyph glyph-name="uni529E" unicode="&#x529e;" d="M753 653 L752 612 Q731 45 682 -15 Q651 -53 598 -57 Q556 -62 438 -56 Q436 -17 412 23 Q479 17 566 17 Q594 16 609 32 Q652 77 670 579 L467 579 Q448 134 106 -81 Q80 -45 46 -20 Q369 178 388 579 L90 579 L90 653 L390 653 L390 835 L469 835 L469 653 L753 653 ZM253 467 Q188 280 117 187 L49 227 Q134 324 186 495 L253 467 ZM844 503 Q926 331 957 195 L883 169 Q860 299 777 480 L844 503 Z" /><glyph glyph-name="uni52A0" unicode="&#x52a0;" d="M490 611 Q479 30 444 -19 Q421 -53 378 -57 Q337 -63 261 -58 Q257 -12 239 17 Q285 13 346 13 Q370 11 379 29 Q409 65 418 576 L267 576 Q251 98 89 -77 Q69 -48 33 -26 Q181 130 195 576 L57 576 L57 649 L197 649 Q198 706 198 823 L271 823 Q271 763 269 649 L490 649 L490 611 ZM836 83 L836 641 L642 641 L642 83 L836 83 ZM910 713 L910 -54 L836 -54 L836 12 L642 12 L642 -61 L572 -61 L572 713 L910 713 Z" /><glyph glyph-name="uni52A8" unicode="&#x52a8;" d="M477 688 L93 688 L93 755 L477 755 L477 688 ZM446 67 L428 132 Q124 65 93 46 L93 50 Q92 49 92 47 Q87 74 69 116 Q86 120 114 184 Q162 297 195 450 L57 450 L57 518 L494 518 L494 450 L272 450 Q232 288 170 145 L407 195 Q375 287 349 347 L410 364 Q481 202 512 88 L446 67 ZM942 607 L941 570 Q924 30 882 -24 Q856 -56 810 -62 Q766 -66 672 -61 Q668 -19 649 12 Q705 7 779 7 Q804 6 817 22 Q853 62 868 536 L719 536 Q694 94 517 -76 Q492 -41 459 -22 Q625 130 646 536 L507 536 L507 607 L649 607 Q652 677 652 820 L725 820 Q725 712 722 607 L942 607 Z" /><glyph glyph-name="uni52B1" unicode="&#x52b1;" d="M520 417 L519 386 Q503 15 472 -25 Q452 -52 415 -53 Q384 -57 319 -54 Q317 -20 303 9 Q348 4 386 4 Q407 4 415 17 Q440 46 452 353 L341 353 Q317 41 198 -83 Q178 -51 147 -34 Q273 96 280 537 L173 537 L173 417 Q173 82 95 -73 Q68 -48 34 -38 Q104 103 104 416 L104 780 L569 780 L569 711 L173 711 L173 604 L537 604 L537 537 L348 537 Q346 457 344 417 L520 417 ZM930 589 L929 553 Q916 13 879 -39 Q855 -71 814 -75 Q782 -79 698 -75 Q696 -36 678 -6 Q724 -10 784 -10 Q805 -11 818 5 Q847 41 860 520 L739 520 Q718 88 555 -79 Q531 -47 500 -30 Q652 119 671 520 L562 520 L562 589 L674 589 Q676 663 676 820 L745 820 Q745 700 742 589 L930 589 Z" /><glyph glyph-name="uni5305" unicode="&#x5305;" d="M273 632 Q192 517 100 442 Q60 482 38 496 Q211 623 304 842 L379 820 Q355 765 318 703 L870 703 L870 668 Q855 228 821 184 Q799 155 758 150 Q717 145 642 150 Q640 186 623 221 Q688 215 723 217 Q745 216 756 230 Q783 265 794 632 L273 632 ZM271 462 L271 301 L531 301 L531 462 L271 462 ZM776 15 Q839 15 859 39 Q878 61 886 140 Q914 121 957 113 Q946 13 912 -20 Q876 -55 777 -55 L400 -55 Q282 -55 241 -28 Q198 1 198 83 L198 529 L604 529 L604 234 L271 234 L271 83 Q271 42 294 29 Q318 15 396 15 L776 15 Z" /><glyph glyph-name="uni533A" unicode="&#x533a;" d="M948 -20 L171 -20 L171 -78 L97 -78 L97 775 L925 775 L925 704 L171 704 L171 50 L948 50 L948 -20 ZM767 132 Q700 218 563 335 Q436 192 291 95 Q264 127 231 152 Q381 243 507 381 Q399 468 273 549 L325 596 Q438 526 554 436 Q646 548 708 669 L779 645 Q709 514 611 391 Q751 279 825 188 L767 132 Z" /><glyph glyph-name="uni2F17" unicode="&#x2f17;&#x5341;" d="M949 389 L541 389 L541 -76 L462 -76 L462 389 L59 389 L59 465 L462 465 L462 835 L541 835 L541 465 L949 465 L949 389 Z" /><glyph glyph-name="uni534E" unicode="&#x534e;" d="M530 556 Q441 530 386 516 Q378 544 359 574 Q466 603 530 624 L530 823 L603 823 L603 650 Q769 710 852 770 L909 713 Q799 644 603 579 L603 468 Q603 444 613 437 Q624 430 659 430 L821 430 Q849 430 858 450 Q866 470 870 541 Q894 522 936 512 Q930 425 908 395 Q886 365 826 365 L651 365 Q580 365 555 386 Q530 408 530 469 L530 556 ZM226 604 Q164 546 105 505 Q77 540 51 560 Q225 668 327 838 L395 813 Q357 750 299 682 L299 338 L226 338 L226 604 ZM945 150 L538 150 L538 -77 L461 -77 L461 150 L55 150 L55 222 L461 222 L461 339 L538 339 L538 222 L945 222 L945 150 Z" /><glyph glyph-name="uni534F" unicode="&#x534f;" d="M235 535 L235 -76 L164 -76 L164 535 L51 535 L51 604 L164 604 L164 837 L235 837 L235 604 L342 604 L342 535 L235 535 ZM454 461 Q420 291 349 182 Q323 206 293 221 Q358 314 388 473 L454 461 ZM829 610 Q815 26 775 -26 Q751 -59 702 -65 Q657 -69 565 -64 Q561 -22 542 7 Q613 2 673 2 Q699 2 711 18 Q745 58 757 576 L619 576 Q607 146 339 -78 Q315 -46 283 -28 Q536 181 548 576 L372 576 L372 648 L549 648 L549 827 L620 827 L620 648 L829 648 L829 610 ZM899 470 Q952 304 968 191 L900 174 Q885 294 837 457 L899 470 Z" /><glyph glyph-name="uni5355" unicode="&#x5355;" d="M460 329 L460 436 L224 436 L224 329 L460 329 ZM224 496 L460 496 L460 601 L224 601 L224 496 ZM783 601 L535 601 L535 496 L783 496 L783 601 ZM783 436 L535 436 L535 329 L783 329 L783 436 ZM944 102 L535 102 L535 -76 L460 -76 L460 102 L57 102 L57 171 L460 171 L460 266 L151 266 L151 664 L335 664 Q294 738 238 802 L300 832 Q376 751 408 685 L367 664 L608 664 Q665 742 708 832 L787 805 Q746 738 691 664 L858 664 L858 266 L535 266 L535 171 L944 171 L944 102 Z" /><glyph glyph-name="uni5373" unicode="&#x5373;" d="M182 714 L182 588 L412 588 L412 714 L182 714 ZM412 398 L412 522 L182 522 L182 398 L412 398 ZM354 281 Q475 130 519 8 L454 -26 Q440 14 407 77 L68 -25 L43 50 Q87 61 112 68 L112 783 L481 783 L481 329 L182 329 L182 87 Q288 116 371 140 Q335 198 294 252 L354 281 ZM917 177 Q917 112 880 95 Q849 80 734 80 Q728 123 708 161 Q779 157 824 160 Q842 160 842 179 L842 708 L631 708 L631 -76 L557 -76 L557 782 L917 782 L917 177 Z" /><glyph glyph-name="uni538B" unicode="&#x538b;" d="M606 36 L949 36 L949 -35 L196 -35 L196 36 L532 36 L532 379 L261 379 L261 450 L532 450 L532 663 L606 663 L606 450 L901 450 L901 379 L606 379 L606 36 ZM736 307 Q833 226 879 157 L823 114 Q779 186 683 271 L736 307 ZM952 717 L190 717 L190 469 Q190 101 96 -78 Q74 -54 36 -36 Q118 122 118 468 L118 789 L952 789 L952 717 Z" /><glyph glyph-name="uni539F" unicode="&#x539f;" d="M443 187 Q364 59 240 -34 Q220 -14 179 10 Q301 89 373 207 L443 187 ZM370 318 L783 318 L783 410 L370 410 L370 318 ZM370 466 L783 466 L783 557 L370 557 L370 466 ZM611 259 L611 4 Q611 -52 573 -65 Q543 -76 418 -76 Q414 -51 395 -11 Q487 -14 520 -12 Q539 -12 539 5 L539 259 L297 259 L297 616 L506 616 Q522 670 529 714 L207 714 L207 494 Q207 112 102 -74 Q72 -49 38 -36 Q134 134 134 495 L134 781 L940 781 L940 714 L616 714 Q597 652 584 616 L859 616 L859 259 L611 259 ZM754 211 Q895 101 957 11 L897 -30 Q837 63 697 175 L754 211 Z" /><glyph glyph-name="uni53BB" unicode="&#x53bb;" d="M463 351 Q383 171 315 51 Q597 63 768 72 Q710 156 639 237 L707 270 Q863 100 938 -45 L865 -84 Q850 -53 817 1 L102 -35 L91 43 L231 48 Q309 187 369 351 L56 351 L56 424 L459 424 L459 613 L133 613 L133 686 L459 686 L459 837 L536 837 L536 686 L874 686 L874 613 L536 613 L536 424 L948 424 L948 351 L463 351 Z" /><glyph glyph-name="uni53C2" unicode="&#x53c2;" d="M826 144 Q661 -25 225 -82 Q212 -47 190 -20 Q611 25 762 175 L826 144 ZM692 258 Q557 148 288 87 Q271 118 247 140 Q509 193 632 287 L692 258 ZM588 375 Q482 294 295 242 Q265 277 251 287 Q437 335 529 403 L588 375 ZM694 451 Q804 322 967 259 Q938 234 918 201 Q733 283 612 451 L391 451 Q271 288 77 196 Q61 220 22 254 Q193 324 301 451 L56 451 L56 515 L349 515 Q375 554 398 604 L103 596 L94 664 L260 667 Q329 757 368 837 L448 815 Q389 726 342 669 Q533 672 718 678 Q655 727 606 760 L664 795 Q832 691 917 591 L856 550 Q836 574 788 619 L479 607 Q456 554 433 515 L946 515 L946 451 L694 451 Z" /><glyph glyph-name="uni53CD" unicode="&#x53cd;" d="M390 451 Q451 286 566 177 Q692 293 749 451 L390 451 ZM847 505 Q785 278 625 128 Q757 30 942 -10 Q916 -32 892 -78 Q701 -31 565 77 Q434 -24 258 -76 Q238 -32 215 -9 Q378 33 507 128 Q381 255 312 451 L246 451 Q240 104 117 -74 Q90 -47 54 -30 Q174 141 174 503 L174 773 L902 773 L902 701 L247 701 L247 522 L781 522 L796 526 L847 505 Z" /><glyph glyph-name="uni53D1" unicode="&#x53d1;" d="M798 640 Q762 691 672 787 L729 823 Q820 730 858 681 L798 640 ZM428 361 Q486 241 588 155 Q689 243 741 361 L428 361 ZM841 412 Q782 231 647 110 Q779 20 961 -14 Q935 -39 915 -80 Q724 -38 590 63 Q459 -31 282 -79 Q268 -46 243 -15 Q406 23 531 111 Q442 194 382 306 Q275 116 90 1 Q69 33 35 58 Q289 213 393 539 L254 539 Q162 539 148 522 Q132 572 123 592 Q142 597 159 632 Q200 701 226 809 L304 794 Q282 711 232 611 L412 611 Q441 719 454 840 L537 828 Q520 708 497 611 L928 611 L927 539 L477 539 Q461 488 442 433 L777 433 L791 437 L841 412 Z" /><glyph glyph-name="uni53D6" unicode="&#x53d6;" d="M394 705 L199 705 L199 572 L394 572 L394 705 ZM199 148 Q260 156 394 176 L394 299 L199 299 L199 148 ZM394 506 L199 506 L199 367 L394 367 L394 506 ZM466 705 L466 -74 L394 -74 L394 107 Q329 96 208 77 Q91 59 45 51 L32 126 Q78 131 129 138 L129 705 L51 705 L51 774 L536 774 L536 705 L466 705 ZM930 689 Q892 379 768 182 Q854 57 974 -4 Q944 -29 921 -65 Q805 1 722 116 Q635 6 518 -62 Q498 -27 469 -2 Q589 60 679 183 Q583 347 530 610 L601 623 Q642 406 724 253 Q814 412 848 627 L511 627 L511 700 L868 700 L882 703 L930 689 Z" /><glyph glyph-name="uni53D7" unicode="&#x53d7;" d="M870 780 Q594 722 102 703 Q101 728 85 766 Q573 787 818 840 L870 780 ZM482 556 Q472 624 432 703 L499 718 Q540 640 552 573 L482 556 ZM145 347 L75 347 L75 550 L234 550 Q214 609 168 682 L232 700 Q284 627 303 569 L244 550 L679 550 Q736 636 772 720 L847 697 Q812 634 755 550 L926 550 L926 347 L853 347 L853 484 L145 484 L145 347 ZM307 302 Q377 202 503 130 Q628 202 693 302 L307 302 ZM804 343 Q730 191 575 92 Q732 21 945 -5 Q920 -30 900 -74 Q670 -42 501 50 Q334 -36 98 -74 Q80 -34 54 -8 Q279 23 430 92 Q303 179 228 298 L238 302 L195 302 L195 371 L740 371 L755 374 L804 343 Z" /><glyph glyph-name="uni53D8" unicode="&#x53d8;" d="M348 669 L74 669 L74 735 L483 735 Q459 788 432 828 L504 846 Q543 789 567 735 L927 735 L927 669 L650 669 L650 368 L576 368 L576 669 L422 669 L422 367 L348 367 L348 669 ZM745 621 Q854 525 917 434 L859 396 Q796 491 689 589 L745 621 ZM292 609 Q241 486 149 397 Q125 419 91 437 Q180 514 225 627 L292 609 ZM296 273 Q371 177 500 111 Q634 176 709 273 L296 273 ZM821 309 Q741 171 576 76 Q732 11 952 -14 Q929 -37 910 -79 Q671 -48 498 37 Q331 -40 92 -79 Q78 -42 55 -13 Q267 15 424 77 Q294 158 216 273 L135 273 L135 339 L760 339 L773 343 L821 309 Z" /><glyph glyph-name="uni53E4" unicode="&#x53e4;" d="M760 298 L240 298 L240 46 L760 46 L760 298 ZM539 584 L539 369 L839 369 L839 -74 L760 -74 L760 -25 L240 -25 L240 -78 L165 -78 L165 369 L460 369 L460 584 L57 584 L57 657 L460 657 L460 837 L539 837 L539 657 L946 657 L946 584 L539 584 Z" /><glyph glyph-name="uni53EA" unicode="&#x53ea;" d="M242 698 L242 341 L775 341 L775 698 L242 698 ZM242 234 L169 234 L169 768 L852 768 L852 239 L775 239 L775 271 L242 271 L242 234 ZM419 171 Q298 24 121 -77 Q86 -42 61 -24 Q247 75 340 202 L419 171 ZM649 200 Q841 66 929 -33 L865 -79 Q779 22 589 160 L649 200 Z" /><glyph glyph-name="uni53EF" unicode="&#x53ef;" d="M233 474 L233 246 L494 246 L494 474 L233 474 ZM233 175 L233 95 L161 95 L161 546 L567 546 L567 175 L233 175 ZM944 692 L821 692 L821 30 Q821 -46 770 -61 Q730 -75 563 -75 Q554 -36 531 4 Q638 -1 716 2 Q745 3 745 31 L745 692 L59 692 L59 766 L944 766 L944 692 Z" /><glyph glyph-name="uni5403" unicode="&#x5403;" d="M148 674 L148 239 L274 239 L274 674 L148 674 ZM342 167 L148 167 L148 90 L79 90 L79 746 L342 746 L342 167 ZM523 614 Q480 526 421 456 Q389 485 359 505 Q473 625 531 837 L605 820 Q585 754 556 684 L942 684 L942 614 L523 614 ZM837 12 Q870 12 880 38 Q892 66 895 161 Q925 143 963 136 Q956 13 928 -26 Q903 -61 833 -61 L559 -61 Q405 -61 405 40 Q405 86 451 144 Q521 232 731 409 L467 409 L467 478 L825 478 L842 481 L893 453 Q892 450 881 439 Q482 113 482 49 Q482 12 556 12 L837 12 Z" /><glyph glyph-name="uni5408" unicode="&#x5408;" d="M271 254 L271 31 L730 31 L730 254 L271 254 ZM198 321 L806 321 L806 -77 L730 -77 L730 -36 L271 -36 L271 -77 L198 -77 L198 321 ZM751 512 L751 446 L250 446 L250 512 L751 512 ZM531 834 Q701 599 970 477 Q947 456 921 413 Q648 556 498 762 Q358 553 83 407 Q66 438 37 466 Q319 608 456 834 L531 834 Z" /><glyph glyph-name="uni540C" unicode="&#x540c;" d="M369 378 L369 189 L631 189 L631 378 L369 378 ZM369 125 L369 53 L300 53 L300 441 L701 441 L701 125 L369 125 ZM754 545 L250 545 L250 610 L754 610 L754 545 ZM911 17 Q911 -46 870 -64 Q834 -78 703 -78 Q698 -41 676 -5 Q777 -8 814 -6 Q838 -5 838 17 L838 714 L163 714 L163 -79 L91 -79 L91 785 L911 785 L911 17 Z" /><glyph glyph-name="uni540D" unicode="&#x540d;" d="M771 44 L771 271 L327 271 L327 44 L771 44 ZM847 -76 L771 -76 L771 -24 L327 -24 L327 -76 L254 -76 L254 253 Q174 225 88 205 Q76 245 50 273 Q249 315 418 405 Q344 472 266 528 L322 571 Q414 509 487 445 Q647 544 732 669 L362 669 Q260 571 125 500 Q101 538 74 556 Q297 664 408 840 L491 822 Q457 771 426 737 L780 737 L792 741 L842 710 Q727 487 450 340 L847 340 L847 -76 Z" /><glyph glyph-name="uni540E" unicode="&#x540e;" d="M384 278 L384 43 L798 43 L798 278 L384 278 ZM313 348 L871 348 L871 -75 L798 -75 L798 -25 L384 -25 L384 -77 L313 -77 L313 348 ZM959 562 L959 490 L226 490 L226 480 Q226 108 93 -77 Q70 -43 35 -27 Q152 139 152 481 L152 760 L228 745 Q617 776 814 828 L876 769 Q650 711 226 679 L226 562 L959 562 Z" /><glyph glyph-name="uni542B" unicode="&#x542b;" d="M738 207 L266 207 L266 28 L738 28 L738 207 ZM798 469 Q750 374 687 273 L814 273 L814 -77 L738 -77 L738 -38 L266 -38 L266 -77 L193 -77 L193 273 L600 273 Q636 330 687 419 L176 419 L176 484 L728 484 L742 489 L798 469 ZM682 630 Q567 702 496 776 Q431 704 320 630 L682 630 ZM527 838 Q697 660 965 573 Q943 551 920 511 Q813 551 697 621 L697 567 L311 567 L311 624 Q204 555 81 504 Q64 537 39 563 Q318 665 457 838 L527 838 Z" /><glyph glyph-name="uni544A" unicode="&#x544a;" d="M262 231 L262 40 L747 40 L747 231 L262 231 ZM188 300 L822 300 L822 -84 L747 -84 L747 -30 L262 -30 L262 -86 L188 -86 L188 300 ZM939 468 L939 398 L65 398 L65 468 L484 468 L484 625 L239 625 Q189 540 144 491 Q110 514 77 531 Q187 638 250 827 L324 810 Q306 758 275 693 L484 693 L484 837 L561 837 L561 693 L865 693 L865 625 L561 625 L561 468 L939 468 Z" /><glyph glyph-name="uni5458" unicode="&#x5458;" d="M269 614 L734 614 L734 727 L269 727 L269 614 ZM813 792 L813 548 L193 548 L193 792 L813 792 ZM534 328 L534 235 Q534 136 465 70 Q368 -24 119 -80 Q99 -45 70 -19 Q308 28 397 105 Q456 157 456 237 L456 328 L534 328 ZM565 122 Q812 40 933 -18 L894 -80 Q763 -13 528 68 L565 122 ZM853 461 L853 102 L774 102 L774 391 L233 391 L233 95 L158 95 L158 461 L853 461 Z" /><glyph glyph-name="uni548C" unicode="&#x548c;" d="M322 543 L496 543 L496 474 L322 474 L322 448 Q397 369 489 255 L444 194 Q415 242 322 363 L322 -74 L249 -74 L249 366 Q168 173 70 68 Q57 99 29 136 Q153 260 230 474 L54 474 L54 543 L249 543 L249 709 Q172 697 84 685 Q77 718 63 744 Q318 779 439 827 L489 769 Q420 744 322 723 L322 543 ZM826 122 L826 673 L603 673 L603 122 L826 122 ZM900 744 L900 -25 L826 -25 L826 50 L603 50 L603 -32 L530 -32 L530 744 L900 744 Z" /><glyph glyph-name="uni54C1" unicode="&#x54c1;" d="M700 723 L303 723 L303 534 L700 534 L700 723 ZM775 463 L231 463 L231 794 L775 794 L775 463 ZM157 286 L157 49 L366 49 L366 286 L157 286 ZM86 358 L439 358 L439 -68 L366 -68 L366 -23 L157 -23 L157 -77 L86 -77 L86 358 ZM847 49 L847 286 L620 286 L620 49 L847 49 ZM920 358 L920 -70 L847 -70 L847 -23 L620 -23 L620 -77 L548 -77 L548 358 L920 358 Z" /><glyph glyph-name="uni54CD" unicode="&#x54cd;" d="M143 673 L143 256 L262 256 L262 673 L143 673 ZM326 187 L143 187 L143 92 L77 92 L77 742 L326 742 L326 187 ZM606 436 L606 215 L723 215 L723 436 L606 436 ZM606 160 L606 103 L552 103 L552 491 L776 491 L776 160 L606 160 ZM930 11 Q930 -44 896 -60 Q864 -75 767 -73 Q763 -45 744 -4 Q773 -6 841 -6 Q858 -5 858 12 L858 604 L471 604 L471 -70 L400 -70 L400 669 L570 669 Q605 752 626 839 L709 821 Q677 737 646 669 L930 669 L930 11 Z" /><glyph glyph-name="uni54D2" unicode="&#x54d2;" d="M878 87 Q842 207 748 393 Q705 207 584 80 Q559 109 530 127 Q672 269 700 522 L539 522 L539 593 L705 593 Q706 621 706 672 L706 837 L776 837 L776 671 Q776 620 774 593 L941 593 L941 522 L769 522 L766 495 Q893 273 939 125 L878 87 ZM434 591 Q404 669 345 761 L402 790 Q463 700 495 625 L434 591 ZM139 679 L139 222 L234 222 L234 679 L139 679 ZM294 149 L139 149 L139 58 L78 58 L78 751 L294 751 L294 149 ZM491 83 Q501 78 521 66 Q544 51 558 43 Q623 5 744 5 Q871 5 968 17 Q951 -27 949 -61 Q835 -68 742 -68 Q622 -68 544 -22 Q470 25 459 25 Q428 25 358 -79 L308 -10 Q373 62 424 83 L424 426 L331 426 L331 495 L491 495 L491 83 Z" /><glyph glyph-name="uni552F" unicode="&#x552f;" d="M505 46 L667 46 L667 180 L505 180 L505 46 ZM667 575 L505 575 L505 444 L667 444 L667 575 ZM667 378 L505 378 L505 247 L667 247 L667 378 ZM276 665 L145 665 L145 257 L276 257 L276 665 ZM962 -21 L505 -21 L505 -78 L434 -78 L434 490 Q405 443 364 393 L342 423 L342 188 L145 188 L145 112 L78 112 L78 733 L342 733 L342 491 Q447 626 503 830 L575 812 Q550 727 513 642 L674 642 Q711 731 734 824 L814 807 Q761 676 745 642 L946 642 L946 575 L737 575 L737 444 L920 444 L920 378 L737 378 L737 247 L920 247 L920 180 L737 180 L737 46 L962 46 L962 -21 Z" /><glyph glyph-name="uni5546" unicode="&#x5546;" d="M382 217 L382 89 L625 89 L625 217 L382 217 ZM382 31 L382 -30 L316 -30 L316 275 L693 275 L693 31 L382 31 ZM603 569 Q632 619 655 674 L343 674 Q374 622 390 569 L603 569 ZM742 674 Q712 614 685 569 L896 569 L896 16 Q896 -48 854 -64 Q818 -76 684 -76 Q678 -36 659 -4 Q747 -8 802 -5 Q824 -5 824 16 L824 504 L615 504 L615 405 Q615 390 620 387 Q625 383 644 383 L731 383 Q748 383 753 394 Q758 405 760 449 Q776 435 817 426 Q812 367 795 346 Q779 326 739 326 L636 326 Q584 326 566 342 Q549 357 549 404 L549 504 L430 504 Q421 411 379 364 Q333 312 227 287 Q215 317 191 339 Q283 358 321 396 Q355 432 363 504 L184 504 L184 -75 L114 -75 L114 569 L310 569 Q292 621 263 674 L72 674 L72 742 L459 742 L459 836 L534 836 L534 742 L930 742 L930 674 L742 674 Z" /><glyph glyph-name="uni56DE" unicode="&#x56de;" d="M618 499 L376 499 L376 271 L618 271 L618 499 ZM691 566 L691 205 L305 205 L305 566 L691 566 ZM836 48 L836 721 L161 721 L161 48 L836 48 ZM915 795 L915 -76 L836 -76 L836 -22 L161 -22 L161 -76 L86 -76 L86 795 L915 795 Z" /><glyph glyph-name="uni56E0" unicode="&#x56e0;" d="M546 453 Q602 219 796 153 Q769 130 750 93 Q568 165 501 380 Q449 172 246 89 Q231 122 202 146 Q406 224 446 453 L214 453 L214 520 L455 520 Q460 570 464 677 L533 677 Q529 571 524 520 L786 520 L786 453 L546 453 ZM841 40 L841 719 L159 719 L159 40 L841 40 ZM917 790 L917 -76 L841 -76 L841 -31 L159 -31 L159 -76 L85 -76 L85 790 L917 790 Z" /><glyph glyph-name="uni56E2" unicode="&#x56e2;" d="M577 518 L577 411 Q635 454 685 505 L741 459 Q669 387 577 330 L577 143 Q577 90 543 75 Q516 63 414 63 Q409 92 390 127 Q470 125 491 127 Q508 128 508 144 L508 289 Q382 219 259 175 Q240 206 217 228 Q372 281 508 365 L508 518 L226 518 L226 583 L508 583 L508 688 L577 688 L577 583 L782 583 L782 518 L577 518 ZM840 31 L840 725 L157 725 L157 31 L840 31 ZM913 793 L913 -77 L840 -77 L840 -35 L157 -35 L157 -77 L87 -77 L87 793 L913 793 Z" /><glyph glyph-name="uni56F4" unicode="&#x56f4;" d="M785 333 Q784 315 782 305 Q768 163 742 137 Q724 119 692 116 Q645 114 598 116 Q596 145 582 176 Q618 172 661 172 Q682 172 689 179 Q703 196 712 270 L529 270 L529 66 L459 66 L459 270 L211 270 L211 333 L459 333 L459 418 L267 418 L267 478 L459 478 L459 560 L225 560 L225 622 L459 622 L459 703 L529 703 L529 622 L776 622 L776 560 L529 560 L529 478 L737 478 L737 418 L529 418 L529 333 L785 333 ZM844 37 L844 730 L155 730 L155 37 L844 37 ZM917 796 L917 -76 L844 -76 L844 -27 L155 -27 L155 -76 L85 -76 L85 796 L917 796 Z" /><glyph glyph-name="uni56FD" unicode="&#x56fd;" d="M775 197 L775 134 L230 134 L230 197 L460 197 L460 365 L272 365 L272 429 L460 429 L460 571 L244 571 L244 638 L755 638 L755 571 L530 571 L530 429 L730 429 L730 365 L530 365 L530 197 L775 197 ZM640 347 Q709 287 741 238 L690 208 Q662 254 593 321 L640 347 ZM833 42 L833 722 L164 722 L164 42 L833 42 ZM910 791 L910 -77 L833 -77 L833 -27 L164 -27 L164 -77 L90 -77 L90 791 L910 791 Z" /><glyph glyph-name="uni56FE" unicode="&#x56fe;" d="M312 204 Q534 179 714 118 L680 63 Q505 126 278 153 L312 204 ZM407 324 Q538 298 643 251 L612 201 Q513 250 377 279 L407 324 ZM379 562 Q428 508 506 464 Q590 512 643 568 L385 568 L379 562 ZM747 603 Q688 510 569 432 Q682 378 820 353 Q796 329 779 297 Q634 328 508 396 Q371 322 212 286 Q197 322 177 347 Q310 371 445 433 Q382 475 337 522 Q289 479 246 451 Q220 479 195 496 Q339 581 415 704 L476 684 Q463 660 436 626 L693 626 L705 629 L747 603 ZM840 31 L840 725 L159 725 L159 31 L840 31 ZM913 793 L913 -77 L840 -77 L840 -35 L159 -35 L159 -77 L87 -77 L87 793 L913 793 Z" /><glyph glyph-name="uni5728" unicode="&#x5728;" d="M671 17 L935 17 L935 -53 L334 -53 L334 17 L597 17 L597 298 L373 298 L373 368 L597 368 L597 559 L671 559 L671 368 L896 368 L896 298 L671 298 L671 17 ZM935 682 L935 611 L390 611 Q334 495 269 407 L269 -73 L196 -73 L196 319 Q147 266 80 218 Q69 249 42 285 Q203 399 306 611 L66 611 L66 682 L339 682 Q370 758 392 837 L468 818 Q451 760 420 682 L935 682 Z" /><glyph glyph-name="uni5730" unicode="&#x5730;" d="M243 238 Q330 276 357 286 L372 220 Q304 188 65 82 L36 156 Q91 175 173 210 L173 527 L45 527 L45 598 L173 598 L173 825 L243 825 L243 598 L360 598 L360 527 L243 527 L243 238 ZM819 13 Q862 13 876 41 Q889 67 894 155 Q925 133 961 126 Q952 20 926 -15 Q897 -54 821 -54 L576 -54 Q490 -54 460 -27 Q429 1 429 80 L429 395 L350 362 L321 426 L429 472 L429 744 L500 744 L500 502 L634 559 L634 837 L705 837 L705 588 L837 644 L867 669 L919 649 L915 635 Q915 309 905 261 Q898 207 852 195 Q824 188 758 188 Q751 232 740 252 Q764 251 807 251 Q831 251 837 277 Q844 311 844 571 L705 512 L705 145 L634 145 L634 482 L500 425 L500 79 Q500 39 515 26 Q530 13 578 13 L819 13 Z" /><glyph glyph-name="uni573A" unicode="&#x573a;" d="M937 515 Q936 489 934 480 Q908 26 858 -34 Q833 -64 791 -67 Q756 -71 684 -68 Q682 -28 665 3 Q716 -2 760 -2 Q784 -2 794 13 Q834 53 860 445 L792 445 Q690 94 436 -76 Q409 -49 379 -33 Q626 113 723 445 L639 445 Q572 254 417 143 Q407 155 365 184 L367 176 Q140 85 63 56 L39 131 Q105 152 175 178 L175 524 L53 524 L53 594 L175 594 L175 825 L245 825 L245 594 L355 594 L355 524 L245 524 L245 203 L352 243 L365 186 Q505 278 568 445 L498 445 Q423 445 411 433 Q401 465 380 503 Q411 508 480 552 Q591 623 696 719 L375 719 L375 790 L776 790 L790 796 L846 754 Q692 615 537 515 L937 515 Z" /><glyph glyph-name="uni5740" unicode="&#x5740;" d="M394 230 Q179 137 65 91 L38 163 L184 218 L184 527 L48 527 L48 598 L184 598 L184 824 L254 824 L254 598 L384 598 L384 527 L254 527 L254 245 L380 295 L394 230 ZM958 30 L958 -41 L313 -41 L313 30 L435 30 L435 619 L508 619 L508 30 L655 30 L655 830 L729 830 L729 492 L944 492 L944 421 L729 421 L729 30 L958 30 Z" /><glyph glyph-name="uni5747" unicode="&#x5747;" d="M772 219 Q473 100 423 81 L393 151 Q479 179 760 282 L772 219 ZM747 471 L747 404 L439 404 L439 471 L747 471 ZM940 671 L939 632 Q918 24 869 -34 Q842 -70 788 -75 Q748 -80 632 -74 Q630 -33 609 1 Q675 -6 760 -6 Q788 -6 803 10 Q846 58 864 602 L498 602 Q448 501 387 429 Q361 455 323 476 Q351 508 370 534 L253 534 L253 246 L377 296 L393 227 L64 88 L37 163 Q88 181 181 217 L181 534 L56 534 L56 605 L181 605 L181 831 L253 831 L253 605 L370 605 L370 534 Q460 662 507 837 L582 820 Q560 746 529 671 L940 671 Z" /><glyph glyph-name="uni574F" unicode="&#x574f;" d="M368 268 L381 199 Q218 135 62 77 L37 151 L178 199 L178 522 L56 522 L56 593 L178 593 L178 824 L248 824 L248 593 L357 593 L357 522 L248 522 L248 224 L368 268 ZM745 700 Q715 633 674 573 L674 -74 L601 -74 L601 478 Q500 362 368 282 Q348 312 313 342 Q547 465 662 700 L354 700 L354 771 L955 771 L955 700 L745 700 ZM730 539 Q895 418 969 337 L918 283 Q835 378 682 492 L730 539 Z" /><glyph glyph-name="uni575A" unicode="&#x575a;" d="M539 726 Q582 614 664 531 Q753 615 798 726 L539 726 ZM888 777 Q839 601 718 485 Q817 410 952 379 Q922 347 904 313 Q764 353 664 437 Q575 366 449 322 Q434 360 408 386 Q519 417 612 487 Q523 585 475 723 L485 726 L441 726 L441 791 L829 791 L842 794 L888 777 ZM372 326 L304 326 L304 816 L372 816 L372 326 ZM184 364 L116 364 L116 770 L184 770 L184 364 ZM535 21 L946 21 L946 -45 L57 -45 L57 21 L461 21 L461 165 L157 165 L157 229 L461 229 L461 304 L535 304 L535 229 L842 229 L842 165 L535 165 L535 21 Z" /><glyph glyph-name="uni578B" unicode="&#x578b;" d="M890 385 Q890 328 852 313 Q819 301 703 301 Q698 332 678 369 Q775 366 800 369 Q819 369 819 387 L819 830 L890 830 L890 385 ZM703 447 L634 447 L634 780 L703 780 L703 447 ZM266 593 L389 593 L389 730 L266 730 L266 593 ZM261 527 Q239 369 111 288 Q89 319 62 340 Q170 406 192 527 L71 527 L71 593 L197 593 L197 730 L104 730 L104 796 L552 796 L552 730 L459 730 L459 593 L572 593 L572 527 L459 527 L459 313 L389 313 L389 527 L261 527 ZM949 27 L949 -43 L51 -43 L51 27 L468 27 L468 153 L154 153 L154 221 L468 221 L468 333 L543 333 L543 221 L845 221 L845 153 L543 153 L543 27 L949 27 Z" /><glyph glyph-name="uni57DF" unicode="&#x57df;" d="M334 192 Q215 131 68 58 L39 131 Q75 146 151 180 L151 524 L46 524 L46 594 L151 594 L151 825 L221 825 L221 594 L312 594 L312 524 L221 524 L221 213 L314 258 L334 192 ZM654 132 Q487 83 315 34 L295 104 Q338 114 647 195 L654 132 ZM545 467 L416 467 L416 299 L545 299 L545 467 ZM606 527 L606 239 L358 239 L358 527 L606 527 ZM927 514 Q872 315 781 169 Q819 -5 872 -5 Q899 -5 904 138 Q924 116 957 99 Q949 -2 930 -38 Q910 -76 863 -76 Q778 -76 728 95 Q657 2 559 -68 Q541 -47 504 -19 Q620 54 707 179 Q675 347 665 621 L329 621 L329 690 L663 690 Q660 762 660 836 L732 836 Q732 737 733 690 L890 690 Q850 739 771 797 L814 834 Q897 779 936 731 L892 690 L945 690 L945 621 L735 621 Q741 425 763 270 Q822 382 859 527 L927 514 Z" /><glyph glyph-name="uni57FA" unicode="&#x57fa;" d="M535 14 L880 14 L880 -49 L126 -49 L126 14 L461 14 L461 119 L257 119 L257 180 L461 180 L461 264 L535 264 L535 180 L744 180 L744 119 L535 119 L535 14 ZM320 359 L683 359 L683 430 L320 430 L320 359 ZM320 678 L320 611 L683 611 L683 678 L320 678 ZM320 486 L683 486 L683 555 L320 555 L320 486 ZM739 296 Q829 190 964 142 Q938 121 915 85 Q762 148 661 296 L348 296 Q246 146 87 72 Q66 107 39 129 Q174 183 265 296 L49 296 L49 359 L247 359 L247 678 L95 678 L95 740 L247 740 L247 836 L320 836 L320 740 L683 740 L683 836 L758 836 L758 740 L908 740 L908 678 L758 678 L758 359 L951 359 L951 296 L739 296 Z" /><glyph glyph-name="uni5835" unicode="&#x5835;" d="M351 257 Q324 293 313 304 Q467 366 593 465 L345 465 L345 511 L243 511 L243 212 L351 257 ZM618 533 L671 533 Q730 590 772 648 L618 648 L618 533 ZM818 282 L542 282 L542 186 L818 186 L818 282 ZM818 27 L818 127 L542 127 L542 27 L818 27 ZM703 465 Q633 399 555 347 L800 347 Q761 384 697 420 L741 458 Q818 419 854 381 L817 347 L891 347 L891 -73 L818 -73 L818 -37 L542 -37 L542 -76 L472 -76 L472 296 Q409 261 362 240 L357 247 Q354 253 351 256 L367 187 Q234 128 64 57 L37 131 Q116 160 174 184 L174 511 L56 511 L56 580 L174 580 L174 816 L243 816 L243 580 L348 580 L348 533 L546 533 L546 648 L381 648 L381 715 L546 715 L546 837 L618 837 L618 715 L778 715 L778 656 Q825 718 859 788 L929 764 Q866 640 770 533 L957 533 L957 465 L703 465 Z" /><glyph glyph-name="uni585E" unicode="&#x585e;&#xf96c;" d="M148 590 L77 590 L77 759 L460 759 L460 836 L535 836 L535 759 L923 759 L923 590 L849 590 L849 694 L148 694 L148 590 ZM535 10 L889 10 L889 -52 L118 -52 L118 10 L465 10 L465 108 L270 108 L270 168 L465 168 L465 250 L535 250 L535 168 L733 168 L733 108 L535 108 L535 10 ZM385 345 L616 345 L616 419 L385 419 L385 345 ZM385 473 L616 473 L616 542 L385 542 L385 473 ZM711 282 Q811 185 963 142 Q935 118 914 81 Q735 143 627 282 L381 282 Q274 138 89 71 Q70 104 41 129 Q196 177 298 282 L62 282 L62 345 L315 345 L315 419 L176 419 L176 473 L315 473 L315 542 L160 542 L160 599 L315 599 L315 660 L385 660 L385 599 L616 599 L616 660 L686 660 L686 599 L835 599 L835 542 L686 542 L686 473 L820 473 L820 419 L686 419 L686 345 L940 345 L940 282 L711 282 Z" /><glyph glyph-name="uni589E" unicode="&#x589e;" d="M488 228 L488 151 L784 151 L784 228 L488 228 ZM784 19 L784 98 L488 98 L488 19 L784 19 ZM418 285 L858 285 L858 -73 L784 -73 L784 -39 L488 -39 L488 -76 L418 -76 L418 285 ZM514 544 Q546 481 558 431 L510 416 Q496 474 468 531 L514 544 ZM699 431 Q725 485 744 545 L796 528 Q755 442 739 416 L699 431 ZM841 567 L661 567 L661 399 L841 399 L841 567 ZM430 399 L605 399 L605 567 L430 567 L430 399 ZM769 810 Q843 678 975 596 Q944 568 926 540 Q913 549 904 557 L904 342 L371 342 L371 552 Q353 536 344 529 Q332 545 313 564 L313 523 L225 523 L225 233 L333 278 L351 211 L58 82 L33 156 Q61 166 153 203 L153 523 L47 523 L47 594 L153 594 L153 821 L225 821 L225 594 L311 594 Q413 676 470 783 L535 764 Q498 692 439 623 L831 623 Q771 683 730 746 L553 746 L553 810 L769 810 Z" /><glyph glyph-name="uni5904" unicode="&#x5904;" d="M693 104 L615 104 L615 835 L693 835 L693 577 L718 590 Q866 435 933 326 L868 286 Q813 380 693 518 L693 104 ZM254 610 Q240 561 227 526 Q262 370 326 262 Q399 405 427 610 L254 610 ZM510 667 Q478 381 374 194 Q509 30 789 30 Q922 30 961 31 Q939 -4 931 -46 L785 -46 Q480 -46 334 129 Q240 -4 99 -77 Q66 -37 39 -20 Q193 55 286 195 Q225 293 188 428 Q155 358 116 305 Q83 333 56 346 Q178 506 223 833 L300 813 Q291 755 272 679 L447 679 L461 682 L510 667 Z" /><glyph glyph-name="uni590D" unicode="&#x590d;" d="M248 678 Q183 595 98 529 Q79 562 52 587 Q198 687 270 837 L336 816 Q310 766 293 741 L899 741 L899 678 L248 678 ZM319 199 Q388 131 505 85 Q629 133 699 199 L319 199 ZM289 373 L752 373 L752 441 L289 441 L289 373 ZM289 492 L752 492 L752 558 L289 558 L289 492 ZM815 229 Q744 127 595 55 Q752 9 958 -4 Q936 -27 917 -70 Q672 -49 508 18 Q328 -51 66 -77 Q61 -51 38 -10 Q256 7 421 57 Q330 104 271 169 Q216 121 149 80 Q126 108 96 128 Q241 204 326 319 L216 319 L216 611 L828 611 L828 319 L403 319 L406 318 Q389 292 358 256 L757 256 L770 260 L815 229 Z" /><glyph glyph-name="uni2F24" unicode="&#x2f24;&#x5927;" d="M562 475 Q679 108 955 -5 Q922 -36 899 -75 Q629 53 501 420 Q413 67 102 -75 Q83 -40 46 -14 Q358 122 435 475 L66 475 L66 551 L447 551 Q460 639 462 835 L542 835 Q540 654 526 551 L939 551 L939 475 L562 475 Z" /><glyph glyph-name="uni592B" unicode="&#x592b;" d="M547 330 Q654 61 963 -4 Q933 -36 914 -74 Q618 3 497 265 Q411 32 90 -78 Q71 -39 43 -12 Q366 95 433 330 L69 330 L69 405 L450 405 Q457 462 457 528 L457 611 L137 611 L137 686 L457 686 L457 837 L535 837 L535 686 L875 686 L875 611 L535 611 L535 528 Q535 467 529 405 L932 405 L932 330 L547 330 Z" /><glyph glyph-name="uni5931" unicode="&#x5931;" d="M564 316 Q670 58 967 -8 Q943 -31 917 -76 Q619 2 502 285 Q422 37 91 -77 Q78 -44 45 -13 Q357 92 430 316 L57 316 L57 390 L447 390 Q457 448 457 528 L457 588 L233 588 Q186 493 135 431 Q106 453 63 470 Q178 597 238 822 L316 805 Q293 723 266 662 L457 662 L457 836 L533 836 L533 662 L859 662 L859 588 L533 588 L533 528 Q533 451 525 390 L944 390 L944 316 L564 316 Z" /><glyph glyph-name="uni5938" unicode="&#x5938;" d="M130 361 L866 361 L866 298 L363 298 L328 204 L786 204 Q784 182 781 171 Q750 -10 701 -53 Q674 -75 626 -76 Q568 -80 480 -73 Q476 -34 458 -7 Q528 -14 601 -14 Q632 -14 644 -5 Q676 19 701 142 L303 142 L290 111 L217 124 Q245 184 285 298 L130 298 L130 361 ZM699 519 Q638 580 597 646 L409 646 Q360 574 302 519 L699 519 ZM675 646 Q788 497 965 437 Q933 410 915 375 Q799 422 703 515 L703 456 L299 456 L299 516 Q209 430 87 371 Q68 407 40 426 Q211 505 322 646 L65 646 L65 712 L366 712 Q401 769 422 836 L499 824 Q479 768 449 712 L937 712 L937 646 L675 646 Z" /><glyph glyph-name="uni5948" unicode="&#x5948;&#xf90c;" d="M329 160 Q256 44 131 -48 Q85 -9 71 0 Q194 78 258 181 L329 160 ZM537 237 L537 2 Q537 -53 497 -67 Q467 -77 344 -77 Q340 -50 318 -12 Q412 -15 443 -13 Q463 -13 463 3 L463 237 L144 237 L144 303 L857 303 L857 237 L537 237 ZM709 482 L709 417 L293 417 L293 482 L709 482 ZM710 181 Q845 71 908 -10 L845 -49 Q782 37 652 146 L710 181 ZM655 639 Q773 479 965 406 Q940 385 914 347 Q703 438 578 639 L423 639 Q298 443 80 338 Q60 372 29 394 Q222 481 335 639 L69 639 L69 707 L378 707 Q413 772 431 837 L511 827 Q493 771 462 707 L931 707 L931 639 L655 639 Z" /><glyph glyph-name="uni5954" unicode="&#x5954;" d="M727 237 L946 237 L946 168 L727 168 L727 -77 L654 -77 L654 168 L338 168 Q311 5 131 -78 Q110 -45 80 -24 Q235 44 264 168 L54 168 L54 237 L272 237 L272 350 L344 350 L344 237 L654 237 L654 351 L727 351 L727 237 ZM675 633 Q793 500 964 445 Q943 428 914 384 Q717 460 595 633 L421 633 Q353 546 256 475 L465 475 L465 579 L536 579 L536 475 L747 475 L747 409 L536 409 L536 281 L465 281 L465 409 L249 409 L249 470 Q177 418 89 379 Q68 415 42 436 Q214 508 327 633 L71 633 L71 703 L383 703 Q425 762 452 837 L531 825 Q507 763 470 703 L930 703 L930 633 L675 633 Z" /><glyph glyph-name="uni5956" unicode="&#x5956;" d="M942 733 Q840 426 418 351 Q404 387 378 413 Q528 435 635 484 Q591 540 515 605 L569 637 Q645 577 695 516 Q801 585 848 688 L573 688 Q505 622 436 583 Q413 618 392 637 Q540 717 596 840 L668 817 Q653 787 627 753 L884 753 L898 755 L942 733 ZM169 598 Q144 668 77 755 L134 784 Q202 702 229 631 L169 598 ZM281 514 Q161 449 82 408 L50 472 Q133 510 281 584 L281 837 L353 837 L353 349 L281 349 L281 514 ZM560 207 Q652 29 958 -5 Q930 -30 913 -70 Q604 -24 499 179 Q414 -20 82 -78 Q70 -41 47 -15 Q356 34 429 207 L63 207 L63 274 L451 274 Q458 301 465 350 L542 350 Q535 304 528 274 L934 274 L934 207 L560 207 Z" /><glyph glyph-name="uni5982" unicode="&#x5982;" d="M226 563 Q192 425 160 308 Q229 271 301 223 Q368 360 390 563 L226 563 ZM467 626 Q445 351 361 181 Q444 121 492 67 L448 4 Q403 55 324 117 Q243 -9 106 -77 Q84 -38 61 -16 Q185 39 265 161 Q200 206 141 241 L128 196 L64 228 Q104 354 155 563 L47 563 L47 633 L171 633 Q202 763 216 837 L288 828 Q278 781 243 633 L408 633 L422 635 L467 626 ZM847 94 L847 659 L602 659 L602 94 L847 94 ZM919 729 L919 -36 L847 -36 L847 24 L602 24 L602 -51 L532 -51 L532 729 L919 729 Z" /><glyph glyph-name="uni5996" unicode="&#x5996;" d="M212 562 Q177 407 151 305 Q212 270 267 232 Q325 367 344 562 L212 562 ZM386 31 Q357 68 293 122 Q221 -7 101 -79 Q77 -39 55 -19 Q166 39 236 168 Q191 202 134 239 L123 198 L61 230 Q99 365 142 562 L47 562 L47 631 L157 631 Q180 738 198 837 L269 829 Q250 730 228 631 L362 631 L375 633 L419 624 Q400 361 326 188 Q396 133 430 90 L386 31 ZM731 393 Q792 83 965 -14 Q931 -42 912 -77 Q759 21 691 280 Q634 53 414 -78 Q389 -47 356 -25 Q605 121 635 393 L419 393 L419 463 L640 463 L640 706 Q548 692 440 684 Q434 713 418 748 Q737 778 871 833 L927 773 Q850 743 714 717 L714 463 L960 463 L960 393 L731 393 Z" /><glyph glyph-name="uni59D3" unicode="&#x59d3;" d="M199 563 Q176 448 145 316 Q204 273 251 235 Q303 368 319 563 L199 563 ZM392 627 Q376 355 308 186 Q379 122 413 78 L365 18 Q332 62 276 116 Q209 -8 97 -77 Q72 -36 52 -16 Q156 41 221 167 Q169 212 128 244 L117 201 L56 234 Q91 364 130 563 L44 563 L44 631 L144 631 Q167 750 181 836 L252 829 Q235 733 214 631 L335 631 L348 633 L392 627 ZM957 18 L957 -53 L388 -53 L388 18 L651 18 L651 265 L458 265 L458 333 L651 333 L651 550 L514 550 Q482 460 440 398 Q421 413 376 438 Q461 553 501 785 L573 772 Q559 693 537 620 L651 620 L651 828 L724 828 L724 620 L931 620 L931 550 L724 550 L724 333 L919 333 L919 265 L724 265 L724 18 L957 18 Z" /><glyph glyph-name="uni59D4" unicode="&#x59d4;" d="M366 232 Q328 176 309 150 Q418 130 538 101 Q617 152 660 232 L366 232 ZM462 377 Q443 346 409 296 L951 296 L951 232 L743 232 Q701 140 627 79 Q813 28 921 -15 L876 -76 Q748 -23 553 30 Q401 -52 93 -77 Q83 -36 64 -11 Q313 3 448 56 Q363 76 269 95 L248 67 L179 91 Q228 157 280 232 L50 232 L50 296 L323 296 Q359 350 391 402 L462 383 L462 566 Q317 412 85 339 Q68 370 39 397 Q236 450 378 571 L61 571 L61 632 L462 632 L462 732 Q306 720 146 717 Q145 738 130 775 Q567 786 783 835 L838 782 Q727 757 534 738 L534 632 L938 632 L938 571 L621 571 Q758 459 959 408 Q926 375 912 346 Q681 416 534 566 L534 371 L462 371 L462 377 Z" /><glyph glyph-name="uni5A25" unicode="&#x5a25;" d="M896 610 Q862 689 789 779 L846 805 Q927 706 955 639 L896 610 ZM178 564 Q155 429 132 311 Q184 267 216 237 Q257 370 271 564 L178 564 ZM325 6 Q299 48 243 111 Q187 -9 94 -76 Q71 -38 49 -18 Q136 40 190 167 Q149 208 116 237 L109 202 L49 235 Q78 364 112 564 L44 564 L44 631 L123 631 Q139 728 153 837 L222 830 Q209 741 190 631 L286 631 L299 633 L341 627 Q329 350 272 183 Q344 110 373 63 L325 6 ZM921 417 Q878 270 800 150 Q833 -11 882 -11 Q908 -11 914 128 Q932 108 965 91 Q958 -4 939 -41 Q919 -77 874 -77 Q795 -77 750 82 Q689 8 611 -49 Q597 -26 568 3 Q661 66 732 161 Q708 283 697 473 L551 473 L551 307 L656 331 L663 269 Q598 251 551 240 L551 12 Q551 -46 518 -62 Q489 -76 392 -76 Q387 -42 370 -5 Q415 -6 469 -6 Q485 -6 485 12 L485 223 L359 190 L336 259 Q451 284 485 292 L485 473 L354 473 L354 539 L485 539 L485 710 Q421 692 369 681 Q361 709 345 734 Q519 778 596 824 L654 773 Q615 753 551 731 L551 539 L694 539 Q689 663 687 835 L754 835 Q753 685 759 539 L957 539 L957 473 L762 473 Q770 337 784 244 Q830 327 859 429 L921 417 Z" /><glyph glyph-name="uni5A92" unicode="&#x5a92;" d="M198 563 Q171 432 143 314 Q185 284 245 234 Q297 371 313 563 L198 563 ZM352 27 Q319 71 270 119 Q205 -5 96 -76 Q75 -39 51 -16 Q153 43 216 170 Q164 217 127 245 L116 201 L56 237 Q92 373 129 563 L43 563 L43 631 L143 631 Q166 750 180 836 L251 829 Q234 733 213 631 L329 631 L342 633 L385 626 Q369 355 301 185 Q366 125 396 84 L352 27 ZM545 426 L782 426 L782 518 L545 518 L545 426 ZM545 664 L545 575 L782 575 L782 664 L545 664 ZM741 212 Q835 81 967 12 Q933 -18 916 -47 Q794 30 699 170 L699 -76 L627 -76 L627 166 Q528 19 393 -52 Q368 -17 342 7 Q490 72 583 212 L381 212 L381 276 L627 276 L627 365 L477 365 L477 664 L373 664 L373 728 L477 728 L477 837 L545 837 L545 728 L782 728 L782 837 L853 837 L853 728 L953 728 L953 664 L853 664 L853 365 L699 365 L699 276 L953 276 L953 212 L741 212 Z" /><glyph glyph-name="uni5AE6" unicode="&#x5ae6;" d="M184 564 Q161 438 135 315 Q181 281 229 239 Q273 371 287 564 L184 564 ZM359 627 Q344 349 285 188 Q354 124 390 71 L343 12 Q313 58 256 117 Q196 -7 93 -77 Q74 -42 48 -18 Q144 40 202 170 Q155 213 120 242 L110 199 L50 234 Q77 344 118 564 L44 564 L44 631 L129 631 Q146 723 162 836 L230 830 Q208 694 196 631 L303 631 L316 633 L359 627 ZM533 386 L795 386 L795 487 L533 487 L533 386 ZM910 56 Q910 9 880 -5 Q858 -16 774 -16 Q769 19 754 46 Q789 45 828 45 Q840 45 840 57 L840 198 L696 198 L696 -76 L625 -76 L625 198 L486 198 L486 -13 L419 -13 L419 259 L625 259 L625 331 L467 331 L467 541 L865 541 L865 331 L696 331 L696 259 L910 259 L910 56 ZM485 821 Q527 763 548 701 L486 677 Q468 738 427 803 L485 821 ZM901 801 Q836 700 818 677 L766 696 Q806 756 834 822 L901 801 ZM944 497 L876 497 L876 618 L448 618 L448 497 L381 497 L381 677 L624 677 L624 836 L696 836 L696 677 L944 677 L944 497 Z" /><glyph glyph-name="uni5B58" unicode="&#x5b58;" d="M396 635 Q343 513 265 406 L265 -74 L191 -74 L191 318 Q139 262 75 216 Q59 255 35 284 Q204 404 312 635 L66 635 L66 707 L343 707 Q366 765 386 837 L464 817 Q448 765 426 707 L935 707 L935 635 L396 635 ZM954 197 L689 197 L689 11 Q689 -50 647 -65 Q611 -76 474 -76 Q467 -40 450 -6 Q484 -7 593 -7 Q615 -6 615 12 L615 197 L336 197 L336 267 L615 267 L615 359 L644 359 Q704 397 763 456 L421 456 L421 523 L828 523 L843 528 L891 492 Q808 395 689 318 L689 267 L954 267 L954 197 Z" /><glyph glyph-name="uni5B66" unicode="&#x5b66;" d="M154 450 L83 450 L83 671 L236 671 Q206 729 152 796 L214 824 Q280 750 310 688 L276 671 L480 671 Q461 738 407 817 L471 841 Q530 760 552 688 L509 671 L686 671 Q749 747 793 830 L870 804 Q823 735 768 671 L923 671 L923 450 L851 450 L851 605 L154 605 L154 450 ZM941 207 L538 207 L538 12 Q538 -50 490 -65 Q451 -77 306 -77 Q299 -47 275 -6 Q396 -9 438 -7 Q464 -6 464 14 L464 207 L64 207 L64 276 L464 276 L464 348 L502 348 Q578 385 643 436 L230 436 L230 502 L718 502 L733 506 L781 470 Q685 371 538 301 L538 276 L941 276 L941 207 Z" /><glyph glyph-name="uni5B88" unicode="&#x5b88;" d="M160 515 L85 515 L85 724 L459 724 L459 837 L536 837 L536 724 L913 724 L913 515 L835 515 L835 655 L160 655 L160 515 ZM241 332 Q356 225 407 126 L345 83 Q297 181 183 295 L241 332 ZM939 383 L683 383 L683 19 Q683 -49 636 -65 Q598 -77 446 -77 Q442 -49 420 -3 Q468 -5 581 -5 Q608 -4 608 19 L608 383 L62 383 L62 456 L608 456 L608 599 L683 599 L683 456 L939 456 L939 383 Z" /><glyph glyph-name="uni5B89" unicode="&#x5b89;" d="M164 518 L89 518 L89 731 L459 731 L459 837 L536 837 L536 731 L916 731 L916 518 L839 518 L839 662 L164 662 L164 518 ZM389 386 Q345 301 305 230 Q411 199 536 152 Q635 239 675 386 L389 386 ZM760 386 Q715 223 612 122 Q788 50 893 -16 L839 -78 Q740 -11 549 70 Q404 -34 128 -78 Q114 -44 83 -11 Q333 20 469 102 Q362 144 273 171 L260 149 Q253 136 248 129 L173 149 Q226 237 304 386 L60 386 L60 456 L341 456 L420 617 L496 600 Q482 570 425 456 L941 456 L941 386 L760 386 Z" /><glyph glyph-name="uni5B8C" unicode="&#x5b8c;" d="M158 521 L83 521 L83 730 L459 730 L459 836 L536 836 L536 730 L916 730 L916 521 L839 521 L839 660 L158 660 L158 521 ZM230 480 L230 549 L769 549 L769 480 L230 480 ZM835 9 Q863 9 871 32 Q880 56 882 141 Q907 125 950 112 Q944 10 922 -24 Q900 -59 841 -59 L687 -59 Q619 -59 595 -38 Q572 -17 572 43 L572 296 L397 296 Q378 146 318 66 Q245 -32 82 -78 Q64 -38 38 -15 Q187 22 251 104 Q303 170 318 296 L60 296 L60 366 L940 366 L940 296 L646 296 L646 43 Q646 22 655 16 Q664 9 695 9 L835 9 Z" /><glyph glyph-name="uni5B98" unicode="&#x5b98;" d="M305 170 L305 35 L755 35 L755 170 L305 170 ZM305 521 L305 396 L697 396 L697 521 L305 521 ZM305 235 L828 235 L828 -70 L755 -70 L755 -31 L305 -31 L305 -75 L232 -75 L232 585 L770 585 L770 331 L305 331 L305 235 ZM917 750 L917 534 L842 534 L842 679 L154 679 L154 534 L82 534 L82 750 L459 750 L459 835 L536 835 L536 750 L917 750 Z" /><glyph glyph-name="uni5B9A" unicode="&#x5b9a;" d="M158 506 L85 506 L85 722 L460 722 L460 836 L537 836 L537 722 L915 722 L915 506 L839 506 L839 652 L158 652 L158 506 ZM537 23 Q602 11 699 11 Q907 11 955 12 Q933 -22 927 -63 L695 -63 Q525 -63 428 -24 Q312 23 248 142 Q195 3 99 -81 Q72 -52 38 -31 Q189 86 225 376 L301 369 Q292 300 277 236 Q329 93 461 43 L461 462 L213 462 L213 532 L792 532 L792 462 L537 462 L537 296 L833 296 L833 227 L537 227 L537 23 Z" /><glyph glyph-name="uni5B9E" unicode="&#x5b9e;" d="M167 521 L94 521 L94 723 L459 723 L459 837 L538 837 L538 723 L908 723 L908 521 L832 521 L832 653 L167 653 L167 521 ZM388 440 Q339 498 242 555 L287 602 Q387 547 435 493 L388 440 ZM187 451 Q295 392 343 341 L298 285 Q249 340 144 401 L187 451 ZM931 192 L570 192 Q782 87 905 -19 L855 -74 Q732 38 500 157 Q404 -10 127 -73 Q112 -36 85 -9 Q349 47 432 192 L75 192 L75 257 L462 257 Q496 358 503 603 L580 603 Q573 371 541 257 L931 257 L931 192 Z" /><glyph glyph-name="uni5BA1" unicode="&#x5ba1;" d="M537 464 L537 355 L779 355 L779 464 L537 464 ZM779 178 L779 291 L537 291 L537 178 L779 178 ZM461 178 L461 291 L219 291 L219 178 L461 178 ZM219 464 L219 355 L461 355 L461 464 L219 464 ZM537 530 L852 530 L852 60 L779 60 L779 112 L537 112 L537 -75 L461 -75 L461 112 L219 112 L219 56 L148 56 L148 530 L461 530 L461 626 L537 626 L537 530 ZM913 730 L913 567 L837 567 L837 658 L160 658 L160 567 L87 567 L87 730 L475 730 Q450 788 430 822 L505 844 Q544 776 560 735 L544 730 L913 730 Z" /><glyph glyph-name="uni5BA3" unicode="&#x5ba3;" d="M156 552 L84 552 L84 744 L460 744 L460 836 L535 836 L535 744 L916 744 L916 552 L842 552 L842 677 L156 677 L156 552 ZM793 526 L205 526 L205 588 L793 588 L793 526 ZM293 146 L701 146 L701 243 L293 243 L293 146 ZM293 299 L701 299 L701 394 L293 394 L293 299 ZM222 87 L222 453 L774 453 L774 87 L222 87 ZM934 19 L934 -49 L65 -49 L65 19 L934 19 Z" /><glyph glyph-name="uni5BAB" unicode="&#x5bab;" d="M234 173 L234 26 L774 26 L774 173 L234 173 ZM163 239 L848 239 L848 -74 L774 -74 L774 -39 L234 -39 L234 -76 L163 -76 L163 239 ZM709 502 L290 502 L290 387 L709 387 L709 502 ZM781 563 L781 326 L221 326 L221 563 L781 563 ZM915 723 L915 513 L839 513 L839 651 L160 651 L160 513 L87 513 L87 723 L471 723 Q447 779 421 820 L496 843 Q532 784 558 723 L915 723 Z" /><glyph glyph-name="uni5BB6" unicode="&#x5bb6;" d="M163 551 L90 551 L90 748 L462 748 L462 836 L536 836 L536 748 L916 748 L916 551 L840 551 L840 679 L163 679 L163 551 ZM903 432 Q821 364 696 291 Q798 126 953 66 Q926 42 902 2 Q638 122 535 515 L533 515 Q487 477 431 445 Q565 329 587 164 Q607 11 526 -45 Q484 -78 420 -78 Q387 -79 333 -76 Q328 -30 312 -5 Q358 -10 405 -10 Q452 -10 474 9 Q539 58 507 194 Q331 49 95 -30 Q75 11 56 32 Q320 104 485 259 Q473 289 450 323 Q313 222 131 156 Q112 191 91 214 Q287 269 416 368 Q393 393 370 413 Q263 359 125 318 Q105 354 84 376 Q299 429 431 515 L218 515 L218 579 L777 579 L777 515 L601 515 Q624 430 665 348 Q774 416 846 481 L903 432 Z" /><glyph glyph-name="uni5BB9" unicode="&#x5bb9;" d="M158 565 L86 565 L86 745 L460 745 L460 837 L535 837 L535 745 L915 745 L915 565 L839 565 L839 677 L158 677 L158 565 ZM637 631 Q813 525 898 439 L844 389 Q752 486 586 587 L637 631 ZM404 607 Q305 477 146 384 Q119 420 93 442 Q248 520 333 630 L404 607 ZM725 257 Q580 356 501 451 Q429 356 292 257 L725 257 ZM701 24 L701 190 L298 190 L298 24 L701 24 ZM534 520 Q701 318 963 212 Q939 185 916 145 Q849 178 775 224 L775 -73 L701 -73 L701 -43 L298 -43 L298 -77 L227 -77 L227 213 Q161 171 91 136 Q78 165 49 198 Q321 321 460 520 L534 520 Z" /><glyph glyph-name="uni5BBD" unicode="&#x5bbd;" d="M148 567 L78 567 L78 749 L470 749 Q454 786 433 824 L510 846 Q533 808 560 749 L924 749 L924 567 L851 567 L851 683 L148 683 L148 567 ZM718 110 L718 352 L277 352 L277 103 L203 103 L203 416 L795 416 L795 110 L718 110 ZM825 523 L670 523 L670 450 L596 450 L596 523 L404 523 L404 450 L329 450 L329 523 L176 523 L176 583 L329 583 L329 649 L404 649 L404 583 L596 583 L596 649 L670 649 L670 583 L825 583 L825 523 ZM441 316 L520 316 L520 237 Q520 135 450 67 Q350 -31 94 -91 Q73 -54 46 -30 Q291 20 382 103 Q441 156 441 238 L441 316 ZM829 1 Q866 1 877 27 Q887 53 891 151 Q917 130 957 122 Q950 8 926 -28 Q902 -64 834 -64 L651 -64 Q576 -64 549 -44 Q523 -25 523 31 L523 192 L597 192 L597 32 Q597 13 608 7 Q619 1 657 1 L829 1 Z" /><glyph glyph-name="uni5BF9" unicode="&#x5bf9;" d="M460 693 Q437 466 365 281 Q458 174 495 106 L437 51 Q405 110 331 205 Q242 27 101 -74 Q79 -38 49 -15 Q186 75 277 268 Q189 369 95 453 L147 499 Q230 427 308 343 Q357 472 380 633 L73 633 L73 704 L399 704 L413 707 L460 693 ZM955 526 L836 526 L836 25 Q836 -42 794 -60 Q759 -75 629 -75 Q623 -36 604 2 Q704 -1 739 1 Q763 2 763 25 L763 526 L483 526 L483 597 L763 597 L763 837 L836 837 L836 597 L955 597 L955 526 ZM610 169 Q582 275 502 394 L563 421 Q647 303 674 202 L610 169 Z" /><glyph glyph-name="uni5BFC" unicode="&#x5bfc;" d="M215 732 L215 627 L751 627 L751 732 L215 732 ZM350 394 Q226 394 184 416 Q139 439 139 507 L139 797 L824 797 L824 561 L215 561 L215 508 Q215 476 239 466 Q264 456 345 456 L743 456 Q803 456 822 472 Q841 488 847 543 Q875 527 918 519 Q908 443 875 419 Q841 394 747 394 L350 394 ZM941 222 L722 222 L722 13 Q722 -49 675 -62 Q640 -73 484 -73 Q478 -42 458 -6 Q561 -10 622 -7 Q647 -7 647 14 L647 222 L272 222 Q385 128 431 53 L376 4 Q327 90 214 184 L258 222 L65 222 L65 291 L647 291 L647 368 L722 368 L722 291 L942 291 L941 222 Z" /><glyph glyph-name="uni5C06" unicode="&#x5c06;" d="M152 474 Q118 574 40 681 L100 710 Q187 593 216 508 L152 474 ZM230 836 L301 836 L301 -75 L230 -75 L230 223 Q167 178 67 112 L30 186 Q126 240 230 303 L230 836 ZM899 779 Q712 723 354 684 Q351 712 333 744 Q679 784 846 837 L899 779 ZM610 490 Q603 570 565 671 L630 687 Q670 590 679 508 L610 490 ZM439 449 Q422 531 370 633 L431 653 Q485 561 505 473 L439 449 ZM483 254 Q577 160 617 80 L553 42 Q513 128 423 222 L483 254 ZM956 295 L820 295 L820 14 Q820 -48 779 -63 Q745 -75 617 -75 Q612 -41 592 -3 Q691 -6 726 -4 Q747 -3 747 15 L747 295 L342 295 L342 364 L747 364 L747 427 L698 455 Q809 584 870 700 L938 666 Q859 544 773 443 L820 443 L820 364 L956 364 L956 295 Z" /><glyph glyph-name="uni2F29" unicode="&#x2f29;&#x5c0f;" d="M544 822 L544 27 Q544 -44 494 -63 Q450 -78 303 -76 Q294 -37 272 1 Q375 -3 436 0 Q465 0 465 27 L465 822 L544 822 ZM774 597 Q931 347 971 156 L893 123 Q853 319 704 570 L774 597 ZM286 575 Q221 282 106 140 Q72 165 36 179 Q156 320 204 590 L286 575 Z" /><glyph glyph-name="uni5C4A" unicode="&#x5c4a;" d="M219 719 L219 591 L806 591 L806 719 L219 719 ZM219 523 L219 497 Q219 108 101 -75 Q72 -52 36 -37 Q145 132 145 497 L145 787 L879 787 L879 523 L219 523 ZM818 27 L818 154 L617 154 L617 27 L818 27 ZM352 27 L545 27 L545 154 L352 154 L352 27 ZM352 334 L352 215 L545 215 L545 334 L352 334 ZM617 334 L617 215 L818 215 L818 334 L617 334 ZM891 401 L891 -75 L818 -75 L818 -40 L352 -40 L352 -75 L281 -75 L281 401 L545 401 L545 515 L617 515 L617 401 L891 401 Z" /><glyph glyph-name="uni5C55" unicode="&#x5c55;" d="M470 288 L670 288 L670 390 L470 390 L470 288 ZM470 454 L670 454 L670 545 L470 545 L470 454 ZM218 610 L815 610 L815 724 L218 724 L218 610 ZM894 179 Q816 121 734 78 Q827 9 957 -16 Q926 -47 913 -78 Q642 -10 539 224 L416 224 L416 33 L520 50 Q588 60 627 67 L630 2 Q282 -56 244 -63 L232 6 Q273 11 347 23 L347 224 L221 224 L221 288 L400 288 L400 390 L251 390 L251 454 L400 454 L400 545 L218 545 L218 498 Q218 109 100 -77 Q73 -54 35 -39 Q143 131 143 498 L143 789 L888 789 L888 545 L739 545 L739 454 L907 454 L907 390 L739 390 L739 288 L947 288 L947 224 L608 224 Q640 164 688 117 Q774 166 838 218 L894 179 Z" /><glyph glyph-name="uni5C5E" unicode="&#x5c5e;" d="M216 734 L216 645 L810 645 L810 734 L216 734 ZM216 585 L216 502 Q216 114 100 -70 Q70 -45 36 -34 Q143 137 143 502 L143 793 L883 793 L883 585 L216 585 ZM536 309 L536 381 L361 381 L361 309 L536 309 ZM605 381 L605 309 L785 309 L785 381 L605 381 ZM899 -10 Q899 -55 867 -66 Q844 -76 741 -76 Q737 -56 721 -23 Q790 -26 814 -24 Q830 -23 830 -10 L830 152 L605 152 L605 75 L696 78 Q682 100 667 122 L711 136 Q767 63 800 -1 L754 -19 Q741 5 727 28 Q672 26 533 19 Q419 13 366 11 L362 67 L536 72 L536 152 L322 152 L322 -78 L253 -78 L253 205 L536 205 L536 262 L293 262 L293 428 L536 428 L536 482 Q403 474 288 474 Q285 495 273 523 Q621 529 795 561 L840 516 Q754 499 605 487 L605 428 L855 428 L855 262 L605 262 L605 205 L899 205 L899 -10 Z" /><glyph glyph-name="uni2F2F" unicode="&#x2f2f;&#x5de5;" d="M947 74 L947 0 L55 0 L55 74 L457 74 L457 648 L107 648 L107 724 L897 724 L897 648 L538 648 L538 74 L947 74 Z" /><glyph glyph-name="uni2F30" unicode="&#x2f30;&#x5df1;" d="M744 18 Q822 18 846 52 Q868 83 878 200 Q915 177 952 170 Q940 34 902 -9 Q861 -55 743 -55 L366 -55 Q244 -55 201 -28 Q156 0 156 83 L156 454 L750 454 L750 703 L143 703 L143 778 L826 778 L826 318 L750 318 L750 381 L231 381 L231 83 Q231 43 256 31 Q281 18 362 18 L744 18 Z" /><glyph glyph-name="uni5DF2" unicode="&#x5df2;" d="M734 25 Q814 25 839 62 Q862 96 873 219 Q905 197 948 189 Q933 47 895 2 Q852 -48 733 -48 L359 -48 Q237 -48 194 -19 Q149 12 149 103 L149 603 L224 603 L224 439 L746 439 L746 701 L96 701 L96 774 L822 774 L822 316 L746 316 L746 366 L224 366 L224 102 Q224 55 249 40 Q273 25 354 25 L734 25 Z" /><glyph glyph-name="uni5E03" unicode="&#x5e03;" d="M397 612 Q351 514 292 430 L510 430 L510 564 L584 564 L584 430 L883 430 L883 110 Q883 52 843 38 Q809 24 674 26 Q670 53 650 93 Q682 92 787 92 Q809 93 809 111 L809 360 L584 360 L584 -78 L510 -78 L510 360 L298 360 L298 15 L224 15 L224 343 Q157 266 79 213 Q58 250 35 275 Q201 388 315 612 L64 612 L64 684 L347 684 Q377 754 400 837 L477 819 Q463 774 429 684 L938 684 L938 612 L397 612 Z" /><glyph glyph-name="uni2F32" unicode="&#x2f32;&#x5e72;" d="M944 357 L537 357 L537 -75 L456 -75 L456 357 L57 357 L57 433 L456 433 L456 690 L108 690 L108 765 L898 765 L898 690 L537 690 L537 433 L944 433 L944 357 Z" /><glyph glyph-name="uni5E76" unicode="&#x5e76;" d="M789 814 Q717 693 670 636 L606 660 Q663 739 708 839 L789 814 ZM323 632 Q295 710 221 810 L285 836 Q364 739 392 664 L323 632 ZM640 345 L640 561 L361 561 L361 345 L640 345 ZM946 274 L717 274 L717 -76 L640 -76 L640 274 L357 274 Q332 32 106 -84 Q91 -56 56 -26 Q255 74 282 274 L56 274 L56 345 L287 345 L287 561 L93 561 L93 631 L915 631 L915 561 L717 561 L717 345 L946 345 L946 274 Z" /><glyph glyph-name="uni5E7B" unicode="&#x5e7b;" d="M410 299 Q512 160 550 33 L483 1 Q475 32 455 80 L51 29 L41 105 L111 111 Q179 214 244 334 Q171 435 43 543 L87 595 Q102 583 134 555 Q207 695 249 827 L328 803 Q246 608 186 508 Q249 449 282 406 Q338 516 378 615 L455 588 Q331 324 199 120 L424 143 Q392 208 348 272 L410 299 ZM922 715 Q905 33 855 -30 Q827 -68 774 -74 Q732 -79 620 -73 Q618 -31 597 1 Q675 -5 745 -5 Q773 -5 787 13 Q831 63 848 686 L436 686 L436 757 L922 757 L922 715 Z" /><glyph glyph-name="uni5E94" unicode="&#x5e94;" d="M198 638 L198 437 Q198 89 104 -84 Q83 -61 41 -43 Q124 112 124 437 L124 709 L521 709 Q500 765 468 826 L540 844 Q581 773 605 709 L939 709 L939 638 L198 638 ZM564 204 Q543 342 481 545 L548 563 Q612 363 634 224 L564 204 ZM373 148 Q347 276 265 489 L329 515 Q410 316 442 176 L373 148 ZM952 41 L952 -30 L211 -30 L211 41 L606 41 Q749 270 817 569 L895 541 Q815 266 682 41 L952 41 Z" /><glyph glyph-name="uni5E9F" unicode="&#x5e9f;" d="M476 239 Q529 166 616 109 Q696 168 740 239 L476 239 ZM847 281 Q792 158 682 70 Q798 12 938 -14 Q911 -40 893 -77 Q739 -43 620 27 Q508 -45 365 -81 Q351 -45 325 -21 Q453 9 557 69 Q487 120 436 184 Q352 59 224 -21 Q206 9 175 38 Q376 152 466 399 L377 399 Q290 399 275 386 Q260 434 250 454 Q266 458 281 486 Q319 549 334 627 L411 616 Q394 545 354 466 L488 466 Q509 533 528 642 L600 632 Q584 545 561 466 L803 466 Q764 514 690 590 L743 625 Q829 542 858 504 L804 466 L922 466 L922 399 L541 399 Q524 354 503 304 L782 304 L796 308 L847 281 ZM947 736 L947 665 L191 665 L191 456 Q191 99 105 -79 Q81 -55 41 -36 Q117 120 117 456 L117 736 L514 736 Q492 781 464 823 L540 839 Q572 790 603 736 L947 736 Z" /></font>
</defs>
</svg>
