<?xml version="1.0" standalone="no"?><!DOCTYPE svg PUBLIC "-//W3C//DTD SVG 1.1//EN" "http://www.w3.org/Graphics/SVG/1.1/DTD/svg11.dtd" ><svg xmlns="http://www.w3.org/2000/svg"><metadata></metadata><defs><font id="fonteditor" horiz-adv-x="970"><font-face font-family="?N=¾ÑOS" font-weight="400" font-stretch="normal" units-per-em="1000" panose-1="0 2 6 0 4 1 1 1 1 1" ascent="959" descent="-244" x-height="1" bbox="17 -148 932 815" underline-thickness="50" underline-position="-75" unicode-range="U+002b-ff0c" /><missing-glyph horiz-adv-x="970" d="M266 700 L705 700 L705 0 L266 0 L266 700 ZM655 46 L655 655 L316 655 L316 46 L655 46 Z" /><glyph glyph-name="A" unicode="a" d="M264 692 L330 692 L579 0 L507 0 L435 204 L156 204 L87 0 L17 0 L264 692 ZM417 260 L296 614 L175 260 L417 260 Z" /><glyph glyph-name="C" unicode="c" d="M385 -12 Q313 -12 253.5 16 Q194 44 151.5 93.5 Q109 143 86 209.5 Q63 276 63 353 Q63 428 88 492 Q113 556 156 603.5 Q199 651 257 677.5 Q315 704 382 704 Q432 704 482 691.5 Q532 679 581 648 L561 584 Q538 598 518 609 Q498 620 477 627.5 Q456 635 433 638.5 Q410 642 383 642 Q328 642 281.5 617.5 Q235 593 201 553 Q167 513 148 460.5 Q129 408 129 353 Q129 293 148.5 238 Q168 183 202.5 141 Q237 99 284 74.5 Q331 50 385 50 Q442 50 487 72 Q532 94 565 122 L589 63 Q574 49 554 36 Q534 23 509 12 Q484 1 453 -5.5 Q422 -12 385 -12 Z" /><glyph glyph-name="G" unicode="g" d="M380 -12 Q308 -12 249 14 Q190 40 149 87 Q108 134 85.5 200 Q63 266 63 346 Q63 423 86.5 488.5 Q110 554 152 602 Q194 650 251.5 677 Q309 704 377 704 Q441 704 485.5 691 Q530 678 567 659 L552 596 Q531 608 511.5 616.5 Q492 625 472 630.5 Q452 636 428.5 639 Q405 642 377 642 Q320 642 274 619 Q228 596 196 555.5 Q164 515 147 461 Q130 407 130 346 Q130 284 147.5 230 Q165 176 197 136 Q229 96 275.5 73 Q322 50 380 50 Q416 50 455 57.5 Q494 65 519 78 L519 291 L361 291 L361 354 L583 354 L583 39 Q533 13 484.5 0.5 Q436 -12 380 -12 Z" /><glyph glyph-name="P" unicode="p" d="M80 692 L286 692 Q332 692 372 679.5 Q412 667 441.5 642 Q471 617 488 579.5 Q505 542 505 492 Q505 441 487 403 Q469 365 436 339 Q403 313 356.5 300 Q310 287 252 287 L146 287 L146 0 L80 0 L80 692 ZM270 349 Q348 349 391.5 385.5 Q435 422 435 491 Q435 554 393.5 592 Q352 630 275 630 L146 630 L146 349 L270 349 Z" /><glyph glyph-name="zero" unicode="0" d="M281 -15 Q218 -15 174.5 17 Q131 49 103.5 101 Q76 153 63.5 218.5 Q51 284 51 350 Q51 414 64 477.5 Q77 541 105 590.5 Q133 640 176.5 671 Q220 702 281 702 Q343 702 386.5 671.5 Q430 641 458 591 Q486 541 498.5 478 Q511 415 511 350 Q511 284 498.5 218.5 Q486 153 458 101.5 Q430 50 386.5 17.5 Q343 -15 281 -15 ZM281 48 Q326 48 357.5 75 Q389 102 408.5 145.5 Q428 189 436.5 242.5 Q445 296 445 350 Q445 405 435.5 457.5 Q426 510 406 550.5 Q386 591 355 615.5 Q324 640 281 640 Q238 640 207 615 Q176 590 156 549 Q136 508 126.5 456 Q117 404 117 350 Q117 297 125.5 243 Q134 189 153.5 145.5 Q173 102 204.5 75 Q236 48 281 48 Z" /><glyph glyph-name="one" unicode="1" d="M453 58 L453 0 L137 0 L137 58 L276 58 L276 607 L161 511 L129 557 L282 692 L339 692 L339 58 L453 58 Z" /><glyph glyph-name="three" unicode="3" d="M254 -12 Q201 -12 152.5 0 Q104 12 65 38 L85 97 Q129 74 168.5 62.5 Q208 51 251 51 Q288 51 318 62 Q348 73 369.5 93 Q391 113 402.5 140.5 Q414 168 414 201 Q414 232 401.5 258 Q389 284 367.5 303 Q346 322 317.5 332 Q289 342 257 342 L215 342 L215 403 L256 403 Q286 403 312.5 412.5 Q339 422 359 438.5 Q379 455 390.5 477.5 Q402 500 402 527 Q402 583 361.5 612 Q321 641 256 642 Q181 644 103 591 L81 645 Q123 674 168.5 689 Q214 704 258 704 Q357 704 412.5 659 Q468 614 468 534 Q468 480 435.5 437 Q403 394 351 376 L351 374 Q414 352 448 306.5 Q482 261 482 201 Q482 152 466 112.5 Q450 73 420 45.5 Q390 18 348 3 Q306 -12 254 -12 Z" /><glyph glyph-name="five" unicode="5" d="M263 -12 Q210 -12 160 1.5 Q110 15 70 37 L91 99 Q133 74 176.5 62.5 Q220 51 262 51 Q299 51 330.5 63.5 Q362 76 385 98 Q408 120 421 149.5 Q434 179 434 214 Q434 250 421.5 280.5 Q409 311 386.5 332.5 Q364 354 332.5 366 Q301 378 263 378 Q224 378 185.5 369.5 Q147 361 106 340 L85 350 L98 692 L464 692 L464 631 L159 631 L149 418 L152 415 Q184 426 212.5 433 Q241 440 276 440 Q324 440 364.5 424.5 Q405 409 435 380.5 Q465 352 482 312 Q499 272 499 223 Q499 172 482 129 Q465 86 433.5 54.5 Q402 23 358.5 5.5 Q315 -12 263 -12 Z" /><glyph glyph-name="cid656" unicode="&#x3001;" d="M339 -49 Q299 2 257 44.5 Q215 87 158 132 L191 175 Q240 148 294 106 Q348 64 397 15 L339 -49 Z" /><glyph glyph-name="cid675" unicode="&#x3002;" d="M272 -105 Q247 -105 225.5 -95.5 Q204 -86 188 -70 Q172 -54 162.5 -32.5 Q153 -11 153 14 Q153 38 162.5 59.5 Q172 81 188 97 Q204 113 225.5 122.5 Q247 132 272 132 Q296 132 317.5 122.5 Q339 113 355 97 Q371 81 380.5 59.5 Q390 38 390 14 Q390 -11 380.5 -32.5 Q371 -54 355 -70 Q339 -86 317.5 -95.5 Q296 -105 272 -105 ZM272 -64 Q304 -64 326.5 -41.5 Q349 -19 349 14 Q349 46 326.5 68.5 Q304 91 272 91 Q240 91 217.5 68.5 Q195 46 195 14 Q195 -19 217.5 -41.5 Q240 -64 272 -64 Z" /><glyph glyph-name="slash" unicode="/" d="M347 743 L414 743 L187 0 L120 0 L347 743 Z" /><glyph glyph-name="cid697" unicode="&#xff0c;" d="M199 -112 Q222 -98 235.5 -79.5 Q249 -61 249 -42 Q249 -23 239 -13.5 Q229 -4 211 0 L211 117 L301 117 L301 10 Q301 -22 295.5 -45.5 Q290 -69 279.5 -87 Q269 -105 253.5 -119.5 Q238 -134 217 -148 L199 -112 Z" /><glyph glyph-name="cid700" unicode="&#xff01;" d="M208 589 L208 728 L285 728 L285 589 L274 196 L218 196 L208 589 ZM202 101 L290 101 L290 -15 L202 -15 L202 101 Z" /><glyph glyph-name="plus" unicode="+" d="M251 288 L39 288 L39 350 L251 350 L251 576 L313 576 L313 350 L523 350 L523 288 L313 288 L313 62 L251 62 L251 288 Z" /><glyph glyph-name="cid1105" unicode="&#x4e00;" d="M887 425 L887 367 L82 367 L82 425 L887 425 Z" /><glyph glyph-name="cid1108" unicode="&#x4e07;" d="M73 -48 Q156 14 204 88 Q252 162 277.5 239.5 Q303 317 311 394 Q319 471 321 539 L324 665 L89 665 L89 721 L884 721 L884 665 L387 665 L383 533 Q382 515 381.5 497 Q381 479 379 460 L772 460 Q771 402 768.5 339.5 Q766 277 762.5 220 Q759 163 755.5 117.5 Q752 72 749 47 Q744 11 736.5 -12.5 Q729 -36 714.5 -50 Q700 -64 678 -69.5 Q656 -75 622 -75 L454 -75 L444 -16 L609 -16 Q630 -16 643.5 -14 Q657 -12 665.5 -5.5 Q674 1 679 14.5 Q684 28 687 51 Q691 79 694.5 123.5 Q698 168 701 217 Q704 266 706 315.5 Q708 365 708 404 L375 404 Q369 342 354.5 277.5 Q340 213 310.5 148 Q281 83 233 20.5 Q185 -42 112 -99 L73 -48 Z" /><glyph glyph-name="cid1111" unicode="&#x4e0a;" d="M465 800 L465 516 L828 516 L828 459 L465 459 L465 6 L882 6 L882 -51 L88 -51 L88 6 L405 6 L405 800 L465 800 Z" /><glyph glyph-name="cid1112" unicode="&#x4e0b;" d="M890 722 L890 665 L492 665 L492 508 Q523 484 568.5 447.5 Q614 411 661.5 372 Q709 333 752.5 295.5 Q796 258 823 233 L779 184 Q757 206 722 237 Q687 268 647 301.5 Q607 335 566 368.5 Q525 402 492 429 L492 -99 L428 -99 L428 665 L81 665 L81 722 L890 722 Z" /><glyph glyph-name="cid1114" unicode="&#x4e0d;&#xf967;" d="M60 212 Q209 304 315.5 415 Q422 526 482 660 L96 660 L96 716 L873 716 L873 660 L550 660 Q513 578 467 508 Q421 438 365 376.5 Q309 315 242 261 Q175 207 96 158 L60 212 ZM515 454 L515 -96 L453 -96 L453 454 L515 454 ZM619 454 Q650 430 686.5 399 Q723 368 759.5 333.5 Q796 299 831.5 263.5 Q867 228 897 197 L850 151 Q823 179 788 214.5 Q753 250 716.5 285 Q680 320 644 352 Q608 384 580 407 L619 454 Z" /><glyph glyph-name="cid1115" unicode="&#x4e0e;" d="M208 374 Q215 432 221 485.5 Q227 539 232.5 590.5 Q238 642 243 693.5 Q248 745 253 800 L313 796 Q310 761 306.5 724 Q303 687 299 650 L876 650 L876 594 L294 594 L276 430 L820 430 Q815 298 807 198.5 Q799 99 791 37 Q787 7 779 -16 Q771 -39 755 -54.5 Q739 -70 712.5 -78 Q686 -86 645 -86 L487 -86 L478 -28 L638 -28 Q656 -28 671 -25.5 Q686 -23 697.5 -15.5 Q709 -8 717 6.5 Q725 21 729 45 Q733 71 737 108.5 Q741 146 744 189.5 Q747 233 749.5 280 Q752 327 754 374 L208 374 ZM657 213 L657 156 L81 156 L81 213 L657 213 Z" /><glyph glyph-name="cid1118" unicode="&#x4e13;" d="M318 489 Q346 562 368 631 L150 631 L150 685 L385 685 Q406 750 420 807 L480 798 Q473 772 465 743.5 Q457 715 448 685 L802 685 L802 631 L430 631 Q419 596 406.5 560 Q394 524 382 489 L892 489 L892 434 L362 434 Q348 398 335 365 Q322 332 311 303 L755 303 L755 251 Q740 229 717 200.5 Q694 172 666.5 141.5 Q639 111 610 81 Q581 51 555 27 Q600 8 644.5 -11 Q689 -30 733 -50 L704 -108 Q589 -53 465.5 -2 Q342 49 224 94 L247 147 Q306 125 367.5 102 Q429 79 492 53 Q547 101 591.5 149 Q636 197 673 248 L239 248 L239 296 Q253 326 268 361 Q283 396 297 434 L79 434 L79 489 L318 489 Z" /><glyph glyph-name="cid1121" unicode="&#x4e16;" d="M185 553 L185 771 L246 771 L246 553 L422 553 L422 801 L481 801 L481 553 L672 553 L672 801 L732 801 L732 553 L900 553 L900 496 L732 496 L732 179 L422 179 L422 496 L246 496 L246 15 L864 15 L864 -43 L185 -43 L185 496 L75 496 L75 553 L185 553 ZM672 236 L672 496 L481 496 L481 236 L672 236 Z" /><glyph glyph-name="cid1124" unicode="&#x4e1a;" d="M362 10 L362 790 L422 790 L422 10 L550 10 L550 790 L610 790 L610 10 L892 10 L892 -46 L77 -46 L77 10 L362 10 ZM643 203 Q704 304 743 401.5 Q782 499 814 609 L870 591 Q837 482 796 377.5 Q755 273 695 172 L643 203 ZM163 593 Q204 499 244 396.5 Q284 294 320 197 L265 172 Q230 268 189.5 371.5 Q149 475 108 568 L163 593 Z" /><glyph glyph-name="cid1135" unicode="&#x4e2a;" d="M57 412 Q121 451 177 492.5 Q233 534 282 581 Q331 628 374.5 683 Q418 738 457 803 L514 803 Q553 738 595 684 Q637 630 685 583 Q733 536 788.5 494.5 Q844 453 911 415 L878 358 Q807 401 749 445.5 Q691 490 643.5 537 Q596 584 557.5 634 Q519 684 486 739 Q452 684 412.5 633.5 Q373 583 325 536 Q277 489 219.5 445 Q162 401 92 359 L57 412 ZM516 464 L516 -100 L454 -100 L454 464 L516 464 Z" /><glyph glyph-name="cid1138" unicode="&#x4e2d;" d="M516 799 L516 608 L847 608 L847 231 L516 231 L516 -100 L455 -100 L455 231 L123 231 L123 608 L455 608 L455 799 L516 799 ZM183 288 L455 288 L455 551 L183 551 L183 288 ZM516 551 L516 288 L787 288 L787 551 L516 551 Z" /><glyph glyph-name="cid1139" unicode="&#x4e30;" d="M454 428 L454 597 L126 597 L126 654 L454 654 L454 798 L513 798 L513 654 L843 654 L843 597 L513 597 L513 428 L799 428 L799 372 L513 372 L513 195 L894 195 L894 138 L513 138 L513 -100 L454 -100 L454 138 L75 138 L75 195 L454 195 L454 372 L170 372 L170 428 L454 428 Z" /><glyph glyph-name="cid1145" unicode="&#x4e3a;" d="M83 -48 Q162 3 221 61 Q280 119 321.5 187 Q363 255 389 334.5 Q415 414 429 510 L127 510 L127 568 L436 568 Q441 621 444 678 Q447 735 447 798 L512 798 Q510 735 507 678 Q504 621 499 568 L836 568 Q834 491 831 410 Q828 329 824 256.5 Q820 184 816 125 Q812 66 809 34 Q803 -31 773 -57 Q743 -83 681 -85 L548 -85 L536 -27 L657 -27 Q682 -27 698 -24 Q714 -21 724.5 -13 Q735 -5 740.5 9.5 Q746 24 749 48 Q752 72 755 126.5 Q758 181 761.5 248 Q765 315 767.5 385.5 Q770 456 771 510 L492 510 Q478 402 451 313.5 Q424 225 380 151.5 Q336 78 273 16.5 Q210 -45 123 -101 L83 -48 ZM538 378 Q558 357 580 332 Q602 307 623.5 281.5 Q645 256 664.5 231 Q684 206 699 184 L652 148 Q573 259 496 339 L538 378 ZM234 783 Q271 751 306 713 Q341 675 367 642 L322 603 Q293 642 260 678.5 Q227 715 195 745 L234 783 Z" /><glyph glyph-name="cid1170" unicode="&#x4e5f;" d="M513 805 L513 584 L811 650 L794 312 Q792 286 786.5 264.5 Q781 243 768.5 227.5 Q756 212 736 203 Q716 194 685 194 L592 194 L583 252 L673 252 Q693 252 704.5 258 Q716 264 722 274 Q728 284 730 298 Q732 312 733 329 L744 573 L513 523 L513 106 L454 106 L454 511 L266 470 L266 66 Q266 28 286 11.5 Q306 -5 336 -5 L524 -5 Q560 -5 608.5 -3 Q657 -1 709 3.5 Q761 8 810.5 15 Q860 22 899 33 L912 -27 Q877 -37 825.5 -43.5 Q774 -50 718.5 -54.5 Q663 -59 609.5 -61 Q556 -63 517 -63 L333 -63 Q272 -63 239 -31 Q206 1 206 61 L206 457 L82 431 L69 486 L206 516 L206 692 L266 692 L266 529 L454 571 L454 805 L513 805 Z" /><glyph glyph-name="cid1171" unicode="&#x4e60;" d="M814 722 Q813 640 811.5 544 Q810 448 807 356.5 Q804 265 801 188.5 Q798 112 794 69 Q791 41 784 15.5 Q777 -10 759.5 -30 Q742 -50 712 -62.5 Q682 -75 634 -75 L493 -75 L483 -18 L625 -18 Q656 -18 676 -12.5 Q696 -7 708 5 Q720 17 725.5 34.5 Q731 52 734 75 Q736 105 738 148.5 Q740 192 742.5 243.5 Q745 295 747 351 Q749 407 750.5 462.5 Q752 518 752 570 Q752 622 751 666 L133 666 L133 722 L814 722 ZM97 121 Q243 173 368.5 233.5 Q494 294 606 368 L639 318 Q591 283 529 248 Q467 213 398.5 180 Q330 147 257.5 117 Q185 87 116 62 L97 121 ZM252 594 Q316 554 373 512.5 Q430 471 486 429 L447 377 Q331 470 218 544 L252 594 Z" /><glyph glyph-name="cid1180" unicode="&#x4e86;&#xf9ba;" d="M822 717 L822 663 L515 422 L515 56 Q515 22 511 -2 Q507 -26 494 -41 Q481 -56 456 -63 Q431 -70 389 -70 L279 -70 L269 -14 L379 -14 Q405 -14 420 -12.5 Q435 -11 442.5 -3.5 Q450 4 452 19.5 Q454 35 455 64 L455 451 L729 662 L120 662 L120 717 L822 717 Z" /><glyph glyph-name="cid1183" unicode="&#x4e8b;" d="M454 382 L454 442 L187 442 L187 613 L454 613 L454 670 L92 670 L92 723 L454 723 L454 801 L512 801 L512 723 L875 723 L875 670 L512 670 L512 613 L791 613 L791 442 L512 442 L512 382 L811 382 L811 257 L902 257 L902 204 L811 204 L811 76 L512 76 L512 33 Q512 7 507.5 -14 Q503 -35 491 -50 Q479 -65 457 -74 Q435 -83 399 -84 L307 -84 L297 -28 L390 -28 Q412 -28 424.5 -22.5 Q437 -17 443.5 -7.5 Q450 2 452 15.5 Q454 29 454 45 L454 76 L148 76 L148 130 L454 130 L454 204 L81 204 L81 257 L454 257 L454 328 L148 328 L148 382 L454 382 ZM752 130 L752 204 L512 204 L512 130 L752 130 ZM512 328 L512 257 L752 257 L752 328 L512 328 ZM512 560 L512 495 L733 495 L733 560 L512 560 ZM244 495 L454 495 L454 560 L244 560 L244 495 Z" /><glyph glyph-name="cid1184" unicode="&#x4e8c;" d="M890 76 L890 18 L79 18 L79 76 L890 76 ZM821 655 L821 597 L153 597 L153 655 L821 655 Z" /><glyph glyph-name="cid1189" unicode="&#x4e92;" d="M288 682 L104 682 L104 738 L866 738 L866 682 L348 682 L323 510 L751 510 L709 -5 L890 -5 L890 -61 L76 -61 L76 -5 L643 -5 L658 177 L207 177 L288 682 ZM315 454 L282 232 L663 232 L682 454 L315 454 Z" /><glyph glyph-name="cid1201" unicode="&#x4ea4;" d="M335 392 Q368 322 405 268.5 Q442 215 486 172 Q581 262 631 389 L687 369 Q658 296 619 237.5 Q580 179 532 131 Q603 74 691.5 34 Q780 -6 893 -43 L870 -100 Q762 -66 666 -23 Q570 20 486 90 Q406 24 309 -20.5 Q212 -65 99 -101 L74 -45 Q184 -12 276 31 Q368 74 440 132 Q395 178 355 235.5 Q315 293 281 366 L335 392 ZM513 800 L513 666 L874 666 L874 611 L91 611 L91 666 L455 666 L455 800 L513 800 ZM578 582 Q610 560 646 533.5 Q682 507 718 478.5 Q754 450 788 421.5 Q822 393 851 366 L813 321 Q748 378 682 432.5 Q616 487 541 540 L578 582 ZM114 369 Q191 411 259.5 462.5 Q328 514 379 577 L422 538 Q368 477 299 421 Q230 365 148 318 L114 369 Z" /><glyph glyph-name="cid1204" unicode="&#x4ea7;" d="M71 -72 Q98 -35 116.5 1 Q135 37 146 74 Q157 111 162 149.5 Q167 188 167 230 L167 414 L560 414 Q573 433 588.5 457 Q604 481 618.5 506.5 Q633 532 646.5 556 Q660 580 669 600 L725 572 Q705 534 679 492 Q653 450 628 414 L891 414 L891 359 L227 359 L227 225 Q225 181 220.5 140.5 Q216 100 204.5 59.5 Q193 19 173 -22 Q153 -63 122 -107 L71 -72 ZM473 679 L473 801 L529 801 L529 679 L857 679 L857 622 L114 622 L114 679 L473 679 ZM323 599 Q334 585 346.5 567 Q359 549 372 530 Q385 511 397 491.5 Q409 472 420 454 L370 423 Q350 459 324.5 497.5 Q299 536 276 568 L323 599 Z" /><glyph glyph-name="cid1207" unicode="&#x4eab;" d="M464 153 L464 201 L685 278 L157 278 L157 331 L787 331 L787 273 L526 168 L526 153 L890 153 L890 100 L526 100 L526 35 Q526 11 522.5 -10 Q519 -31 508 -47 Q497 -63 476.5 -72 Q456 -81 421 -82 L286 -82 L275 -29 L411 -29 Q430 -28 440.5 -22.5 Q451 -17 456 -7.5 Q461 2 462.5 15 Q464 28 464 44 L464 100 L68 100 L68 153 L464 153 ZM757 585 L757 397 L213 397 L213 585 L757 585 ZM511 800 L511 703 L882 703 L882 650 L87 650 L87 703 L453 703 L453 800 L511 800 ZM270 449 L701 449 L701 534 L270 534 L270 449 Z" /><glyph glyph-name="cid1214" unicode="&#x4eba;" d="M70 -49 Q176 24 249 105.5 Q322 187 367 277.5 Q412 368 432 468.5 Q452 569 452 681 L452 801 L514 801 Q514 796 514 776 Q514 756 514 731.5 Q514 707 514 684.5 Q514 662 514 653 Q514 644 513.5 635 Q513 626 513 617 Q528 503 556 408.5 Q584 314 629.5 233.5 Q675 153 740.5 84 Q806 15 896 -49 L854 -104 Q775 -46 715.5 14.5 Q656 75 612.5 141 Q569 207 539 280 Q509 353 490 435 Q455 282 363.5 146 Q272 10 109 -100 L70 -49 Z" /><glyph glyph-name="cid1222" unicode="&#x4ec5;" d="M442 662 Q466 534 507 433 Q548 332 606 247 Q661 330 698.5 431.5 Q736 533 758 664 L346 664 L346 721 L824 721 L825 665 Q797 514 753.5 399.5 Q710 285 646 194 Q702 125 770.5 66.5 Q839 8 920 -43 L885 -102 Q801 -47 731.5 11.5 Q662 70 604 141 Q547 72 476 14 Q405 -44 315 -100 L280 -44 Q368 7 438 64 Q508 121 565 192 Q501 282 455 392 Q409 502 380 645 L442 662 ZM36 329 Q76 377 113 437 Q150 497 180.5 560.5 Q211 624 234.5 687 Q258 750 270 804 L328 789 Q317 743 299.5 692.5 Q282 642 260 591 L260 -100 L200 -100 L200 466 Q170 411 139 365 Q108 319 79 288 L36 329 Z" /><glyph glyph-name="cid1229" unicode="&#x4ece;" d="M332 -58 Q402 4 452.5 68.5 Q503 133 536 211 Q569 289 584.5 385.5 Q600 482 600 608 L600 791 L659 791 L659 583 Q662 502 673.5 420 Q685 338 713 257.5 Q741 177 790.5 99.5 Q840 22 921 -51 L881 -97 Q781 -6 721.5 98.5 Q662 203 633 318 Q618 253 595 197 Q572 141 539.5 90.5 Q507 40 466 -7 Q425 -54 374 -100 L332 -58 ZM55 -41 Q114 19 156 89 Q198 159 224.5 237.5 Q251 316 263.5 401.5 Q276 487 276 578 L276 791 L335 791 L335 578 Q335 516 329 456 Q345 435 368.5 404.5 Q392 374 416.5 341 Q441 308 462.5 277 Q484 246 497 225 L447 188 Q437 206 422 228.5 Q407 251 389.5 276 Q372 301 354 327 Q336 353 319 376 Q274 105 102 -81 L55 -41 Z" /><glyph glyph-name="cid1244" unicode="&#x4ee5;" d="M324 -43 Q433 23 497 87.5 Q561 152 596 221.5 Q631 291 643.5 367 Q656 443 662 531 Q664 554 665 593.5 Q666 633 668 673 Q670 719 672 771 L735 770 Q734 722 732 676 Q730 637 729 595 Q728 553 726 524 Q720 443 710 375.5 Q700 308 678 246 Q703 217 735.5 179 Q768 141 799.5 102.5 Q831 64 859 29.5 Q887 -5 903 -26 L851 -69 Q837 -51 813.5 -20 Q790 11 762 46.5 Q734 82 704.5 118.5 Q675 155 651 185 Q613 110 543.5 41.5 Q474 -27 359 -100 L324 -43 ZM91 58 Q105 65 119.5 72.5 Q134 80 149 88 L149 734 L210 734 L210 123 Q271 158 330.5 198 Q390 238 441 280 L476 232 Q441 203 397 172 Q353 141 306 111 Q259 81 212 53.5 Q165 26 123 5 L91 58 ZM362 773 Q382 743 403.5 705.5 Q425 668 446 628.5 Q467 589 486 550 Q505 511 520 478 L459 451 Q447 483 429.5 522 Q412 561 391.5 600 Q371 639 349.5 676.5 Q328 714 308 743 L362 773 Z" /><glyph glyph-name="cid1248" unicode="&#x4eec;" d="M867 734 L867 21 Q865 -11 857.5 -31 Q850 -51 835.5 -63 Q821 -75 801 -79.5 Q781 -84 755 -85 L666 -85 L656 -29 L746 -29 Q775 -29 790.5 -17.5 Q806 -6 807 27 L807 678 L550 678 L550 734 L867 734 ZM47 378 Q81 423 114 476 Q147 529 175.5 584.5 Q204 640 227.5 695 Q251 750 266 800 L322 784 Q306 737 287.5 690 Q269 643 247 595 L247 -100 L189 -100 L189 482 Q143 400 92 336 L47 378 ZM430 596 L430 -101 L372 -101 L372 596 L430 596 ZM409 786 Q439 753 468 717.5 Q497 682 526 640 L478 605 Q463 628 450 647 Q437 666 423.5 683.5 Q410 701 396 717.5 Q382 734 367 751 L409 786 Z" /><glyph glyph-name="cid1258" unicode="&#x4f01;" d="M530 529 L530 324 L790 324 L790 269 L530 269 L530 3 L869 3 L869 -54 L86 -54 L86 3 L239 3 L239 390 L297 390 L297 3 L469 3 L469 529 L530 529 ZM70 449 Q138 482 194 522 Q250 562 297 607.5 Q344 653 382.5 703 Q421 753 454 806 L518 806 Q584 696 681.5 605 Q779 514 902 458 L871 401 Q809 429 754 467.5 Q699 506 650 550.5 Q601 595 560 644.5 Q519 694 486 745 Q455 697 418 649.5 Q381 602 334.5 557.5 Q288 513 230 472 Q172 431 100 395 L70 449 Z" /><glyph glyph-name="cid1284" unicode="&#x4f34;" d="M574 460 L574 802 L634 802 L634 460 L867 460 L867 404 L634 404 L634 225 L911 225 L911 169 L634 169 L634 -96 L574 -96 L574 169 L304 169 L304 225 L574 225 L574 404 L343 404 L343 460 L574 460 ZM45 365 Q122 464 175.5 578 Q229 692 260 804 L318 789 Q304 740 288 694 Q272 648 254 604 L254 -100 L195 -100 L195 482 Q172 440 147 401.5 Q122 363 94 328 L45 365 ZM690 543 Q725 591 751.5 641.5 Q778 692 798 739 L849 715 Q831 666 801 610.5 Q771 555 739 513 L690 543 ZM405 734 Q417 714 431 690.5 Q445 667 458.5 642 Q472 617 485 591.5 Q498 566 508 543 L455 515 Q444 539 431 565.5 Q418 592 405 617 Q392 642 379 665 Q366 688 354 706 L405 734 Z" /><glyph glyph-name="cid1305" unicode="&#x4f5c;" d="M281 412 Q313 454 341.5 501.5 Q370 549 393.5 600 Q417 651 436 703 Q455 755 469 805 L526 791 Q506 720 481 654 L483 657 L890 657 L890 600 L583 600 L583 426 L856 426 L856 369 L583 369 L583 191 L866 191 L866 136 L583 136 L583 -98 L521 -98 L521 600 L459 600 Q431 536 398.5 478.5 Q366 421 329 374 L281 412 ZM46 358 Q88 409 121.5 464.5 Q155 520 181.5 576.5 Q208 633 228 689 Q248 745 263 798 L320 782 Q302 725 285.5 676 Q269 627 250 581 L250 -98 L190 -98 L190 459 Q150 390 90 316 L46 358 Z" /><glyph glyph-name="cid1309" unicode="&#x4f60;" d="M59 351 Q97 400 129.5 457.5 Q162 515 189 574.5 Q216 634 237 693 Q258 752 273 805 L329 789 Q314 738 296.5 688 Q279 638 259 589 L259 -100 L201 -100 L201 466 Q178 424 154 384.5 Q130 345 104 310 L59 351 ZM312 462 Q339 505 360.5 545 Q382 585 399.5 625.5 Q417 666 431.5 708 Q446 750 458 796 L515 781 Q507 753 499 725.5 Q491 698 480 670 L872 670 L872 614 Q865 589 852 560.5 Q839 532 825 507 Q809 478 792 448 L740 474 Q755 498 768 524 Q779 545 790.5 569.5 Q802 594 810 614 L459 614 Q439 565 415 519 Q391 473 364 432 L312 462 ZM518 -28 Q536 -28 547 -26 Q558 -24 564.5 -18 Q571 -12 573.5 -1.5 Q576 9 577 27 L577 522 L635 522 L635 22 Q635 -14 627.5 -35 Q620 -56 606.5 -67 Q593 -78 572.5 -81 Q552 -84 527 -84 L448 -84 L439 -28 L518 -28 ZM756 393 Q778 349 800 300.5 Q822 252 842 205 Q862 158 878.5 115 Q895 72 906 38 L850 12 Q824 87 789 174.5 Q754 262 703 368 L756 393 ZM288 51 Q344 137 380.5 220 Q417 303 443 387 L498 369 Q471 279 431 187.5 Q391 96 338 17 L288 51 Z" /><glyph glyph-name="cid1337" unicode="&#x4f9b;" d="M443 283 L443 554 L332 554 L332 610 L443 610 L443 799 L503 799 L503 610 L682 610 L682 799 L742 799 L742 610 L850 610 L850 554 L742 554 L742 283 L900 283 L900 227 L289 227 L289 283 L443 283 ZM43 363 Q77 409 109.5 465 Q142 521 170 580 Q198 639 220 697.5 Q242 756 256 807 L311 793 Q297 747 281 700.5 Q265 654 245 606 L245 -90 L185 -90 L185 478 Q162 435 138.5 396 Q115 357 90 324 L43 363 ZM503 283 L682 283 L682 554 L503 554 L503 283 ZM281 -50 Q347 2 396.5 60 Q446 118 483 184 L536 151 Q517 119 493 85 Q469 51 441.5 18 Q414 -15 384 -45 Q354 -75 323 -99 L281 -50 ZM695 186 Q751 129 804 65.5 Q857 2 905 -55 L856 -97 Q805 -31 755.5 28 Q706 87 652 143 L695 186 Z" /><glyph glyph-name="cid1368" unicode="&#x4fe1;" d="M844 239 L844 -75 L392 -75 L392 239 L844 239 ZM453 -19 L783 -19 L783 184 L453 184 L453 -19 ZM50 355 Q123 464 173 571 Q223 678 252 802 L308 790 Q283 686 245 590 L245 -98 L188 -98 L188 466 Q168 428 145.5 392 Q123 356 98 322 L50 355 ZM652 800 L652 679 L911 679 L911 623 L332 623 L332 679 L592 679 L592 800 L652 800 ZM842 388 L842 335 L388 335 L388 388 L842 388 ZM842 531 L842 478 L388 478 L388 531 L842 531 Z" /><glyph glyph-name="cid1409" unicode="&#x503e;" d="M643 568 Q652 598 658.5 627 Q665 656 670 687 L513 687 L513 741 L886 741 L886 687 L724 687 Q719 658 713 626 Q707 594 699 568 L854 568 L854 124 L798 124 L798 514 L590 514 L590 124 L535 124 L535 568 L643 568 ZM45 356 Q114 459 159.5 574.5 Q205 690 229 796 L285 785 Q274 741 260.5 696 Q247 651 231 606 L231 -98 L174 -98 L174 468 Q154 427 133.5 391 Q113 355 92 326 L45 356 ZM384 786 L384 531 L496 531 L496 479 L384 479 L384 115 Q413 133 440 151.5 Q467 170 490 188 L519 141 Q501 127 476 109.5 Q451 92 423 74 Q395 56 365.5 38.5 Q336 21 309 7 L280 55 Q291 61 303.5 67 Q316 73 328 81 L328 786 L384 786 ZM472 -58 Q525 -28 561.5 6 Q598 40 621 79 Q644 118 654.5 163 Q665 208 666 260 L666 438 L720 438 L720 262 Q721 196 708.5 143 Q696 90 670 46 Q644 2 603.5 -35 Q563 -72 507 -106 L472 -58 ZM743 111 Q789 67 833 20 Q877 -27 909 -66 L868 -104 Q826 -52 788 -12 Q750 28 707 71 L743 111 Z" /><glyph glyph-name="cid1419" unicode="&#x505c;" d="M816 585 L816 417 L396 417 L396 585 L816 585 ZM50 355 Q123 464 173 571 Q223 678 252 802 L308 790 Q283 686 245 590 L245 -98 L186 -98 L186 463 Q166 425 144 390 Q122 355 98 322 L50 355 ZM532 -29 Q567 -29 576.5 -18 Q586 -7 586 22 L586 154 L399 154 L399 208 L811 208 L811 154 L645 154 L645 24 Q644 -4 639.5 -24 Q635 -44 623.5 -57 Q612 -70 592.5 -76.5 Q573 -83 542 -83 L451 -83 L441 -29 L532 -29 ZM893 349 L893 198 L837 198 L837 295 L370 295 L370 199 L314 199 L314 349 L893 349 ZM633 799 L633 703 L897 703 L897 650 L316 650 L316 703 L576 703 L576 799 L633 799 ZM450 467 L762 467 L762 535 L450 535 L450 467 Z" /><glyph glyph-name="cid1494" unicode="&#x5143;" d="M62 -41 Q140 -8 193 29.5 Q246 67 278 114.5 Q310 162 324.5 221.5 Q339 281 340 358 L340 395 L92 395 L92 451 L872 451 L872 395 L622 395 L622 54 Q622 23 630.5 7.5 Q639 -8 671 -8 L725 -8 Q755 -8 803.5 -3 Q852 2 905 16 L918 -42 Q896 -49 870 -53.5 Q844 -58 818 -61 Q792 -64 768.5 -65.5 Q745 -67 729 -67 L671 -67 Q606 -69 581.5 -41.5 Q557 -14 560 49 L560 395 L402 395 L402 346 Q399 262 381.5 195 Q364 128 327 74.5 Q290 21 231.5 -21 Q173 -63 88 -97 L62 -41 ZM785 738 L785 681 L182 681 L182 738 L785 738 Z" /><glyph glyph-name="cid1496" unicode="&#x5145;&#xfa74;" d="M78 -45 Q155 -12 207.5 23 Q260 58 292 102 Q324 146 338 202.5 Q352 259 353 336 Q299 334 248 333 Q197 332 152 332 L149 391 Q161 390 174 390 Q187 390 201 390 Q249 440 293.5 496.5 Q338 553 379 622 L87 622 L87 677 L453 677 L453 800 L511 800 L511 677 L882 677 L882 622 L453 622 Q409 551 368 495.5 Q327 440 282 391 Q334 392 388.5 393.5 Q443 395 495.5 397.5 Q548 400 597 403 Q646 406 688 410 Q659 445 629.5 478 Q600 511 575 537 L618 578 Q672 523 728.5 456 Q785 389 839 320 L788 280 Q761 319 730 358 Q703 356 673 353 Q643 350 611 348 L611 53 Q611 -9 676 -9 L723 -9 Q753 -9 796.5 -4 Q840 1 893 15 L906 -43 Q884 -50 859.5 -54.5 Q835 -59 811 -62 Q787 -65 765 -66.5 Q743 -68 727 -68 L676 -68 Q641 -68 617 -61.5 Q593 -55 578.5 -41.5 Q564 -28 557.5 -6 Q551 16 551 48 L551 344 L413 338 L413 327 Q411 246 394.5 182.5 Q378 119 341.5 68 Q305 17 246.5 -23.5 Q188 -64 104 -100 L78 -45 Z" /><glyph glyph-name="cid1512" unicode="&#x5168;&#xfa72;" d="M729 479 L729 423 L517 423 L517 261 L775 261 L775 205 L517 205 L517 -2 L881 -2 L881 -59 L90 -59 L90 -2 L454 -2 L454 205 L195 205 L195 261 L454 261 L454 423 L241 423 L241 479 L729 479 ZM62 466 Q197 533 292 614.5 Q387 696 456 800 L516 800 Q585 692 685.5 611.5 Q786 531 908 473 L880 418 Q755 479 657 556.5 Q559 634 487 737 Q453 689 413.5 646 Q374 603 326 563 Q278 523 219.5 486 Q161 449 89 413 L62 466 Z" /><glyph glyph-name="cid1515" unicode="&#x516c;" d="M596 264 Q629 224 662 179 Q695 134 726 90 Q757 46 784.5 5.5 Q812 -35 834 -66 L781 -102 L728 -25 Q669 -31 594.5 -36 Q520 -41 440.5 -44.5 Q361 -48 283 -50 Q205 -52 140 -53 L137 8 L182 8 Q219 50 257 102 Q295 154 330.5 210 Q366 266 397.5 325 Q429 384 453 440 L510 410 Q487 359 457.5 304.5 Q428 250 395.5 197.5 Q363 145 329 96.5 Q295 48 263 9 Q376 11 488.5 15.5 Q601 20 692 28 Q657 79 621 129 Q585 179 550 223 L596 264 ZM840 314 Q730 399 654 517.5 Q578 636 526 779 L582 800 Q606 737 635 678 Q664 619 700 564.5 Q736 510 781 460 Q826 410 882 365 L840 314 ZM86 376 Q195 461 263.5 567.5 Q332 674 377 792 L433 771 Q413 711 384 650.5 Q355 590 316.5 533 Q278 476 229.5 423.5 Q181 371 123 327 L86 376 Z" /><glyph glyph-name="cid1519" unicode="&#x5171;" d="M149 616 L303 616 L303 800 L363 800 L363 616 L606 616 L606 799 L667 799 L667 616 L819 616 L819 559 L667 559 L667 294 L894 294 L894 237 L74 237 L74 294 L303 294 L303 559 L149 559 L149 616 ZM363 294 L606 294 L606 559 L363 559 L363 294 ZM72 -45 Q152 5 220 63 Q288 121 348 197 L397 160 Q337 80 259.5 13 Q182 -54 106 -96 L72 -45 ZM594 202 Q632 173 672.5 141 Q713 109 753 76 Q793 43 829 11.5 Q865 -20 894 -47 L854 -94 Q782 -29 706.5 34.5 Q631 98 556 156 L594 202 Z" /><glyph glyph-name="cid1533" unicode="&#x5185;" d="M206 175 Q329 252 389.5 352.5 Q450 453 453 578 L453 607 L191 607 L191 -98 L131 -98 L131 663 L453 663 L453 804 L513 804 L513 663 L835 663 L835 40 Q835 10 829.5 -14 Q824 -38 809.5 -54 Q795 -70 771 -78.5 Q747 -87 711 -87 L606 -87 L596 -30 L701 -30 Q745 -30 760 -10.5 Q775 9 775 44 L775 607 L513 607 L513 575 Q510 508 495 450 Q523 420 555 387.5 Q587 355 619.5 320.5 Q652 286 683.5 250 Q715 214 743 177 L695 138 Q639 213 585.5 270.5 Q532 328 475 388 Q443 308 384.5 243.5 Q326 179 240 125 L206 175 Z" /><glyph glyph-name="cid1537" unicode="&#x518c;" d="M429 -70 Q457 -30 477.5 10.5 Q498 51 511.5 99 Q525 147 531.5 206 Q538 265 538 340 L538 356 L431 356 L431 42 Q431 -15 411 -43.5 Q391 -72 339 -73 L256 -73 L246 -15 L330 -15 Q356 -15 364 2.5 Q372 20 372 48 L372 356 L238 356 L238 336 Q237 255 229.5 191 Q222 127 207.5 75 Q193 23 171 -20 Q149 -63 120 -100 L72 -68 Q100 -29 119.5 10.5 Q139 50 151.5 97.5 Q164 145 170 203.5 Q176 262 177 340 L177 356 L90 356 L90 412 L177 412 L177 758 L431 758 L431 412 L538 412 L538 758 L798 758 L798 412 L895 412 L895 356 L798 356 L798 38 Q800 -23 777.5 -53.5 Q755 -84 705 -86 L621 -86 L611 -28 L682 -28 Q701 -29 712.5 -23.5 Q724 -18 730 -8 Q736 2 737.5 15.5 Q739 29 739 44 L739 356 L599 356 L599 336 Q597 254 589 189.5 Q581 125 566 73.5 Q551 22 529.5 -20 Q508 -62 480 -100 L429 -70 ZM599 412 L739 412 L739 702 L599 702 L599 412 ZM238 412 L372 412 L372 702 L238 702 L238 412 Z" /><glyph glyph-name="cid1543" unicode="&#x5199;" d="M265 627 L323 619 L314 536 L745 536 L745 480 L309 480 L296 350 L798 350 L783 63 Q780 22 772.5 -6 Q765 -34 747.5 -51.5 Q730 -69 701 -77 Q672 -85 625 -85 L473 -85 L463 -28 L615 -28 Q647 -28 666.5 -24 Q686 -20 697.5 -9.5 Q709 1 714 18.5 Q719 36 722 63 L735 293 L228 293 L265 627 ZM863 737 L863 528 L802 528 L802 681 L173 681 L173 528 L113 528 L113 737 L863 737 ZM644 160 L644 103 L101 103 L101 160 L644 160 Z" /><glyph glyph-name="cid1565" unicode="&#x51c6;" d="M223 389 Q260 431 291 481 Q322 531 347 585 Q372 639 391 693.5 Q410 748 425 798 L480 783 Q469 744 456 705.5 Q443 667 427 629 L873 629 L873 576 L675 576 L675 436 L847 436 L847 383 L675 383 L675 231 L847 231 L847 178 L675 178 L675 14 L888 14 L888 -40 L410 -40 L410 -100 L352 -100 L352 472 Q333 440 313 409.5 Q293 379 271 352 L223 389 ZM410 14 L617 14 L617 178 L410 178 L410 14 ZM410 231 L617 231 L617 383 L410 383 L410 231 ZM410 436 L617 436 L617 576 L410 576 L410 436 ZM62 -37 Q81 3 100 50 Q119 97 135.5 147 Q152 197 166 248 Q180 299 191 347 L247 335 Q235 283 220 227.5 Q205 172 188 119.5 Q171 67 152.5 20.5 Q134 -26 116 -62 L62 -37 ZM149 753 Q176 703 199 646.5 Q222 590 251 513 L195 491 Q169 564 146 620.5 Q123 677 97 728 L149 753 ZM605 795 Q615 782 627 764.5 Q639 747 650.5 729 Q662 711 672 694.5 Q682 678 689 666 L641 634 Q635 647 625.5 663.5 Q616 680 604.5 697.5 Q593 715 581.5 732 Q570 749 560 763 L605 795 Z" /><glyph glyph-name="cid1588" unicode="&#x51fa;" d="M522 811 L522 449 L745 449 L745 708 L806 708 L806 393 L522 393 L522 -3 L775 -3 L775 306 L836 306 L836 -59 L146 -59 L146 305 L205 305 L205 -3 L461 -3 L461 393 L176 393 L176 707 L235 707 L235 449 L461 449 L461 811 L522 811 Z" /><glyph glyph-name="cid1597" unicode="&#x5206;" d="M732 408 Q727 265 722 175.5 Q717 86 712 36 Q709 7 702.5 -16 Q696 -39 681.5 -54.5 Q667 -70 643.5 -78.5 Q620 -87 584 -86 L444 -86 L434 -28 L581 -28 Q604 -28 617 -22 Q630 -16 637 -6.5 Q644 3 646.5 15.5 Q649 28 651 43 Q653 62 655 89 Q657 116 659.5 153.5 Q662 191 664 239.5 Q666 288 667 351 L427 351 Q421 295 406 234.5 Q391 174 359 114.5 Q327 55 271.5 -0.5 Q216 -56 129 -101 L98 -48 Q176 -8 225 40 Q274 88 303.5 139.5 Q333 191 346.5 244.5 Q360 298 366 351 L210 351 L210 408 L732 408 ZM861 346 Q743 429 657 542.5 Q571 656 526 779 L582 800 Q602 747 632 692 Q662 637 702 584 Q742 531 791 483 Q840 435 898 395 L861 346 ZM72 405 Q184 483 258.5 577 Q333 671 381 788 L436 763 Q409 704 377 647.5 Q345 591 305 539 Q265 487 216.5 440 Q168 393 108 354 L72 405 Z" /><glyph glyph-name="cid1598" unicode="&#x5207;&#xfa00;" d="M309 -48 Q375 6 419.5 64.5 Q464 123 491 188 Q518 253 531 328 Q544 403 548 490 Q548 498 549 519.5 Q550 541 551.5 567 Q553 593 554 620 Q555 647 555 667 L406 667 L406 724 L851 724 Q849 672 847 605 Q845 538 842.5 466.5 Q840 395 838 324.5 Q836 254 834.5 196.5 Q833 139 831.5 99 Q830 59 830 48 Q828 16 823 -7.5 Q818 -31 804 -47 Q790 -63 763 -70.5 Q736 -78 691 -78 L580 -78 L572 -19 L686 -19 Q712 -19 727.5 -16 Q743 -13 751.5 -4.5 Q760 4 763 18.5 Q766 33 768 56 Q768 67 769.5 101 Q771 135 772.5 184 Q774 233 775.5 293 Q777 353 779 417.5 Q781 482 782.5 546 Q784 610 785 667 L618 667 L610 482 Q606 390 590.5 310.5 Q575 231 545 160.5 Q515 90 467.5 26.5 Q420 -37 352 -96 L309 -48 ZM198 522 L198 791 L258 791 L258 529 L420 547 L426 491 L258 472 L258 127 Q295 151 328.5 175.5 Q362 200 390 223 L425 174 Q400 153 370 131.5 Q340 110 308 88.5 Q276 67 243 47 Q210 27 180 10 L149 62 L198 90 L198 465 L68 451 L62 507 L198 522 Z" /><glyph glyph-name="cid1610" unicode="&#x521b;" d="M45 457 Q97 500 137.5 540.5 Q178 581 210 622.5 Q242 664 266.5 708.5 Q291 753 312 805 L366 783 Q361 772 356.5 760.5 Q352 749 347 738 Q372 713 402 681.5 Q432 650 462 617.5 Q492 585 519 554.5 Q546 524 565 502 L518 462 Q498 487 472.5 517 Q447 547 420.5 577 Q394 607 368 635 Q342 663 321 685 Q259 573 162 479 L482 479 Q481 432 481 390 Q480 354 480 317.5 Q480 281 479 262 Q477 228 471 207.5 Q465 187 453 175.5 Q441 164 422.5 159.5 Q404 155 377 154 L302 154 L293 211 L360 211 Q379 211 390.5 213 Q402 215 408.5 220.5 Q415 226 417.5 236.5 Q420 247 421 264 Q422 281 422.5 307 Q423 333 423 359 L423 422 L211 422 L211 46 Q211 11 223 -2.5 Q235 -16 278 -16 L333 -16 Q379 -16 434.5 -9.5 Q490 -3 542 14 L557 -43 Q516 -57 455 -65.5 Q394 -74 335 -74 L259 -74 Q199 -72 176 -46.5 Q153 -21 153 35 L153 470 Q136 455 119.5 440 Q103 425 85 411 L45 457 ZM720 -29 Q762 -29 777 -14 Q792 1 792 46 L792 799 L850 799 L850 36 Q850 7 846 -15 Q842 -37 829 -53 Q816 -69 793 -77 Q770 -85 732 -85 L638 -85 L628 -29 L720 -29 ZM675 693 L675 121 L617 121 L617 693 L675 693 Z" /><glyph glyph-name="cid1616" unicode="&#x5229;&#xf9dd;" d="M106 704 Q148 709 197 715.5 Q246 722 297 729.5 Q348 737 397.5 746.5 Q447 756 490 767 L505 711 Q473 703 432.5 695 Q392 687 348 680 L348 509 L524 509 L524 452 L348 452 L348 -93 L289 -93 L289 350 Q272 312 251.5 273.5 Q231 235 208.5 197.5 Q186 160 162.5 126.5 Q139 93 117 66 L69 107 Q127 178 182.5 266 Q238 354 279 452 L93 452 L93 509 L289 509 L289 670 Q239 662 194 656.5 Q149 651 117 648 L106 704 ZM710 -27 Q731 -27 744 -24.5 Q757 -22 764 -15 Q771 -8 773.5 5 Q776 18 777 38 L777 793 L834 793 L834 26 Q833 -31 809.5 -57 Q786 -83 719 -83 L616 -83 L606 -27 L710 -27 ZM650 672 L650 119 L593 119 L593 672 L650 672 ZM361 369 L410 398 Q427 370 443.5 340.5 Q460 311 475.5 282 Q491 253 504 227 Q517 201 526 181 L473 154 Q449 209 420.5 263 Q392 317 361 369 Z" /><glyph glyph-name="cid1617" unicode="&#x522b;" d="M490 749 L490 465 L138 465 L138 749 L490 749 ZM57 -44 Q97 -10 129 24 Q161 58 185 97 Q209 136 224.5 182 Q240 228 246 286 L96 286 L96 341 L249 341 L251 434 L310 434 L308 341 L509 341 Q509 294 507.5 249 Q506 204 504.5 166.5 Q503 129 501 100.5 Q499 72 498 58 Q493 -5 467.5 -33 Q442 -61 388 -61 L298 -61 L287 -4 L371 -4 Q392 -4 404.5 1 Q417 6 424 16 Q431 26 434 40 Q437 54 439 71 Q447 140 448 286 L304 286 Q292 160 238.5 69.5 Q185 -21 98 -89 L57 -44 ZM710 -13 Q752 -13 762.5 5.5 Q773 24 773 56 L773 786 L832 786 L832 37 Q832 11 827 -9 Q822 -29 809 -43 Q796 -57 774 -64.5 Q752 -72 719 -72 L613 -72 L603 -13 L710 -13 ZM195 519 L431 519 L431 694 L195 694 L195 519 ZM655 680 L655 171 L596 171 L596 680 L655 680 Z" /><glyph glyph-name="cid1620" unicode="&#x5230;" d="M548 740 L548 687 L347 687 Q321 632 288.5 571.5 Q256 511 224 460 Q282 462 339 466 Q396 470 450 475 Q435 498 420 519 Q405 540 390 561 L437 593 Q471 545 506 490.5 Q541 436 567 391 L518 362 Q509 378 500 393.5 Q491 409 481 425 Q437 419 387 415 Q337 411 288 408 Q239 405 194.5 403.5 Q150 402 116 401 L113 457 Q122 457 131.5 457 Q141 457 151 458 Q171 488 188 515 Q205 542 220 569 Q235 596 249.5 625 Q264 654 279 687 L108 687 L108 740 L548 740 ZM298 25 L298 200 L126 200 L126 255 L298 255 L298 381 L356 381 L356 255 L528 255 L528 200 L356 200 L356 32 Q411 39 462.5 46.5 Q514 54 558 63 L570 7 Q526 -2 465 -11 Q404 -20 338.5 -28 Q273 -36 210 -42.5 Q147 -49 99 -54 L91 3 L298 25 ZM720 -30 Q742 -30 756 -27 Q770 -24 777.5 -15.5 Q785 -7 787.5 7 Q790 21 790 44 L790 799 L848 799 L848 39 Q848 4 842.5 -19.5 Q837 -43 823 -57.5 Q809 -72 786 -78.5 Q763 -85 730 -85 L651 -85 L639 -30 L720 -30 ZM670 705 L670 137 L614 137 L614 705 L670 705 Z" /><glyph glyph-name="cid1675" unicode="&#x52a1;" d="M71 370 Q189 393 281.5 418.5 Q374 444 449 479 Q405 506 366.5 538.5 Q328 571 291 610 Q263 580 231.5 552.5 Q200 525 160 496 L124 542 Q162 569 194 597 Q226 625 255 656.5 Q284 688 310 723.5 Q336 759 362 802 L412 777 L370 712 L756 712 L756 654 Q711 598 664.5 555 Q618 512 566 479 Q633 448 715 423.5 Q797 399 902 375 L885 317 Q764 346 673 376.5 Q582 407 508 445 Q425 401 322 371 Q219 341 85 313 L71 370 ZM384 270 Q385 279 386.5 295 Q388 311 390 327 Q392 345 394 365 L453 361 Q452 344 450 328 Q448 314 447 298.5 Q446 283 445 270 L775 270 Q773 234 770.5 198 Q768 162 765 129.5 Q762 97 759 69 Q756 41 754 20 Q751 -7 743.5 -26 Q736 -45 721.5 -57 Q707 -69 683 -74.5 Q659 -80 623 -80 L489 -80 L480 -21 L611 -21 Q634 -21 649 -19 Q664 -17 673 -11 Q682 -5 686.5 6 Q691 17 693 34 Q698 74 703 116 Q708 158 710 215 L436 215 Q426 171 406 129 Q386 87 350 46.5 Q314 6 258.5 -31.5 Q203 -69 123 -102 L92 -48 Q164 -19 213.5 12.5 Q263 44 295.5 77 Q328 110 346.5 145 Q365 180 374 215 L123 215 L123 270 L384 270 ZM328 655 Q367 610 410.5 574 Q454 538 507 509 Q558 538 600.5 574 Q643 610 681 657 L330 657 Q328 655 328 655 Z" /><glyph glyph-name="cid1678" unicode="&#x52a8;" d="M397 -65 Q454 -8 492 55 Q530 118 552.5 190 Q575 262 584.5 344 Q594 426 595 522 L595 564 L482 564 L482 621 L595 621 L595 800 L656 800 L656 621 L855 621 Q850 400 846.5 255.5 Q843 111 837 38 Q834 0 827 -24 Q820 -48 805 -61.5 Q790 -75 764.5 -79.5 Q739 -84 699 -84 L636 -84 L625 -27 L692 -27 Q718 -28 733.5 -24 Q749 -20 758 -12 Q767 -4 771 8.5 Q775 21 777 38 Q780 71 783 128 Q786 185 788 256 Q790 327 792 406.5 Q794 486 795 564 L656 564 L656 517 Q654 413 642.5 323 Q631 233 605.5 155.5 Q580 78 540.5 13 Q501 -52 444 -107 L397 -65 ZM457 465 L457 410 L289 410 Q265 329 237.5 246.5 Q210 164 184 93 Q235 98 285 104 Q335 110 378 118 Q364 158 349 196.5 Q334 235 315 280 L368 303 Q397 238 421 168.5 Q445 99 469 31 L413 10 Q408 24 404.5 37 Q401 50 396 63 Q358 58 316 52.5 Q274 47 232 41.5 Q190 36 150.5 32 Q111 28 79 26 L71 83 Q82 84 93 84.5 Q104 85 115 87 Q150 171 177 251.5 Q204 332 226 410 L79 410 L79 465 L457 465 ZM415 711 L415 654 L129 654 L129 711 L415 711 Z" /><glyph glyph-name="cid1679" unicode="&#x52a9;" d="M435 729 L435 120 L481 131 L494 72 Q473 67 441.5 60 Q410 53 372 45.5 Q334 38 293 30 Q252 22 212 15.5 Q172 9 136.5 3.5 Q101 -2 75 -5 L64 55 L147 67 L147 729 L435 729 ZM406 -60 Q460 2 496.5 69.5 Q533 137 555.5 213 Q578 289 588.5 374.5 Q599 460 602 558 L480 558 L480 615 L603 615 L603 796 L663 796 L663 615 L861 615 Q860 528 858.5 451 Q857 374 854.5 302.5 Q852 231 848.5 164.5 Q845 98 841 34 Q839 4 831.5 -16 Q824 -36 809 -48 Q794 -60 770 -65 Q746 -70 709 -70 L630 -70 L619 -12 L685 -12 Q715 -12 733 -7.5 Q751 -3 761 6.5 Q771 16 775 30.5 Q779 45 781 64 Q789 149 793 269.5 Q797 390 800 558 L662 558 Q659 451 648 360 Q637 269 613.5 189.5 Q590 110 551.5 39 Q513 -32 455 -99 L406 -60 ZM205 76 Q248 84 292.5 92 Q337 100 377 108 L377 263 L205 263 L205 76 ZM205 518 L377 518 L377 674 L205 674 L205 518 ZM205 317 L377 317 L377 465 L205 465 L205 317 Z" /><glyph glyph-name="cid1722" unicode="&#x5316;" d="M319 229 Q365 255 408 284 Q451 313 492 344 L492 794 L555 794 L555 396 Q703 525 804 681 L856 646 Q798 555 720.5 472 Q643 389 555 317 L555 58 Q555 29 568 9 Q581 -11 611 -11 L661 -11 Q718 -11 781.5 -2 Q845 7 897 25 L914 -33 Q891 -41 859.5 -47.5 Q828 -54 794.5 -58.5 Q761 -63 728.5 -65.5 Q696 -68 672 -68 L605 -68 Q544 -68 518 -36.5 Q492 -5 492 49 L492 268 Q457 243 422 220.5 Q387 198 352 178 L319 229 ZM48 348 Q138 448 206 560.5 Q274 673 321 804 L379 783 Q359 726 334.5 672.5 Q310 619 283 569 L283 -96 L222 -96 L222 467 Q159 372 96 306 L48 348 Z" /><glyph glyph-name="cid1737" unicode="&#x533a;" d="M861 751 L861 694 L212 694 L212 -5 L882 -5 L882 -61 L149 -61 L149 751 L861 751 ZM353 607 L559 388 Q600 443 637 506.5 Q674 570 709 646 L763 620 Q725 540 685.5 472 Q646 404 600 343 Q658 280 711.5 220.5 Q765 161 813 106 L765 62 Q709 128 659 185 Q609 242 562 295 Q508 229 444 169.5 Q380 110 299 50 L260 102 Q332 153 397 210.5 Q462 268 522 340 Q465 402 413 457 Q361 512 310 564 L353 607 Z" /><glyph glyph-name="cid1742" unicode="&#x5341;" d="M515 797 L515 461 L876 461 L876 402 L515 402 L515 -100 L452 -100 L452 402 L94 402 L94 461 L452 461 L452 797 L515 797 Z" /><glyph glyph-name="cid1745" unicode="&#x5347;" d="M132 674 Q190 684 239 693.5 Q288 703 334 714.5 Q380 726 426.5 739 Q473 752 526 770 L547 715 Q498 698 456 685 Q414 672 372 661 L372 408 L626 408 L626 791 L688 791 L688 408 L890 408 L890 351 L688 351 L688 -100 L626 -100 L626 351 L371 351 Q368 278 354 215.5 Q340 153 313 98.5 Q286 44 244 -5.5 Q202 -55 142 -101 L101 -50 Q159 -7 198 38 Q237 83 261 132.5 Q285 182 296 236 Q307 290 310 351 L81 351 L81 408 L311 408 L311 646 Q273 638 232.5 630.5 Q192 623 144 615 L132 674 Z" /><glyph glyph-name="cid1773" unicode="&#x5370;" d="M855 726 L855 190 Q855 124 832 95.5 Q809 67 747 67 L651 67 L641 124 L733 124 Q768 124 781.5 137.5 Q795 151 795 189 L795 670 L583 670 L583 -98 L522 -98 L522 726 L855 726 ZM137 711 Q212 724 289 742 Q366 760 435 783 L456 722 Q391 699 324.5 683 Q258 667 198 658 L198 446 L445 446 L445 389 L198 389 L198 113 Q261 133 321.5 155 Q382 177 437 201 L456 145 Q419 129 376 113 Q333 97 287.5 81 Q242 65 195.5 51 Q149 37 105 25 L87 82 L137 95 L137 711 Z" /><glyph glyph-name="cid1794" unicode="&#x539a;" d="M817 634 L817 364 L314 364 L314 634 L817 634 ZM548 145 L548 182 L732 254 L312 254 L312 305 L833 305 L833 245 L608 153 L608 145 L896 145 L896 92 L608 92 L608 36 Q608 12 605 -8.5 Q602 -29 591.5 -44.5 Q581 -60 560.5 -69 Q540 -78 506 -79 L404 -79 L395 -27 L496 -27 Q515 -26 525.5 -20.5 Q536 -15 541 -6 Q546 3 547 16 Q548 29 548 44 L548 92 L236 92 L236 145 L548 145 ZM56 -70 Q84 -29 104 15 Q124 59 137 110.5 Q150 162 156 222.5 Q162 283 162 356 L162 752 L880 752 L880 700 L221 700 L221 347 Q218 269 211 204.5 Q204 140 190.5 86 Q177 32 156 -14 Q135 -60 104 -101 L56 -70 ZM759 417 L759 473 L372 473 L372 417 L759 417 ZM372 526 L759 526 L759 582 L372 582 L372 526 Z" /><glyph glyph-name="cid1812" unicode="&#x53c2;" d="M57 246 Q150 284 215 328.5 Q280 373 329 429 L95 429 L95 484 L372 484 Q386 504 399 525 Q412 546 425 569 L482 547 Q473 530 464 514.5 Q455 499 445 484 L875 484 L875 429 L643 429 Q690 375 757 328.5 Q824 282 912 248 L884 195 Q780 237 706.5 295 Q633 353 576 429 L407 429 Q379 393 346.5 361 Q314 329 274.5 300 Q235 271 187 244.5 Q139 218 81 193 L57 246 ZM158 620 Q173 620 188.5 620 Q204 620 220 621 Q268 658 323.5 705.5 Q379 753 430 806 L478 766 Q432 723 390.5 688 Q349 653 312 623 Q405 627 490.5 632.5 Q576 638 643 647 Q622 664 603 679 Q584 694 569 705 L604 746 Q627 730 654.5 708.5 Q682 687 710.5 663.5 Q739 640 767 615 Q795 590 819 568 L778 525 Q761 542 741 560.5 Q721 579 700 598 Q658 592 590.5 586 Q523 580 447 575.5 Q371 571 295.5 568 Q220 565 162 564 L158 620 ZM139 -46 Q228 -31 307 -12 Q386 7 460.5 32 Q535 57 608 89 Q681 121 758 162 L789 109 Q712 66 639 32.5 Q566 -1 489.5 -26.5 Q413 -52 330.5 -71 Q248 -90 154 -103 L139 -46 ZM193 100 Q261 113 321.5 130 Q382 147 439 168.5 Q496 190 550 216 Q604 242 660 274 L693 229 Q583 160 465.5 115 Q348 70 208 43 L193 100 ZM256 256 Q305 266 346.5 277.5 Q388 289 425.5 302.5 Q463 316 499 332.5 Q535 349 573 370 L602 323 Q562 300 523.5 282.5 Q485 265 445 250.5 Q405 236 362.5 224 Q320 212 272 201 L256 256 Z" /><glyph glyph-name="cid1820" unicode="&#x53d1;" d="M75 44 Q129 95 174.5 149 Q220 203 257 262.5 Q294 322 323 388.5 Q352 455 373 530 L158 530 L158 584 Q164 602 171 625 Q178 648 185 671.5 Q192 695 198.5 718 Q205 741 209 761 L267 751 Q264 738 258 716.5 Q252 695 245 671.5 Q238 648 231 625 Q224 602 219 587 L388 587 Q399 636 407.5 689 Q416 742 422 800 L481 796 Q474 739 465.5 687 Q457 635 446 587 L871 587 L871 530 L432 530 Q423 496 412.5 464.5 Q402 433 391 403 L762 403 L762 348 Q734 273 694.5 210.5 Q655 148 599 95 Q653 56 721.5 23 Q790 -10 876 -36 L851 -95 Q756 -64 682.5 -27 Q609 10 551 53 Q430 -42 234 -100 L211 -41 Q300 -16 372.5 18 Q445 52 503 94 Q451 141 413.5 193 Q376 245 347 303 Q304 216 247.5 142 Q191 68 116 0 L75 44 ZM385 347 Q411 292 451.5 238 Q492 184 551 133 Q604 180 640 233.5 Q676 287 697 347 L385 347 ZM599 736 L636 776 Q671 746 705.5 714.5 Q740 683 771 651 L730 610 Q703 641 668.5 674 Q634 707 599 736 Z" /><glyph glyph-name="cid1822" unicode="&#x53d6;" d="M492 743 L492 689 L428 689 L428 180 L506 197 L518 141 Q495 136 473 131 Q451 126 428 121 L428 -98 L371 -98 L371 109 Q297 95 222.5 82 Q148 69 73 57 L64 116 Q82 119 101 121.5 Q120 124 140 128 L140 689 L81 689 L81 743 L492 743 ZM585 618 Q599 514 624 424 Q649 334 687 254 Q729 344 751.5 442 Q774 540 783 649 L505 649 L505 704 L845 704 L845 649 Q831 519 802.5 404.5 Q774 290 721 187 Q759 121 805.5 61 Q852 1 911 -55 L868 -102 Q758 0 685 123 Q648 63 600.5 7.5 Q553 -48 492 -100 L450 -55 Q515 0 564 59.5 Q613 119 651 185 Q604 278 573.5 382 Q543 486 523 607 L585 618 ZM197 345 L371 345 L371 493 L197 493 L197 345 ZM197 547 L371 547 L371 689 L197 689 L197 547 ZM371 169 L371 292 L197 292 L197 138 L371 169 Z" /><glyph glyph-name="cid1824" unicode="&#x53d8;" d="M98 -31 Q199 -13 280 12.5 Q361 38 427 71 Q334 135 251 235 L294 273 L195 273 L195 329 L736 329 L736 276 Q699 218 653.5 166 Q608 114 544 69 Q612 35 692.5 11 Q773 -13 875 -29 L858 -89 Q752 -72 661 -43.5 Q570 -15 486 33 Q417 -6 326.5 -37 Q236 -68 115 -90 L98 -31 ZM455 692 L455 801 L512 801 L512 692 L856 692 L856 638 L608 638 L608 381 L552 381 L552 638 L414 638 L414 381 L358 381 L358 638 L112 638 L112 692 L455 692 ZM294 273 Q338 220 384 178.5 Q430 137 484 103 Q541 138 585 180.5 Q629 223 664 273 L294 273 ZM94 398 Q124 423 148 444.5 Q172 466 193 488 Q214 510 233.5 535 Q253 560 274 592 L322 557 Q285 502 237.5 450.5 Q190 399 135 354 L94 398 ZM679 591 Q727 553 777.5 506 Q828 459 873 407 L829 366 Q802 397 779.5 421 Q757 445 735 465.5 Q713 486 690.5 506 Q668 526 641 549 L679 591 Z" /><glyph glyph-name="cid1841" unicode="&#x53ef;" d="M544 541 L544 143 L202 143 L202 541 L544 541 ZM640 -28 Q661 -28 673.5 -23 Q686 -18 692.5 -10 Q699 -2 700.5 10.5 Q702 23 702 38 L702 676 L78 676 L78 731 L889 731 L889 676 L763 676 L763 34 Q763 5 758 -16.5 Q753 -38 740.5 -53 Q728 -68 705.5 -75.5 Q683 -83 648 -84 L527 -84 L516 -28 L640 -28 ZM260 198 L485 198 L485 486 L260 486 L260 198 Z" /><glyph glyph-name="cid1842" unicode="&#x53f0;" d="M770 305 L770 -66 L189 -66 L189 305 L770 305 ZM248 -9 L711 -9 L711 250 L248 250 L248 -9 ZM612 681 Q640 654 673.5 619.5 Q707 585 740.5 548 Q774 511 807 473 Q840 435 869 401 L821 361 Q807 379 790 400 Q773 421 754 444 Q690 436 606 429.5 Q522 423 433 418 Q344 413 258 410 Q172 407 105 405 L101 465 L155 465 Q189 496 226 538 Q263 580 299 626.5 Q335 673 369 721.5 Q403 770 430 815 L488 782 Q461 741 431 698.5 Q401 656 369.5 615.5 Q338 575 306.5 537 Q275 499 245 468 Q303 470 366 472.5 Q429 475 490.5 478.5 Q552 482 608.5 486 Q665 490 710 495 Q672 537 635.5 576 Q599 615 572 642 L612 681 Z" /><glyph glyph-name="cid1849" unicode="&#x53f8;" d="M606 412 L606 87 L196 87 L196 412 L606 412 ZM834 739 Q834 541 833.5 364 Q833 187 828 44 Q826 8 819.5 -16.5 Q813 -41 797 -56 Q781 -71 754.5 -77.5 Q728 -84 687 -84 L570 -84 L558 -29 L684 -29 Q714 -29 730.5 -22.5 Q747 -16 755.5 -5.5 Q764 5 766.5 19.5 Q769 34 769 51 Q774 206 775 362.5 Q776 519 775 686 L146 686 L145 739 L834 739 ZM252 141 L551 141 L551 359 L252 359 L252 141 ZM689 574 L689 520 L114 520 L114 574 L689 574 Z" /><glyph glyph-name="cid1856" unicode="&#x5404;" d="M748 278 L748 -74 L217 -74 L217 278 L748 278 ZM87 321 Q189 345 273 374.5 Q357 404 427 441 Q379 473 338 511 Q297 549 263 592 Q214 542 157 495 L117 539 Q158 570 193 605 Q228 640 256.5 674.5 Q285 709 307.5 742.5 Q330 776 346 805 L398 781 Q390 764 380 747.5 Q370 731 359 714 L740 714 L740 662 Q694 590 647 536 Q600 482 540 439 Q612 401 695.5 372.5 Q779 344 877 319 L856 262 Q754 286 661 320.5 Q568 355 486 403 Q415 361 323 327.5 Q231 294 105 262 L87 321 ZM277 -19 L688 -19 L688 224 L277 224 L277 -19 ZM301 635 Q341 584 386 544.5 Q431 505 482 473 Q602 548 668 660 L320 660 L301 635 Z" /><glyph glyph-name="cid1858" unicode="&#x5408;" d="M766 297 L766 -68 L202 -68 L202 297 L766 297 ZM263 -12 L706 -12 L706 241 L263 241 L263 -12 ZM58 455 Q193 524 289.5 612 Q386 700 455 804 L515 804 Q548 751 591.5 702 Q635 653 687 609 Q739 565 796.5 528 Q854 491 915 462 L886 404 Q825 434 767.5 471 Q710 508 658 551.5 Q606 595 562 642.5 Q518 690 485 741 Q422 649 324 560.5 Q226 472 88 399 L58 455 ZM703 475 L703 421 L260 421 L260 475 L703 475 Z" /><glyph glyph-name="cid1861" unicode="&#x540c;" d="M830 742 L830 35 Q830 -1 824 -24 Q818 -47 804.5 -60.5 Q791 -74 768.5 -79 Q746 -84 714 -84 L604 -84 L594 -29 L707 -29 Q728 -29 741 -27 Q754 -25 760.5 -18 Q767 -11 769.5 2 Q772 15 772 37 L772 687 L197 687 L197 -101 L138 -101 L138 742 L830 742 ZM644 413 L644 108 L314 108 L314 413 L644 413 ZM371 161 L589 161 L589 359 L371 359 L371 161 ZM702 575 L702 522 L263 522 L263 575 L702 575 Z" /><glyph glyph-name="cid1862" unicode="&#x540d;" d="M271 249 Q226 232 178.5 218 Q131 204 81 191 L64 249 Q166 274 258 308 Q350 342 429 384 Q401 413 367.5 441 Q334 469 303 493 L342 534 Q381 506 419 473 Q457 440 482 414 Q569 465 630.5 521 Q692 577 724 634 L379 634 Q331 580 271.5 530 Q212 480 140 434 L106 482 Q218 550 299.5 633.5 Q381 717 432 805 L482 779 Q456 731 423 688 L799 688 L799 635 Q736 531 638.5 451 Q541 371 413 309 L806 309 L806 -66 L271 -66 L271 249 ZM748 -11 L748 254 L329 254 L329 -11 L748 -11 Z" /><glyph glyph-name="cid1863" unicode="&#x540e;" d="M809 317 L809 -65 L320 -65 L320 317 L809 317 ZM57 -58 Q90 -15 113.5 32 Q137 79 151.5 133 Q166 187 172.5 249.5 Q179 312 179 386 L179 716 Q252 716 339 719.5 Q426 723 512 729 Q598 735 676.5 743.5 Q755 752 812 761 L824 703 Q771 694 697.5 686 Q624 678 544 672.5 Q464 667 384.5 663.5 Q305 660 241 660 L241 524 L890 524 L890 467 L241 467 L241 394 Q241 314 233.5 246 Q226 178 210.5 118.5 Q195 59 170 7 Q145 -45 110 -94 L57 -58 ZM381 -10 L750 -10 L750 262 L381 262 L381 -10 Z" /><glyph glyph-name="cid1866" unicode="&#x5411;" d="M373 667 Q380 682 388.5 701 Q397 720 404.5 739 Q412 758 418.5 776 Q425 794 429 806 L486 790 Q479 767 465 732.5 Q451 698 436 667 L826 667 L826 35 Q826 -28 798 -56 Q770 -84 709 -85 L611 -85 L601 -28 L697 -28 Q734 -28 750.5 -14.5 Q767 -1 767 39 L767 611 L202 611 L202 -99 L143 -99 L143 667 L373 667 ZM636 468 L636 109 L322 109 L322 468 L636 468 ZM378 163 L580 163 L580 414 L378 414 L378 163 Z" /><glyph glyph-name="cid1910" unicode="&#x5458;" d="M757 752 L757 518 L213 518 L213 752 L757 752 ZM794 430 L794 104 L732 104 L732 374 L236 374 L236 104 L174 104 L174 430 L794 430 ZM271 572 L699 572 L699 698 L271 698 L271 572 ZM61 -37 Q165 -18 240 10.5 Q315 39 363 76 Q411 113 434 158 Q457 203 458 254 L458 328 L517 328 L517 251 Q517 190 492.5 136.5 Q468 83 415 39 Q362 -5 278.5 -39 Q195 -73 78 -95 L61 -37 ZM538 133 Q628 94 715.5 49.5 Q803 5 891 -46 L859 -102 Q778 -52 687.5 -5.5 Q597 41 509 79 L538 133 Z" /><glyph glyph-name="cid1933" unicode="&#x548c;" d="M853 696 L853 -10 L548 -10 L548 696 L853 696 ZM87 711 Q128 715 177 722 Q226 729 276.5 737.5 Q327 746 375.5 756 Q424 766 464 777 L479 721 Q447 713 409 704.5 Q371 696 329 688 L329 511 L507 511 L507 454 L329 454 L329 383 L369 408 Q385 382 402 353.5 Q419 325 435.5 296 Q452 267 467 239 Q482 211 494 188 L441 161 Q417 213 389 264 Q361 315 329 366 L329 -96 L270 -96 L270 359 Q206 197 92 59 L47 100 Q110 177 163 263.5 Q216 350 254 454 L75 454 L75 511 L270 511 L270 678 Q222 670 177.5 664.5 Q133 659 98 655 L87 711 ZM607 45 L796 45 L796 640 L607 640 L607 45 Z" /><glyph glyph-name="cid1940" unicode="&#x5496;" d="M865 692 L865 -44 L652 -44 L652 692 L865 692 ZM297 709 L297 79 L99 79 L99 709 L297 709 ZM247 -61 Q305 9 335.5 84 Q366 159 380 238 Q394 317 397 400.5 Q400 484 403 572 L403 594 L326 594 L326 648 L403 648 L403 801 L460 801 L460 648 L597 648 Q597 589 595.5 510 Q594 431 592 349.5 Q590 268 588 192 Q586 116 583 62 Q580 33 574.5 10 Q569 -13 557.5 -29.5 Q546 -46 526.5 -55.5 Q507 -65 477 -67 L397 -67 L385 -9 L464 -9 Q483 -8 494 -3 Q505 2 511 12.5 Q517 23 520 38.5 Q523 54 525 77 Q528 126 530 192.5 Q532 259 533.5 330 Q535 401 536 470.5 Q537 540 537 594 L460 594 L460 569 Q458 473 455 387 Q452 301 437 220 Q422 139 389.5 61.5 Q357 -16 296 -94 L247 -61 ZM708 9 L809 9 L809 638 L708 638 L708 9 ZM153 135 L242 135 L242 654 L153 654 L153 135 Z" /><glyph glyph-name="cid1965" unicode="&#x54c1;" d="M746 759 L746 451 L221 451 L221 759 L746 759 ZM434 344 L434 -67 L114 -67 L114 344 L434 344 ZM853 344 L853 -67 L534 -67 L534 344 L853 344 ZM278 507 L689 507 L689 705 L278 705 L278 507 ZM173 -11 L378 -11 L378 289 L173 289 L173 -11 ZM590 -11 L795 -11 L795 289 L590 289 L590 -11 Z" /><glyph glyph-name="cid2021" unicode="&#x552e;" d="M495 799 Q502 790 510 776.5 Q518 763 526.5 748 Q535 733 543 719 Q551 705 557 694 L841 694 L841 643 L551 643 L551 564 L809 564 L809 512 L551 512 L551 436 L809 436 L809 384 L551 384 L551 298 L857 298 L857 247 L176 247 L176 566 Q155 536 133 509 Q111 482 89 461 L47 504 Q77 533 105 569.5 Q133 606 158.5 646 Q184 686 205 726 Q226 766 241 802 L292 780 Q283 759 273 737.5 Q263 716 252 694 L495 694 Q485 711 472.5 732 Q460 753 448 770 L495 799 ZM795 174 L795 -75 L176 -75 L176 174 L795 174 ZM237 -21 L734 -21 L734 121 L237 121 L237 -21 ZM231 298 L494 298 L494 384 L231 384 L231 298 ZM231 564 L494 564 L494 643 L231 643 L231 564 ZM231 436 L494 436 L494 512 L231 512 L231 436 Z" /><glyph glyph-name="cid2177" unicode="&#x5668;&#xfa38;" d="M643 497 Q657 480 676.5 457 Q696 434 713 415 L864 415 L864 363 L571 363 Q634 311 718.5 282 Q803 253 897 237 L883 184 Q762 205 665.5 247.5 Q569 290 505 363 L443 363 Q389 298 298.5 255 Q208 212 74 182 L60 236 Q171 262 245 292 Q319 322 367 363 L108 363 L108 415 L413 415 Q428 436 438 459.5 Q448 483 456 510 L510 497 Q504 474 496 454 Q488 434 478 415 L647 415 Q638 426 626.5 438 Q615 450 601 465 L643 497 ZM806 190 L806 -75 L520 -75 L520 190 L806 190 ZM442 192 L442 -75 L165 -75 L165 192 L442 192 ZM807 747 L807 522 L524 522 L524 747 L807 747 ZM441 747 L441 522 L162 522 L162 747 L441 747 ZM574 -21 L752 -21 L752 136 L574 136 L574 -21 ZM220 -21 L388 -21 L388 138 L220 138 L220 -21 ZM578 576 L754 576 L754 694 L578 694 L578 576 ZM215 576 L387 576 L387 694 L215 694 L215 576 Z" /><glyph glyph-name="cid2231" unicode="&#x56f4;" d="M845 753 L845 -72 L124 -72 L124 753 L845 753 ZM181 -15 L786 -15 L786 697 L181 697 L181 -15 ZM451 451 L451 536 L242 536 L242 590 L451 590 L451 670 L506 670 L506 590 L716 590 L716 536 L506 536 L506 451 L681 451 L681 399 L506 399 L506 311 L729 311 Q728 293 727 274 Q726 255 725 238 Q724 221 723 206.5 Q722 192 721 184 Q718 158 711.5 142 Q705 126 692.5 117 Q680 108 661.5 104.5 Q643 101 617 100 L554 100 L545 152 L606 152 Q624 152 634.5 152.5 Q645 153 650.5 156.5 Q656 160 658.5 167.5 Q661 175 663 188 Q665 201 666.5 219.5 Q668 238 669 258 L506 258 L506 22 L451 22 L451 258 L242 258 L242 311 L451 311 L451 399 L276 399 L276 451 L451 451 Z" /><glyph glyph-name="cid2234" unicode="&#x56fa;" d="M846 756 L846 -66 L124 -66 L124 756 L846 756 ZM183 -11 L787 -11 L787 702 L183 702 L183 -11 ZM456 541 L456 670 L513 670 L513 541 L737 541 L737 488 L513 488 L513 363 L670 363 L670 98 L298 98 L298 363 L456 363 L456 488 L231 488 L231 541 L456 541 ZM353 151 L615 151 L615 310 L353 310 L353 151 Z" /><glyph glyph-name="cid2235" unicode="&#x56fd;" d="M846 758 L846 -62 L122 -62 L122 758 L846 758 ZM180 -7 L787 -7 L787 704 L180 704 L180 -7 ZM457 414 L457 551 L260 551 L260 603 L710 603 L710 551 L513 551 L513 414 L676 414 L676 362 L513 362 L513 171 L735 171 L735 119 L235 119 L235 171 L457 171 L457 362 L294 362 L294 414 L457 414 ZM599 332 Q607 323 618 308.5 Q629 294 640.5 278 Q652 262 663 247 Q674 232 682 220 L639 188 Q620 217 596.5 249.5 Q573 282 557 301 L599 332 Z" /><glyph glyph-name="cid2254" unicode="&#x5728;" d="M359 674 Q372 703 384 735 Q396 767 408 802 L466 787 Q455 757 444.5 728.5 Q434 700 423 674 L871 674 L871 618 L398 618 Q371 560 340.5 508.5 Q310 457 274 409 L274 -100 L213 -100 L213 333 Q159 272 92 209 L52 253 Q98 295 138 337.5 Q178 380 212.5 424 Q247 468 277 516 Q307 564 333 618 L94 618 L94 674 L359 674 ZM621 551 L621 359 L831 359 L831 303 L621 303 L621 2 L883 2 L883 -55 L323 -55 L323 2 L561 2 L561 303 L370 303 L370 359 L561 359 L561 551 L621 551 Z" /><glyph glyph-name="cid2261" unicode="&#x5730;" d="M475 738 L475 519 L594 561 L594 801 L652 801 L652 582 L855 655 Q855 607 854.5 552 Q854 497 853 444.5 Q852 392 850.5 346.5 Q849 301 847 271 Q845 242 840 223.5 Q835 205 825.5 194 Q816 183 802.5 178 Q789 173 771 172 L697 172 L687 228 L750 228 Q775 228 782 236 Q789 244 791 272 Q792 293 793.5 330 Q795 367 795.5 409.5 Q796 452 796.5 495.5 Q797 539 797 572 L652 520 L652 89 L594 89 L594 499 L475 456 L475 84 Q475 63 477.5 46 Q480 29 488.5 17 Q497 5 512 -1.5 Q527 -8 552 -9 L603 -9 Q681 -11 760.5 -1 Q840 9 910 30 L924 -27 Q891 -37 852 -44.5 Q813 -52 771.5 -56.5 Q730 -61 690 -63.5 Q650 -66 616 -66 L549 -66 Q508 -67 482 -56 Q456 -45 441.5 -25 Q427 -5 421.5 21.5 Q416 48 416 79 L416 434 L323 401 L302 457 L416 498 L416 738 L475 738 ZM171 552 L171 799 L228 799 L228 552 L326 552 L326 496 L228 496 L228 132 Q255 140 281 149 Q307 158 333 169 L353 114 Q290 91 213.5 67 Q137 43 66 26 L50 83 Q80 91 110 98.5 Q140 106 171 115 L171 496 L70 496 L70 552 L171 552 Z" /><glyph glyph-name="cid2326" unicode="&#x57ce;" d="M515 -32 Q568 10 612.5 60 Q657 110 694 168 Q672 228 660 294.5 Q648 361 642 439 Q638 481 635.5 516.5 Q633 552 631 587 L420 587 L420 444 L589 444 Q587 356 585 284.5 Q583 213 579 170 Q576 141 571 122.5 Q566 104 555.5 93 Q545 82 526.5 78 Q508 74 478 74 L433 74 L423 128 L478 128 Q506 128 513 140 Q520 152 522 178 Q526 223 527.5 277 Q529 331 529 388 L420 388 L420 381 Q420 247 388.5 124.5 Q357 2 280 -100 L234 -68 Q277 -6 302.5 51.5 Q328 109 342 170 Q282 147 211 125 Q140 103 74 84 L58 141 Q84 148 113.5 156.5 Q143 165 174 174 L174 500 L76 500 L76 553 L174 553 L174 799 L232 799 L232 553 L329 553 L329 500 L232 500 L232 193 Q260 202 284 211.5 Q308 221 328 230 L345 182 Q354 227 357.5 275 Q361 323 361 377 L361 643 L628 643 Q626 678 626 716 Q626 754 626 801 L684 801 Q684 754 684.5 716.5 Q685 679 687 643 L888 643 L888 587 L690 587 Q692 555 694.5 521.5 Q697 488 701 447 Q706 386 713.5 334 Q721 282 734 236 Q797 358 826 498 L880 488 Q860 400 829.5 319 Q799 238 757 166 Q782 105 820 52.5 Q858 0 916 -52 L876 -98 Q822 -47 784 3 Q746 53 720 107 Q649 1 555 -75 L515 -32 ZM743 789 Q754 779 767.5 767 Q781 755 794.5 742.5 Q808 730 820.5 717 Q833 704 842 692 L806 655 Q784 679 757 706.5 Q730 734 708 752 L743 789 Z" /><glyph glyph-name="cid2345" unicode="&#x57fa;" d="M264 339 L264 658 L127 658 L127 709 L264 709 L264 799 L322 799 L322 709 L648 709 L648 799 L706 799 L706 709 L841 709 L841 658 L706 658 L706 339 L891 339 L891 287 L667 287 Q688 263 717 240 Q746 217 779 196.5 Q812 176 847 159.5 Q882 143 915 131 L891 76 Q791 116 716.5 169.5 Q642 223 597 287 L358 287 Q338 260 310.5 231.5 Q283 203 248 176 Q213 149 171.5 124.5 Q130 100 83 81 L58 136 Q133 169 191.5 207 Q250 245 289 287 L86 287 L86 339 L264 339 ZM513 237 L513 155 L723 155 L723 103 L513 103 L513 -12 L861 -12 L861 -65 L104 -65 L104 -12 L455 -12 L455 103 L245 103 L245 155 L455 155 L455 237 L513 237 ZM322 339 L648 339 L648 415 L322 415 L322 339 ZM322 585 L648 585 L648 658 L322 658 L322 585 ZM322 464 L648 464 L648 536 L322 536 L322 464 Z" /><glyph glyph-name="cid2348" unicode="&#x5802;" d="M452 170 L452 272 L236 272 L236 487 L736 487 L736 272 L511 272 L511 170 L802 170 L802 116 L511 116 L511 -8 L889 -8 L889 -64 L79 -64 L79 -8 L452 -8 L452 116 L158 116 L158 170 L452 170 ZM301 624 Q275 659 251.5 686 Q228 713 202 739 L245 778 Q276 746 300.5 718.5 Q325 691 353 656 L312 624 L454 624 L454 803 L516 803 L516 624 L600 624 Q632 657 663.5 698.5 Q695 740 725 785 L774 753 Q748 715 723 682.5 Q698 650 675 624 L854 624 L854 434 L794 434 L794 570 L176 570 L176 434 L116 434 L116 624 L301 624 ZM290 326 L681 326 L681 434 L290 434 L290 326 Z" /><glyph glyph-name="cid2385" unicode="&#x586b;" d="M416 129 L416 584 L584 584 L587 661 L364 661 L364 713 L589 713 L593 799 L647 799 L643 713 L869 713 L869 661 L641 661 L638 584 L823 584 L823 129 L906 129 L906 78 L334 78 L334 129 L416 129 ZM182 550 L182 799 L240 799 L240 550 L341 550 L341 497 L240 497 L240 182 Q272 191 300 199.5 Q328 208 349 216 L369 161 Q335 150 295.5 138.5 Q256 127 216.5 116.5 Q177 106 139.5 97 Q102 88 72 81 L57 137 Q85 142 117 150 Q149 158 182 166 L182 497 L82 497 L82 550 L182 550 ZM474 129 L765 129 L765 199 L474 199 L474 129 ZM474 249 L765 249 L765 311 L474 311 L474 249 ZM474 360 L765 360 L765 421 L474 421 L474 360 ZM474 471 L765 471 L765 532 L474 532 L474 471 ZM313 -53 Q378 -27 436 1 Q494 29 533 64 L569 17 Q545 -1 516.5 -18.5 Q488 -36 458 -52 Q428 -68 397.5 -81.5 Q367 -95 340 -104 L313 -53 ZM707 65 Q766 36 821.5 7.5 Q877 -21 928 -52 L899 -104 Q845 -68 790.5 -40 Q736 -12 680 17 L707 65 Z" /><glyph glyph-name="cid2437" unicode="&#x5907;" d="M780 323 L780 -74 L190 -74 L190 323 L780 323 ZM65 379 Q180 401 269 425 Q358 449 431 481 Q345 534 274 612 Q247 583 215.5 555.5 Q184 528 146 499 L110 545 Q147 572 179 600 Q211 628 240 659.5 Q269 691 295.5 726.5 Q322 762 348 805 L398 780 Q385 760 373.5 742.5 Q362 725 351 709 L755 709 L755 651 Q662 545 556 480 Q631 447 718 422.5 Q805 398 905 379 L888 321 Q768 347 671.5 376.5 Q575 406 494 446 Q409 404 308 375 Q207 346 79 322 L65 379 ZM313 654 Q351 610 396 575.5 Q441 541 494 512 Q546 540 591 574.5 Q636 609 680 654 L313 654 ZM720 -19 L720 101 L514 101 L514 -19 L720 -19 ZM250 -19 L456 -19 L456 101 L250 101 L250 -19 ZM250 153 L456 153 L456 269 L250 269 L250 153 ZM514 269 L514 153 L720 153 L720 269 L514 269 Z" /><glyph glyph-name="cid2444" unicode="&#x591a;" d="M401 214 Q439 183 474 153.5 Q509 124 544 92 Q620 133 678 178.5 Q736 224 777 274 L433 274 Q371 229 305.5 194.5 Q240 160 178 135 L151 188 Q257 230 350 287 Q443 344 512 421 L558 383 Q545 369 532 356 Q519 343 505 331 L856 331 L856 275 Q812 207 739.5 146 Q667 85 570 35 Q473 -15 355 -52 Q237 -89 101 -108 L86 -46 Q204 -29 304 -1 Q404 27 488 65 Q477 75 462 88.5 Q447 102 430.5 116 Q414 130 396.5 144 Q379 158 363 170 L401 214 ZM383 603 Q418 577 452.5 550 Q487 523 518 497 Q584 532 633 572 Q682 612 721 656 L399 656 Q347 614 290.5 581.5 Q234 549 183 526 L153 576 Q201 599 247 626.5 Q293 654 334.5 684.5 Q376 715 411 748 Q446 781 471 814 L520 777 Q507 760 493.5 744 Q480 728 464 713 L801 713 L801 656 Q756 593 685.5 537.5 Q615 482 526.5 436.5 Q438 391 335 357 Q232 323 122 304 L105 366 Q218 386 306 412 Q394 438 463 470 Q436 493 405 516 Q374 539 347 559 L383 603 Z" /><glyph glyph-name="cid2446" unicode="&#x591f;" d="M30 500 Q85 569 126.5 644 Q168 719 200 808 L254 793 Q232 730 206 675 L451 675 Q450 592 450 499.5 Q450 407 449 320 Q448 233 447 160.5 Q446 88 443 45 Q440 10 432 -15 Q424 -40 408.5 -55.5 Q393 -71 369 -78.5 Q345 -86 309 -86 L210 -86 L198 -30 L299 -30 Q327 -30 343.5 -25 Q360 -20 369 -8.5 Q378 3 381.5 22 Q385 41 387 70 Q388 104 389.5 164.5 Q391 225 391.5 299 Q392 373 392.5 456 Q393 539 393 619 L178 619 Q154 575 128.5 537 Q103 499 74 462 L30 500 ZM327 509 L327 126 L125 126 L125 509 L327 509 ZM472 165 Q509 195 540 223.5 Q571 252 597.5 282 Q624 312 647.5 345 Q671 378 693 417 L741 390 Q722 357 703 329 L899 329 L899 279 Q880 214 842 155 Q804 96 749.5 46 Q695 -4 626.5 -42 Q558 -80 479 -102 L454 -47 Q528 -24 586.5 7 Q645 38 691 76 Q668 98 642.5 120 Q617 142 600 157 L635 195 Q654 179 682 155.5 Q710 132 731 112 Q768 149 794 189.5 Q820 230 838 273 L663 273 Q594 185 506 120 L472 165 ZM472 571 Q502 601 526.5 628.5 Q551 656 571.5 684.5 Q592 713 610 742.5 Q628 772 645 805 L696 783 Q673 739 650 704 L869 704 L869 654 Q846 604 812.5 554.5 Q779 505 733 461.5 Q687 418 626 381.5 Q565 345 486 320 L463 372 Q581 412 664 478 Q645 495 625.5 513.5 Q606 532 583 550 L617 589 Q637 573 659 553.5 Q681 534 704 513 Q737 544 762 578 Q787 612 804 648 L612 648 Q567 588 510 534 L472 571 ZM181 182 L271 182 L271 453 L181 453 L181 182 Z" /><glyph glyph-name="cid2450" unicode="&#x5927;" d="M83 -45 Q411 156 447 488 L110 488 L110 546 L451 546 Q451 552 451.5 558 Q452 564 452 570 L452 800 L512 800 L512 546 L856 546 L856 488 L515 488 Q532 397 566 319.5 Q600 242 648 176 Q696 110 757 54.5 Q818 -1 889 -46 L854 -100 Q795 -63 739.5 -15.5 Q684 32 636 91 Q588 150 550 219.5 Q512 289 488 370 Q449 224 353 105 Q257 -14 118 -99 L83 -45 Z" /><glyph glyph-name="cid2458" unicode="&#x5934;" d="M524 304 Q535 342 540.5 384.5 Q546 427 547 475 L547 795 L610 795 L610 475 Q610 427 605 384.5 Q600 342 591 304 L881 304 L881 248 L573 248 Q547 179 504 126 Q461 73 401.5 33.5 Q342 -6 266.5 -34.5 Q191 -63 101 -83 L83 -22 Q258 17 358.5 83.5 Q459 150 503 248 L114 248 L114 304 L524 304 ZM592 170 Q627 148 669.5 122 Q712 96 754 68.5 Q796 41 835 15 Q874 -11 903 -33 L870 -84 Q834 -58 794 -31 Q754 -4 713.5 22.5 Q673 49 633.5 73.5 Q594 98 558 120 L592 170 ZM177 563 Q235 532 292 497 Q349 462 398 428 L365 378 Q312 414 255 450 Q198 486 147 514 L177 563 ZM263 741 Q289 726 317.5 708 Q346 690 374 671.5 Q402 653 427.5 635 Q453 617 473 602 L439 554 Q394 587 338.5 624.5 Q283 662 233 692 L263 741 Z" /><glyph glyph-name="cid2477" unicode="&#x5956;" d="M62 -39 Q205 -10 298 46 Q391 102 436 191 L100 191 L100 246 L458 246 Q463 262 466.5 278.5 Q470 295 472 313 L531 306 Q529 290 526.5 275 Q524 260 520 246 L869 246 L869 191 L547 191 Q604 99 693 44 Q782 -11 909 -40 L892 -95 Q815 -79 752.5 -53 Q690 -27 640.5 6.5 Q591 40 554 81 Q517 122 492 169 Q443 66 339 -1 Q235 -68 80 -95 L62 -39 ZM419 363 Q490 383 546 408.5 Q602 434 647 466 Q620 489 590.5 512.5 Q561 536 532 557 L568 598 Q601 575 631.5 550.5 Q662 526 691 501 Q728 533 757 569.5 Q786 606 810 647 L565 647 Q536 607 502.5 572.5 Q469 538 434 512 L397 553 Q431 580 460 611 Q489 642 513.5 674 Q538 706 557.5 738.5 Q577 771 591 800 L643 777 Q624 736 601 700 L873 700 L873 644 Q845 587 807.5 537.5 Q770 488 718.5 446.5 Q667 405 599 371 Q531 337 443 310 L419 363 ZM102 417 Q153 441 210.5 476 Q268 511 318 544 L318 792 L378 792 L378 298 L318 298 L318 477 Q276 448 228.5 420 Q181 392 133 366 L102 417 ZM177 740 Q193 723 207 707 Q221 691 234.5 674.5 Q248 658 261.5 639.5 Q275 621 290 600 L245 565 Q229 587 216 605.5 Q203 624 190 640.5 Q177 657 163 673 Q149 689 133 707 L177 740 Z" /><glyph glyph-name="cid2493" unicode="&#x597d;" d="M63 -42 Q126 6 172 56.5 Q218 107 252 163 Q210 199 172 230.5 Q134 262 111 279 Q155 426 183 559 L75 559 L75 615 L194 615 Q203 663 210.5 709.5 Q218 756 223 802 L284 797 Q277 749 270 704 Q263 659 255 615 L419 615 L419 556 Q410 438 389 345.5 Q368 253 329 175 Q367 143 403.5 111 Q440 79 471 52 L429 5 Q407 26 373 57 Q339 88 300 122 Q264 64 215.5 13 Q167 -38 101 -89 L63 -42 ZM856 729 L856 672 Q819 618 776 567.5 Q733 517 695 473 L695 382 L901 382 L901 326 L695 326 L695 30 Q694 -4 687.5 -26 Q681 -48 667.5 -60.5 Q654 -73 632 -77.5 Q610 -82 579 -82 L503 -82 L490 -26 L571 -26 Q589 -26 601 -24 Q613 -22 620.5 -15.5 Q628 -9 631.5 4.5 Q635 18 635 42 L635 326 L426 326 L426 382 L635 382 L635 496 Q654 514 674 536 Q694 558 713.5 581 Q733 604 750.5 628 Q768 652 783 674 L455 674 L455 729 L856 729 ZM282 216 Q318 291 336.5 375.5 Q355 460 361 559 L243 559 Q229 490 212.5 426 Q196 362 178 302 L282 216 Z" /><glyph glyph-name="cid2495" unicode="&#x5982;" d="M841 670 L841 -36 L538 -36 L538 670 L841 670 ZM54 -47 Q126 4 180 57 Q234 110 273 167 Q224 204 179 238 Q134 272 107 294 Q129 365 149.5 434 Q170 503 187 573 L77 573 L77 630 L200 630 Q219 714 233 801 L294 794 Q287 752 279.5 711 Q272 670 263 630 L460 630 L460 571 Q449 449 425.5 354 Q402 259 358 181 Q399 150 436.5 121 Q474 92 500 69 L458 18 Q437 38 402 66.5 Q367 95 325 127 Q283 66 226 12 Q169 -42 93 -96 L54 -47 ZM597 19 L784 19 L784 614 L597 614 L597 19 ZM177 317 Q196 302 230.5 276 Q265 250 306 220 Q349 297 370.5 383.5 Q392 470 399 573 L251 573 Q234 504 215.5 439.5 Q197 375 177 317 Z" /><glyph glyph-name="cid2526" unicode="&#x59cb;" d="M836 305 L836 -75 L455 -75 L455 305 L836 305 ZM57 -47 Q115 4 158 54 Q201 104 231 158 Q195 193 161.5 223 Q128 253 102 275 Q119 339 134.5 411 Q150 483 163 558 L79 558 L79 615 L171 615 Q178 663 183.5 709 Q189 755 192 799 L247 795 Q243 750 238 705 Q233 660 227 615 L382 615 L382 559 Q377 441 359 347 Q341 253 302 170 L425 54 L382 11 Q359 34 332 61 Q305 88 275 117 Q243 62 198.5 11 Q154 -40 94 -92 L57 -47 ZM514 -20 L779 -20 L779 250 L514 250 L514 -20 ZM750 675 Q771 642 793.5 605.5 Q816 569 838 532.5 Q860 496 880 460.5 Q900 425 917 394 L867 364 L825 441 Q731 427 628.5 419 Q526 411 405 406 L400 465 L429 465 Q456 502 482 545.5 Q508 589 531 634 Q554 679 574 723 Q594 767 608 805 L666 784 Q652 749 633.5 709.5 Q615 670 593 628.5 Q571 587 547.5 545.5 Q524 504 499 467 Q542 468 578.5 470.5 Q615 473 650 476 Q685 479 720.5 483 Q756 487 795 492 Q772 531 748 569 Q724 607 700 644 L750 675 ZM165 295 Q185 278 208.5 256.5 Q232 235 258 211 Q290 286 305.5 370 Q321 454 326 558 L219 558 Q208 484 194 417 Q180 350 165 295 Z" /><glyph glyph-name="cid2649" unicode="&#x5b66;" d="M465 236 L465 293 L633 405 L230 405 L230 460 L716 460 L716 397 L525 263 L525 236 L877 236 L877 181 L525 181 L525 35 Q525 11 521.5 -10.5 Q518 -32 507 -48 Q496 -64 475.5 -73.5 Q455 -83 420 -84 L296 -84 L285 -29 L410 -29 Q429 -28 440 -22.5 Q451 -17 456.5 -7.5 Q462 2 463.5 15 Q465 28 465 44 L465 181 L91 181 L91 236 L465 236 ZM237 780 Q256 756 277.5 721.5 Q299 687 316 656 L262 625 L632 625 Q661 668 687.5 713 Q714 758 736 803 L791 774 Q771 735 747.5 695.5 Q724 656 704 625 L858 625 L858 439 L798 439 L798 569 L170 569 L170 439 L111 439 L111 625 L262 625 Q247 656 228 688 Q209 720 187 747 L237 780 ZM466 814 Q474 800 484 783 Q494 766 504 748 Q514 730 523.5 711.5 Q533 693 539 677 L481 651 Q476 665 468 682.5 Q460 700 451 718 Q442 736 432 753.5 Q422 771 413 786 L466 814 Z" /><glyph glyph-name="cid2657" unicode="&#x5b75;" d="M101 727 Q152 737 201.5 751.5 Q251 766 290 786 L309 738 Q271 718 230 705.5 Q189 693 152 686 L152 217 Q174 225 194 234.5 Q214 244 236 255 Q238 280 239 307 Q240 334 240 363 L240 646 L291 646 L291 372 Q291 276 282 207 Q273 138 253 85 Q233 32 202 -10.5 Q171 -53 126 -96 L86 -55 Q150 4 182 62.5 Q214 121 228 191 Q193 175 156 162 Q119 149 84 141 L71 193 Q79 195 86 197 Q93 199 101 201 L101 727 ZM527 742 L527 201 Q527 151 509 127 Q491 103 445 103 L408 103 L400 157 L433 157 Q459 157 468 167 Q477 177 477 206 L477 688 L387 688 L387 -96 L335 -96 L335 742 L527 742 ZM637 -25 Q670 -25 680.5 -13.5 Q691 -2 691 29 L691 179 L546 179 L546 234 L691 234 L691 278 L794 389 L573 389 L573 443 L866 443 L866 392 L747 261 L747 234 L895 234 L895 179 L747 179 L747 25 Q747 -23 728.5 -51.5 Q710 -80 664 -80 L572 -80 L563 -25 L637 -25 ZM554 731 Q650 737 732.5 748 Q815 759 883 776 L893 721 Q823 704 739.5 692 Q656 680 561 675 L554 731 ZM764 472 Q787 513 806 565 Q825 617 835 659 L884 642 Q878 621 869 595.5 Q860 570 850.5 544.5 Q841 519 830.5 495 Q820 471 810 453 L764 472 ZM194 562 Q200 542 206 518 Q212 494 217.5 469 Q223 444 228 420.5 Q233 397 237 377 L195 366 Q187 408 176 458 Q165 508 152 550 L194 562 ZM705 656 Q711 641 719 621 Q727 601 734.5 580 Q742 559 749 539 Q756 519 760 505 L713 488 Q709 503 703 523.5 Q697 544 689.5 564.5 Q682 585 674 604.5 Q666 624 660 638 L705 656 ZM425 542 Q431 523 438 499 Q445 475 452 449.5 Q459 424 465.5 400 Q472 376 476 358 L436 346 Q431 368 425.5 392 Q420 416 413.5 440 Q407 464 400 487 Q393 510 387 529 L425 542 ZM600 633 Q606 619 614 599.5 Q622 580 629.5 559.5 Q637 539 644 519 Q651 499 655 485 L608 470 Q604 485 598 504.5 Q592 524 584.5 544.5 Q577 565 569.5 583.5 Q562 602 556 616 L600 633 Z" /><glyph glyph-name="cid2664" unicode="&#x5b83;" d="M319 509 L319 260 Q429 298 532.5 346.5 Q636 395 721 452 L756 401 Q659 338 548 286 Q437 234 319 196 L319 55 Q319 25 332 9.5 Q345 -6 366 -6 L539 -6 Q569 -6 606 -3.5 Q643 -1 682 4 Q721 9 758.5 16 Q796 23 825 33 L841 -24 Q811 -33 770.5 -40.5 Q730 -48 688 -52.5 Q646 -57 607.5 -59.5 Q569 -62 543 -62 L361 -62 Q305 -62 281 -31 Q257 0 257 50 L257 509 L319 509 ZM521 800 L521 671 L848 671 L848 459 L786 459 L786 615 L184 615 L184 459 L122 459 L122 671 L460 671 L460 800 L521 800 Z" /><glyph glyph-name="cid2678" unicode="&#x5b9a;" d="M79 -67 Q119 -19 145.5 26 Q172 71 188.5 119 Q205 167 213.5 221 Q222 275 225 340 L285 337 Q280 247 266 176 Q299 103 345 55.5 Q391 8 464 -6 L464 433 L149 433 L149 489 L818 489 L818 433 L526 433 L526 267 L823 267 L823 212 L526 212 L526 -13 L903 -13 L899 -69 L532 -69 Q427 -69 358 -27.5 Q289 14 243 94 Q223 39 194.5 -9.5 Q166 -58 126 -106 L79 -67 ZM521 800 L521 691 L855 691 L855 534 L793 534 L793 636 L174 636 L174 534 L112 534 L112 691 L460 691 L460 800 L521 800 Z" /><glyph glyph-name="cid2682" unicode="&#x5b9e;" d="M504 246 Q519 284 526 325 Q533 366 533 410 L533 586 L594 586 L594 410 Q594 320 571 246 L849 246 L849 190 L550 190 Q523 133 480.5 87.5 Q438 42 382 7 Q326 -28 257 -53.5 Q188 -79 108 -98 L89 -40 Q167 -22 228.5 2 Q290 26 337.5 55 Q385 84 419.5 118 Q454 152 477 190 L128 190 L128 246 L504 246 ZM513 800 L513 685 L842 685 L842 494 L784 494 L784 629 L187 629 L187 494 L129 494 L129 685 L457 685 L457 800 L513 800 ZM581 142 Q656 97 735 46 Q814 -5 880 -51 L847 -102 Q780 -54 704 -6 Q628 42 549 90 L581 142 ZM211 436 Q263 410 307.5 387 Q352 364 399 335 L367 286 Q316 318 272.5 342 Q229 366 184 387 L211 436 ZM285 561 Q323 541 369.5 514 Q416 487 456 461 L424 413 Q381 442 340.5 466 Q300 490 255 514 L285 561 Z" /><glyph glyph-name="cid2729" unicode="&#x5bf9;" d="M150 569 Q176 525 211.5 466.5 Q247 408 285 343 Q307 409 321.5 481.5 Q336 554 346 639 L96 639 L96 696 L408 696 L408 641 Q394 533 374.5 443.5 Q355 354 324 275 Q359 214 391 156 Q423 98 449 50 L396 15 Q374 57 348.5 105 Q323 153 294 205 Q259 133 211.5 66 Q164 -1 99 -70 L53 -25 Q124 49 173 120.5 Q222 192 257 271 Q215 345 174.5 414.5 Q134 484 101 538 L150 569 ZM663 -28 Q698 -27 708 -13 Q718 1 718 40 L718 558 L433 558 L433 615 L718 615 L718 799 L779 799 L779 615 L898 615 L898 558 L779 558 L779 27 Q780 -38 754.5 -60.5 Q729 -83 681 -84 L562 -84 L554 -28 L663 -28 ZM486 457 Q520 408 557.5 349 Q595 290 633 227 L579 196 Q565 221 547.5 252.5 Q530 284 510.5 315.5 Q491 347 472 376 Q453 405 437 425 L486 457 Z" /><glyph glyph-name="cid2732" unicode="&#x5bfc;" d="M783 752 L783 526 L223 526 L223 491 Q223 468 226.5 453 Q230 438 238.5 429 Q247 420 260.5 416.5 Q274 413 295 413 L493 413 Q539 413 592 415.5 Q645 418 696 421.5 Q747 425 791.5 430.5 Q836 436 865 442 L874 386 Q805 372 706 365 Q607 358 493 358 L296 358 Q254 358 228 364 Q202 370 187 385.5 Q172 401 167 426.5 Q162 452 162 491 L162 752 L783 752 ZM574 -25 Q600 -25 615.5 -21.5 Q631 -18 639.5 -9.5 Q648 -1 650.5 13 Q653 27 653 49 L653 193 L80 193 L80 248 L653 248 L653 323 L715 323 L715 248 L890 248 L890 193 L715 193 L715 40 Q715 4 709.5 -19.5 Q704 -43 690 -57 Q676 -71 651.5 -76.5 Q627 -82 590 -82 L493 -82 L485 -25 L574 -25 ZM223 580 L722 580 L722 698 L223 698 L223 580 ZM253 165 Q291 140 338.5 106 Q386 72 427 42 L390 -6 Q370 9 348 26 Q326 43 303.5 59 Q281 75 259 90.5 Q237 106 219 118 L253 165 Z" /><glyph glyph-name="cid2759" unicode="&#x5c31;" d="M224 -21 Q242 -20 252.5 -19 Q263 -18 269 -13.5 Q275 -9 276.5 0.5 Q278 10 278 27 L278 302 L144 302 L144 552 L463 552 L463 302 L337 302 L337 23 Q337 -4 333 -23 Q329 -42 318 -53 Q307 -64 288 -69.5 Q269 -75 238 -75 L185 -75 L175 -21 L224 -21 ZM408 -60 Q459 -6 494 52.5 Q529 111 551 178.5 Q573 246 584 324 Q595 402 598 497 L503 497 L503 551 L599 551 Q599 559 599.5 567.5 Q600 576 600 585 L600 802 L658 802 L658 585 Q658 576 657.5 567.5 Q657 559 657 551 L882 551 L882 497 L656 497 Q653 404 642 322 Q631 240 608 166.5 Q585 93 547.5 27 Q510 -39 453 -100 L408 -60 ZM753 454 L753 43 Q753 11 759 -1.5 Q765 -14 792 -14 L808 -14 Q832 -14 852.5 -9.5 Q873 -5 902 2 L917 -49 Q891 -59 863 -63.5 Q835 -68 810 -68 L786 -68 Q757 -68 739 -62 Q721 -56 711.5 -42.5 Q702 -29 699 -8 Q696 13 696 43 L696 454 L753 454 ZM331 801 L331 685 L519 685 L519 631 L88 631 L88 685 L275 685 L275 801 L331 801 ZM199 356 L407 356 L407 498 L199 498 L199 356 ZM54 13 Q72 38 89.5 69 Q107 100 122 132.5 Q137 165 149.5 197 Q162 229 171 256 L223 238 Q216 213 203 179 Q190 145 173.5 109 Q157 73 138.5 39.5 Q120 6 103 -19 L54 13 ZM421 253 Q446 205 466 163.5 Q486 122 500 80 L448 57 Q431 105 412 145 Q393 185 370 227 L421 253 ZM730 744 Q740 734 755.5 717.5 Q771 701 786.5 683 Q802 665 816 648.5 Q830 632 838 622 L795 586 Q787 597 775.5 612 Q764 627 750 643.5 Q736 660 720.5 676.5 Q705 693 691 707 L730 744 Z" /><glyph glyph-name="cid2782" unicode="&#x5c55;" d="M66 -67 Q99 -23 119 29.5 Q139 82 149 139 Q159 196 162 255 Q165 314 165 370 L165 753 L825 753 L825 548 L224 548 L224 373 L221 284 L394 284 L394 386 L258 386 L258 440 L394 440 L394 520 L452 520 L452 440 L608 440 L608 520 L666 520 L666 440 L835 440 L835 386 L666 386 L666 284 L873 284 L873 230 L537 230 Q556 199 577 171.5 Q598 144 624 118 Q659 138 691 160.5 Q723 183 761 220 L800 177 Q775 154 740 127.5 Q705 101 668 79 Q714 43 771 15.5 Q828 -12 900 -30 L884 -85 Q805 -62 743.5 -34 Q682 -6 632.5 31 Q583 68 543.5 116.5 Q504 165 470 230 L393 230 L393 -13 Q433 -4 472.5 7 Q512 18 552 33 L571 -22 Q502 -46 428.5 -63.5 Q355 -81 285 -92 L274 -37 L335 -26 L335 230 L219 230 Q216 186 209.5 142.5 Q203 99 191 56.5 Q179 14 160.5 -26 Q142 -66 114 -101 L66 -67 ZM224 602 L767 602 L767 700 L224 700 L224 602 ZM452 284 L608 284 L608 386 L452 386 L452 284 Z" /><glyph glyph-name="cid2901" unicode="&#x5dde;" d="M86 -60 Q136 -6 166.5 48.5 Q197 103 213.5 163 Q230 223 236.5 291.5 Q243 360 245 442 L245 786 L305 786 L305 439 Q302 352 295 277.5 Q288 203 270 137 Q252 71 218.5 12 Q185 -47 129 -102 L86 -60 ZM831 788 L831 -93 L771 -93 L771 788 L831 788 ZM565 758 L565 -57 L506 -57 L506 758 L565 758 ZM77 279 Q92 316 102.5 346.5 Q113 377 121 407 Q129 437 135 469 Q141 501 146 542 L202 535 Q197 494 190.5 460 Q184 426 176 394 Q168 362 157 329.5 Q146 297 132 259 L77 279 ZM595 524 L644 545 Q669 485 690.5 431 Q712 377 732 310 L677 291 Q658 358 638.5 412.5 Q619 467 595 524 ZM338 523 L387 542 Q399 511 409.5 484 Q420 457 429 430 Q438 403 446 375 Q454 347 463 313 L406 296 Q398 329 390.5 357.5 Q383 386 374.5 413 Q366 440 357 467 Q348 494 338 523 Z" /><glyph glyph-name="cid2904" unicode="&#x5de5;" d="M841 707 L841 650 L515 650 L515 8 L878 8 L878 -49 L91 -49 L91 8 L454 8 L454 650 L127 650 L127 707 L841 707 Z" /><glyph glyph-name="cid2908" unicode="&#x5de9;" d="M292 -63 Q338 -10 366.5 39 Q395 88 411 143.5 Q427 199 432 266 Q437 333 437 422 L437 745 L777 745 L777 23 Q777 4 782.5 -5.5 Q788 -15 808 -15 L822 -15 Q845 -15 868.5 -12 Q892 -9 922 -1 L932 -57 Q908 -65 880.5 -69 Q853 -73 827 -73 L799 -73 Q748 -73 732 -48.5 Q716 -24 716 24 L716 691 L498 691 L498 424 Q498 329 492 256.5 Q486 184 468.5 123 Q451 62 420.5 8 Q390 -46 342 -103 L292 -63 ZM55 121 Q95 129 127 136 Q159 143 188 151 L188 637 L78 637 L78 692 L370 692 L370 637 L248 637 L248 168 Q275 176 305.5 185 Q336 194 374 205 L390 151 Q341 136 302.5 124.5 Q264 113 228 103 Q192 93 154 84 Q116 75 68 65 L55 121 ZM578 538 Q607 469 635 400.5 Q663 332 689 251 L631 229 Q622 262 610 298 Q598 334 583.5 371 Q569 408 554 445 Q539 482 524 517 L578 538 Z" /><glyph glyph-name="cid2913" unicode="&#x5df1;" d="M784 732 L784 363 L228 363 L228 63 Q228 25 243.5 12 Q259 -1 288 -1 L521 -1 Q557 -1 602 0.5 Q647 2 695 6.5 Q743 11 789.5 17.5 Q836 24 874 35 L886 -24 Q851 -34 803.5 -40.5 Q756 -47 704.5 -51.5 Q653 -56 603 -58 Q553 -60 514 -60 L283 -60 Q223 -60 194.5 -36 Q166 -12 166 48 L166 419 L723 419 L723 676 L146 676 L146 732 L784 732 Z" /><glyph glyph-name="cid2920" unicode="&#x5e01;" d="M120 696 Q208 697 300.5 701.5 Q393 706 484 712.5 Q575 719 662 728.5 Q749 738 827 750 L838 692 Q759 681 677.5 671.5 Q596 662 512 655 L512 488 L808 488 L808 160 Q808 132 803.5 112 Q799 92 786 79.5 Q773 67 749.5 61.5 Q726 56 687 56 L628 56 L619 114 L687 114 Q725 114 735 124 Q745 134 745 160 L745 430 L512 430 L512 -96 L451 -96 L451 430 L231 430 L231 50 L168 50 L168 488 L451 488 L451 650 Q367 644 284.5 640.5 Q202 637 122 636 L120 696 Z" /><glyph glyph-name="cid2921" unicode="&#x5e02;" d="M459 815 Q478 789 496.5 760 Q515 731 534 701 L486 676 L886 676 L886 620 L511 620 L511 466 L808 466 L808 135 Q808 107 803.5 87 Q799 67 786 54.5 Q773 42 749.5 36.5 Q726 31 687 31 L628 31 L619 88 L687 88 Q725 88 736 98.5 Q747 109 747 135 L747 409 L511 409 L511 -99 L452 -99 L452 409 L229 409 L229 25 L168 25 L168 466 L452 466 L452 620 L77 620 L77 676 L481 676 Q467 702 448.5 731.5 Q430 761 413 784 L459 815 Z" /><glyph glyph-name="cid2925" unicode="&#x5e08;" d="M886 736 L886 680 L663 680 L663 532 L852 532 L852 164 Q852 129 846 108.5 Q840 88 827 76.5 Q814 65 793.5 61.5 Q773 58 746 58 L706 58 L695 114 L739 114 Q754 114 764.5 115 Q775 116 781 121 Q787 126 789.5 136.5 Q792 147 792 168 L792 476 L663 476 L663 -101 L603 -101 L603 476 L480 476 L480 42 L420 42 L420 532 L603 532 L603 680 L381 680 L381 736 L886 736 ZM107 -56 Q164 -9 196 38.5 Q228 86 243 140 Q258 194 260.5 257 Q263 320 262 399 L262 798 L322 798 L322 395 Q322 310 318.5 241 Q315 172 298 112.5 Q281 53 246.5 0.5 Q212 -52 149 -104 L107 -56 ZM173 681 L173 201 L113 201 L113 681 L173 681 Z" /><glyph glyph-name="cid2972" unicode="&#x5e73;" d="M455 317 L455 686 L131 686 L131 741 L838 741 L838 686 L516 686 L516 317 L899 317 L899 261 L516 261 L516 -101 L455 -101 L455 261 L69 261 L69 317 L455 317 ZM608 410 Q632 434 653.5 461.5 Q675 489 693.5 517.5 Q712 546 727.5 574 Q743 602 754 626 L809 595 Q779 538 740 479.5 Q701 421 656 372 L608 410 ZM205 617 Q244 571 282 519.5 Q320 468 356 414 L303 378 Q270 432 231.5 485 Q193 538 158 580 L205 617 Z" /><glyph glyph-name="cid2973" unicode="&#x5e74;&#xf98e;" d="M504 470 L504 643 L284 643 Q254 595 216.5 550 Q179 505 136 469 L91 510 Q130 546 161 582 Q192 618 217 654.5 Q242 691 262 729 Q282 767 300 807 L357 790 Q350 770 340.5 746.5 Q331 723 317 699 L862 699 L862 643 L567 643 L567 470 L819 470 L819 415 L567 415 L567 224 L899 224 L899 167 L567 167 L567 -99 L504 -99 L504 167 L72 167 L72 224 L228 224 L228 470 L504 470 ZM290 224 L504 224 L504 415 L290 415 L290 224 Z" /><glyph glyph-name="cid2974" unicode="&#x5e76;" d="M316 329 Q319 360 320.5 394 Q322 428 323 466 L323 571 L146 571 L146 627 L547 627 Q576 666 601 709.5 Q626 753 651 803 L707 779 Q689 742 665 701.5 Q641 661 618 627 L835 627 L835 571 L667 571 L667 329 L889 329 L889 273 L667 273 L667 -100 L607 -100 L607 273 L369 273 Q359 210 342 158.5 Q325 107 297.5 62.5 Q270 18 231.5 -22.5 Q193 -63 141 -103 L100 -55 Q150 -16 185.5 21 Q221 58 246 97 Q271 136 286 179 Q301 222 309 273 L94 273 L94 329 L316 329 ZM383 472 Q382 432 380.5 396.5 Q379 361 376 329 L607 329 L607 571 L383 571 L383 472 ZM258 763 L302 797 Q313 785 327 769 Q341 753 355 735.5 Q369 718 382.5 700 Q396 682 407 667 L359 633 Q335 671 311.5 700 Q288 729 258 763 Z" /><glyph glyph-name="cid2981" unicode="&#x5e7f;" d="M563 801 L563 674 L875 674 L875 616 L235 616 L235 371 Q235 293 229.5 226 Q224 159 210.5 101 Q197 43 175.5 -7.5 Q154 -58 124 -103 L73 -70 Q102 -25 121.5 20.5 Q141 66 152.5 117.5 Q164 169 169 231.5 Q174 294 175 374 L175 674 L506 674 L506 801 L563 801 Z" /><glyph glyph-name="cid3004" unicode="&#x5ea7;" d="M572 623 L572 207 L807 207 L807 152 L572 152 L572 -5 L886 -5 L886 -61 L200 -61 L200 -5 L514 -5 L514 152 L284 152 L284 207 L514 207 L514 623 L572 623 ZM566 800 L566 707 L883 707 L883 654 L215 654 L215 420 Q215 326 210.5 254 Q206 182 194.5 122.5 Q183 63 163 11 Q143 -41 111 -95 L60 -62 Q91 -14 110.5 34 Q130 82 140.5 138 Q151 194 154.5 262 Q158 330 158 418 L158 707 L506 707 L506 800 L566 800 ZM241 293 Q289 363 315 438 Q341 513 355 602 L408 594 Q403 568 398.5 545 Q394 522 389 500 Q399 484 413.5 458 Q428 432 443.5 404 Q459 376 473 349.5 Q487 323 495 305 L443 277 Q438 290 429.5 308.5 Q421 327 410.5 347.5 Q400 368 389 389 Q378 410 368 428 Q337 332 288 263 L241 293 ZM603 301 Q628 340 645.5 375.5 Q663 411 675 446.5 Q687 482 695.5 518.5 Q704 555 712 597 L763 588 Q758 563 753.5 540 Q749 517 744 495 Q756 478 771.5 454.5 Q787 431 803 405 Q819 379 834.5 353.5 Q850 328 861 306 L811 275 Q794 308 770.5 349 Q747 390 725 424 Q698 342 649 272 L603 301 Z" /><glyph glyph-name="cid3036" unicode="&#x5f00;" d="M298 388 Q299 411 299.5 435 Q300 459 300 485 L300 679 L130 679 L130 735 L838 735 L838 679 L673 679 L673 388 L887 388 L887 332 L673 332 L673 -96 L611 -96 L611 332 L355 332 Q349 264 334.5 205 Q320 146 294.5 93 Q269 40 230 -9 Q191 -58 136 -105 L92 -56 Q144 -14 180.5 30 Q217 74 240 121.5 Q263 169 275.5 221 Q288 273 294 332 L83 332 L83 388 L298 388 ZM362 491 Q362 436 359 388 L611 388 L611 679 L362 679 L362 491 Z" /><glyph glyph-name="cid3087" unicode="&#x5f71;" d="M533 759 L533 512 L138 512 L138 759 L533 759 ZM256 -24 Q287 -23 296.5 -16 Q306 -9 306 19 L306 151 L153 151 L153 325 L518 325 L518 151 L366 151 L366 10 Q365 -16 360 -33 Q355 -50 344.5 -60.5 Q334 -71 317 -75.5 Q300 -80 275 -80 L209 -80 L199 -24 L256 -24 ZM365 495 L365 440 L600 440 L600 388 L70 388 L70 440 L307 440 L307 495 L365 495 ZM535 -36 Q644 27 725 108.5 Q806 190 864 281 L914 246 Q846 139 758 55 Q670 -29 572 -86 L535 -36 ZM578 283 Q624 311 662 340.5 Q700 370 732.5 401.5 Q765 433 793.5 467.5 Q822 502 848 540 L895 508 Q846 433 776 361.5 Q706 290 613 234 L578 283 ZM574 545 Q655 596 714 651.5 Q773 707 820 774 L866 743 Q845 710 816.5 675.5 Q788 641 754.5 609 Q721 577 683.5 548.5 Q646 520 608 498 L574 545 ZM209 202 L462 202 L462 276 L209 276 L209 202 ZM195 658 L477 658 L477 710 L195 710 L195 658 ZM477 562 L477 614 L195 614 L195 562 L477 562 ZM65 -2 Q109 30 141 60.5 Q173 91 202 132 L246 96 Q228 73 210.5 53.5 Q193 34 176 17 Q159 0 140.5 -15.5 Q122 -31 102 -47 L65 -2 ZM453 131 Q465 121 479.5 108.5 Q494 96 509 82 Q524 68 538.5 54.5 Q553 41 564 30 L524 -11 Q496 20 471 43 Q446 66 416 91 L453 131 Z" /><glyph glyph-name="cid3108" unicode="&#x5f97;" d="M825 751 L825 447 L390 447 L390 751 L825 751 ZM704 223 L704 317 L355 317 L355 371 L868 371 L868 317 L764 317 L764 223 L910 223 L910 168 L764 168 L764 16 Q763 -15 757 -34 Q751 -53 739.5 -64 Q728 -75 711 -79.5 Q694 -84 673 -85 L568 -85 L557 -30 L654 -30 Q669 -29 679 -27.5 Q689 -26 694.5 -20 Q700 -14 702 -2.5 Q704 9 704 30 L704 168 L311 168 L311 223 L704 223 ZM53 261 Q119 324 173.5 403.5 Q228 483 270 575 L322 552 Q286 469 246 403 L246 -99 L189 -99 L189 321 Q147 266 96 218 L53 261 ZM769 499 L769 575 L446 575 L446 499 L769 499 ZM446 626 L769 626 L769 699 L446 699 L446 626 ZM68 547 Q122 595 170 657 Q218 719 252 791 L305 766 Q290 733 269 698 Q248 663 223 629 Q198 595 169.5 563 Q141 531 111 504 L68 547 ZM501 -3 Q475 34 451.5 63.5 Q428 93 396 128 L438 164 Q466 134 493.5 100.5 Q521 67 547 32 L501 -3 Z" /><glyph glyph-name="cid3125" unicode="&#x5fc3;" d="M368 589 L368 68 Q368 26 383.5 10 Q399 -6 436 -8 L542 -8 Q575 -8 599.5 2 Q624 12 643.5 33 Q663 54 679.5 86.5 Q696 119 713 163 L767 134 Q752 90 733 52.5 Q714 15 688.5 -12 Q663 -39 630 -53.5 Q597 -68 555 -68 L426 -68 Q363 -66 335 -33 Q307 0 307 63 L307 589 L368 589 ZM763 526 Q782 482 801.5 434.5 Q821 387 838.5 338.5 Q856 290 872 242 Q888 194 902 150 L841 126 Q812 228 777.5 318.5 Q743 409 701 502 L763 526 ZM69 128 Q112 224 139 314 Q166 404 184 502 L242 487 Q224 381 195 285.5 Q166 190 124 102 L69 128 ZM425 809 Q473 753 526.5 683.5 Q580 614 625 548 L574 510 Q526 579 477.5 647 Q429 715 378 772 L425 809 Z" /><glyph glyph-name="cid3157" unicode="&#x6001;" d="M85 355 Q164 381 222 411 Q280 441 321 475.5 Q362 510 387.5 548 Q413 586 427 628 L111 628 L111 683 L441 683 Q443 695 445 710.5 Q447 726 448.5 742.5 Q450 759 451 775 Q452 791 453 803 L512 800 Q511 788 510 772.5 Q509 757 507.5 740.5 Q506 724 504.5 709 Q503 694 501 683 L858 683 L858 628 L533 628 Q558 584 588.5 545 Q619 506 660.5 471.5 Q702 437 756.5 408 Q811 379 885 356 L866 299 Q722 344 627 425 Q532 506 483 607 Q459 540 412 483 Q427 471 444.5 457 Q462 443 479.5 428.5 Q497 414 513 400.5 Q529 387 540 377 L500 335 Q489 344 473.5 358 Q458 372 441 387 Q424 402 406.5 417 Q389 432 374 444 Q327 401 261.5 364.5 Q196 328 105 296 L85 355 ZM357 250 L357 68 Q357 -10 421 -10 L538 -10 Q582 -10 617.5 5.5 Q653 21 686 70 L735 29 Q698 -27 655 -48 Q612 -69 557 -69 L413 -69 Q296 -69 296 59 L296 250 L357 250 ZM755 235 Q774 212 794.5 184.5 Q815 157 835 128 Q855 99 874 69.5 Q893 40 908 14 L854 -20 Q820 40 783.5 93 Q747 146 705 200 L755 235 ZM65 11 Q107 54 143 109.5 Q179 165 201 220 L253 194 Q232 139 194.5 79.5 Q157 20 110 -29 L65 11 ZM463 311 Q497 282 534 241 Q571 200 600 161 L550 123 Q518 168 485 205.5 Q452 243 420 272 L463 311 Z" /><glyph glyph-name="cid3179" unicode="&#x6027;" d="M347 416 Q369 459 384.5 496.5 Q400 534 412 571 Q424 608 433.5 647.5 Q443 687 452 734 L509 723 Q501 684 494 651 Q487 618 479 589 L608 589 L608 801 L667 801 L667 589 L866 589 L866 533 L667 533 L667 326 L849 326 L849 270 L667 270 L667 -4 L909 -4 L909 -60 L348 -60 L348 -4 L608 -4 L608 270 L416 270 L416 326 L608 326 L608 533 L462 533 Q448 495 433 461 Q418 427 400 392 L347 416 ZM244 800 L244 -100 L186 -100 L186 800 L244 800 ZM50 301 Q62 341 71 377 Q80 413 87 448.5 Q94 484 99.5 521.5 Q105 559 111 603 L167 595 Q156 509 141.5 436.5 Q127 364 104 286 L50 301 ZM302 632 Q319 591 333 556 Q347 521 361 475 L308 457 Q301 481 295 500.5 Q289 520 282.5 538 Q276 556 269 574 Q262 592 254 613 L302 632 Z" /><glyph glyph-name="cid3210" unicode="&#x606f;" d="M408 715 Q416 738 422.5 764 Q429 790 434 809 L492 797 Q488 782 482 759.5 Q476 737 469 715 L774 715 L774 252 L196 252 L196 715 L408 715 ZM344 198 L344 64 Q344 -15 409 -15 L543 -15 Q588 -15 622 3.5 Q656 22 689 71 L739 30 Q702 -27 660 -50 Q618 -73 561 -73 L401 -73 Q283 -73 283 55 L283 198 L344 198 ZM714 307 L714 392 L256 392 L256 307 L714 307 ZM256 576 L714 576 L714 660 L256 660 L256 576 ZM256 445 L714 445 L714 523 L256 523 L256 445 ZM772 188 Q789 167 807.5 141 Q826 115 844 89 Q862 63 878 38 Q894 13 907 -8 L855 -41 Q826 9 795.5 54.5 Q765 100 724 150 L772 188 ZM55 -19 Q90 26 116 78.5 Q142 131 162 184 L216 161 Q195 103 167.5 48.5 Q140 -6 105 -51 L55 -19 ZM473 242 Q501 213 530.5 178.5 Q560 144 591 102 L544 65 Q515 107 488 140 Q461 173 432 205 L473 242 Z" /><glyph glyph-name="cid3275" unicode="&#x60f3;" d="M832 739 L832 252 L480 252 L480 739 L832 739 ZM256 660 L256 800 L312 800 L312 660 L442 660 L442 606 L312 606 L312 251 L256 251 L256 525 Q230 464 194 407 Q158 350 113 305 L71 344 Q127 405 169 471.5 Q211 538 240 606 L104 606 L104 660 L256 660 ZM357 198 L357 43 Q357 5 374 -7.5 Q391 -20 429 -20 L546 -20 Q571 -20 590.5 -15.5 Q610 -11 627 -1.5 Q644 8 660 22.5 Q676 37 693 58 L736 16 Q700 -28 661 -52 Q622 -76 562 -76 L423 -76 Q351 -76 323.5 -50 Q296 -24 298 38 L298 198 L357 198 ZM774 306 L774 400 L538 400 L538 306 L774 306 ZM538 592 L774 592 L774 685 L538 685 L538 592 ZM538 450 L774 450 L774 542 L538 542 L538 450 ZM68 -5 Q109 36 143.5 91.5 Q178 147 201 202 L255 176 Q244 150 228.5 120 Q213 90 194.5 60 Q176 30 155 3 Q134 -24 113 -45 L68 -5 ZM772 182 Q807 137 840 92 Q873 47 901 2 L852 -30 Q823 14 792 57.5 Q761 101 725 146 L772 182 ZM469 249 Q498 220 530.5 184 Q563 148 587 116 L542 79 Q516 114 487 148 Q458 182 429 211 L469 249 ZM353 550 Q363 537 376.5 520 Q390 503 403.5 484.5 Q417 466 430 448 Q443 430 452 414 L409 384 Q389 417 362.5 454.5 Q336 492 313 520 L353 550 Z" /><glyph glyph-name="cid3288" unicode="&#x610f;" d="M472 177 L198 177 L198 451 L767 451 L767 177 L480 177 Q505 154 526.5 131 Q548 108 575 74 L532 38 Q518 55 507 68.5 Q496 82 485.5 94 Q475 106 463.5 118 Q452 130 439 144 L472 177 ZM337 563 Q329 577 322.5 587 Q316 597 310.5 605 Q305 613 299.5 621 Q294 629 288 640 L337 667 Q346 655 352.5 645.5 Q359 636 365 626.5 Q371 617 378 606 Q385 595 394 580 L362 563 L574 563 Q590 587 606 614.5 Q622 642 633 665 L682 640 Q675 625 664 604 Q653 583 640 563 L876 563 L876 510 L94 510 L94 563 L337 563 ZM514 803 L514 721 L822 721 L822 668 L147 668 L147 721 L455 721 L455 803 L514 803 ZM346 139 L346 43 Q346 12 358 -4 Q370 -20 404 -20 L545 -20 Q590 -20 621 2.5 Q652 25 681 64 L726 26 Q695 -20 657 -47.5 Q619 -75 559 -75 L396 -75 Q337 -75 312 -49.5 Q287 -24 287 26 L287 139 L346 139 ZM707 230 L707 291 L258 291 L258 230 L707 230 ZM258 341 L707 341 L707 398 L258 398 L258 341 ZM60 -20 Q95 14 126.5 56.5 Q158 99 181 144 L231 115 Q207 69 173.5 22 Q140 -25 102 -60 L60 -20 ZM768 158 Q786 141 806 121.5 Q826 102 845 81.5 Q864 61 881.5 41 Q899 21 913 5 L867 -34 Q835 6 802.5 41.5 Q770 77 729 118 L768 158 Z" /><glyph glyph-name="cid3381" unicode="&#x620f;" d="M346 1 Q427 37 493.5 82 Q560 127 614 181 Q603 204 595 227 Q587 250 580 273 Q566 322 556.5 370.5 Q547 419 542 472 L406 453 L398 512 L537 531 Q533 591 532 657 Q531 723 531 803 L593 802 Q591 727 592 662.5 Q593 598 597 540 L874 578 L881 520 L602 480 Q608 427 616.5 381.5 Q625 336 637 295 Q642 278 647.5 262 Q653 246 660 230 Q702 279 735.5 332 Q769 385 796 442 L850 415 Q778 272 689 173 Q766 36 912 -44 L880 -97 Q800 -53 742 4 Q684 61 644 127 Q587 73 521 29.5 Q455 -14 375 -52 L346 1 ZM137 568 Q166 521 201 463.5 Q236 406 273 343 Q294 409 308 481.5 Q322 554 332 639 L89 639 L89 696 L394 696 L394 641 Q380 533 361 443.5 Q342 354 313 274 L413 97 L361 62 Q343 96 323.5 131.5 Q304 167 283 204 Q250 132 203.5 65.5 Q157 -1 92 -70 L46 -25 Q117 48 165.5 120 Q214 192 246 270 Q206 342 165.5 410 Q125 478 88 536 L137 568 ZM664 759 Q695 733 729 697 Q763 661 788 631 L746 592 Q718 627 689 657.5 Q660 688 627 718 L664 759 Z" /><glyph glyph-name="cid3382" unicode="&#x6210;" d="M428 -14 Q488 26 537.5 71.5 Q587 117 627 168 Q620 183 613.5 198.5 Q607 214 602 231 Q576 309 564 397.5 Q552 486 547 583 L225 583 L225 424 L461 424 L446 119 Q442 68 417.5 51 Q393 34 350 34 L260 34 L250 91 L336 91 Q365 91 375.5 98 Q386 105 388 134 L401 369 L225 369 L225 345 Q225 205 192.5 97 Q160 -11 100 -89 L51 -53 Q108 16 137 118 Q166 220 166 340 L166 638 L545 638 Q543 718 545 801 L605 801 Q604 759 603.5 718.5 Q603 678 605 638 L866 638 L866 583 L607 583 Q611 495 622 416 Q633 337 654 271 Q661 248 670 226 Q713 292 743.5 362.5 Q774 433 796 508 L852 491 Q827 400 790.5 318 Q754 236 702 161 Q737 101 789 52 Q841 3 910 -48 L873 -100 Q806 -49 752.5 1 Q699 51 661 109 Q621 61 572.5 18 Q524 -25 466 -62 L428 -14 ZM695 793 Q720 773 749.5 744 Q779 715 802 692 L762 651 Q753 662 740 676.5 Q727 691 712 705 Q697 719 682.5 732.5 Q668 746 657 755 L695 793 Z" /><glyph glyph-name="cid3383" unicode="&#x6211;" d="M94 195 Q139 206 187 220.5 Q235 235 285 252 L285 454 L93 454 L93 510 L285 510 L285 658 Q249 650 212.5 643 Q176 636 143 631 L133 687 Q175 694 220.5 703.5 Q266 713 309.5 723 Q353 733 391 743.5 Q429 754 456 763 L478 711 Q452 702 418 692 Q384 682 345 672 L345 510 L548 510 Q543 566 541 636 Q539 706 538 799 L597 799 Q597 703 599.5 633.5 Q602 564 607 510 L874 510 L874 454 L612 454 Q617 410 624 376.5 Q631 343 639 312 Q647 285 654.5 260.5 Q662 236 671 213 Q741 304 789 405 L838 376 Q783 257 699 153 Q728 100 772.5 51.5 Q817 3 888 -49 L855 -101 Q790 -56 741 -6 Q692 44 657 104 Q564 4 453 -64 L419 -12 Q476 21 528 64.5 Q580 108 627 160 Q599 221 582 294 Q574 328 566.5 366.5 Q559 405 554 454 L345 454 L345 273 Q382 287 417 302.5 Q452 318 484 334 L507 281 Q476 265 434.5 247 Q393 229 345 211 L345 40 Q343 10 338.5 -11.5 Q334 -33 321.5 -47.5 Q309 -62 287.5 -69 Q266 -76 230 -76 L134 -76 L124 -20 L223 -20 Q240 -20 251.5 -18.5 Q263 -17 270 -11 Q277 -5 280.5 8.5 Q284 22 285 46 L285 189 Q237 172 192.5 158 Q148 144 111 135 L94 195 ZM688 745 Q722 714 757 678 Q792 642 821 611 L778 572 Q751 603 718 637.5 Q685 672 649 704 L688 745 Z" /><glyph glyph-name="cid3387" unicode="&#x6216;" d="M592 801 Q593 766 593.5 724.5 Q594 683 596 637 L871 637 L871 581 L598 581 L600 550 Q605 450 619.5 372 Q634 294 660 229 Q698 292 723.5 361.5 Q749 431 769 510 L826 493 Q801 402 770 321.5 Q739 241 691 167 Q726 105 778 54 Q830 3 904 -46 L869 -101 Q796 -49 743 2 Q690 53 652 112 Q610 58 555 8.5 Q500 -41 426 -88 L391 -36 Q467 12 523 62.5 Q579 113 621 170 Q585 243 566.5 336 Q548 429 541 552 L539 581 L109 581 L109 637 L537 637 Q535 683 535 723 Q535 763 535 801 L592 801 ZM448 488 L448 190 L163 190 L163 488 L448 488 ZM220 245 L391 245 L391 433 L220 433 L220 245 ZM96 64 Q143 69 193 75.5 Q243 82 292 90 Q341 98 387.5 106.5 Q434 115 475 125 L487 70 Q452 61 404 51.5 Q356 42 304 33 Q252 24 200 17 Q148 10 106 5 L96 64 ZM679 795 Q709 767 736.5 740 Q764 713 789 686 L749 649 Q723 680 697.5 704.5 Q672 729 642 757 L679 795 Z" /><glyph glyph-name="cid3389" unicode="&#x6218;" d="M270 800 L270 617 L437 617 L437 563 L270 563 L270 389 L412 389 L412 7 L94 7 L94 389 L212 389 L212 800 L270 800 ZM425 3 Q485 35 537.5 71.5 Q590 108 635 150 Q603 204 585 266 Q571 312 563 360 Q555 408 550 462 L422 445 L414 501 L545 518 Q541 580 539 649 Q537 718 534 799 L593 800 Q595 722 596.5 653.5 Q598 585 602 525 L858 559 L865 505 L607 470 Q612 421 619 378.5 Q626 336 637 300 Q653 243 679 194 Q770 292 816 403 L869 374 Q840 310 801.5 252 Q763 194 712 141 Q747 93 795 50 Q843 7 910 -39 L878 -92 Q809 -42 757.5 3.5 Q706 49 668 99 Q581 19 456 -47 L425 3 ZM152 62 L354 62 L354 334 L152 334 L152 62 ZM687 751 Q718 725 752 690 Q786 655 811 625 L770 587 Q742 622 713 652 Q684 682 651 712 L687 751 Z" /><glyph glyph-name="cid3406" unicode="&#x6237;" d="M557 799 L557 670 L839 670 L839 342 L265 342 Q259 217 227 107 Q195 -3 129 -101 L80 -65 Q148 34 176 142.5 Q204 251 206 375 L206 670 L499 670 L499 799 L557 799 ZM266 399 L778 399 L778 614 L266 614 L266 399 Z" /><glyph glyph-name="cid3416" unicode="&#x624b;" d="M152 500 L465 500 L465 672 Q390 666 314 662.5 Q238 659 166 659 L163 716 Q244 717 328 721 Q412 725 492.5 732 Q573 739 647.5 748 Q722 757 786 769 L801 711 Q744 702 674.5 693.5 Q605 685 527 678 L527 500 L822 500 L822 443 L527 443 L527 261 L892 261 L892 204 L527 204 L527 20 Q526 -14 517.5 -34.5 Q509 -55 495 -66.5 Q481 -78 461 -81.5 Q441 -85 417 -85 L277 -85 L269 -26 L404 -26 Q422 -26 433.5 -23.5 Q445 -21 452 -14.5 Q459 -8 462 5 Q465 18 465 40 L465 204 L79 204 L79 261 L465 261 L465 443 L152 443 L152 500 Z" /><glyph glyph-name="cid3428" unicode="&#x6267;" d="M504 626 L504 803 L563 803 L563 626 L778 626 L778 319 Q778 248 787 192.5 Q796 137 813.5 93 Q831 49 855.5 13.5 Q880 -22 911 -53 L868 -97 Q827 -54 798.5 -12 Q770 30 752 78 Q734 126 726 184 Q718 242 718 319 L718 569 L563 569 L563 508 Q562 452 558.5 402 Q555 352 547 305 Q583 277 617.5 248 Q652 219 683 191 L644 145 Q616 169 588.5 191.5 Q561 214 533 237 Q510 139 466 57.5 Q422 -24 354 -101 L305 -61 Q375 18 418 99 Q461 180 482 278 Q457 298 431.5 316.5 Q406 335 380 355 L413 404 Q432 391 452 377 Q472 363 493 347 Q498 384 500.5 424 Q503 464 504 509 L504 569 L395 569 L395 626 L504 626 ZM82 618 L200 618 L200 799 L259 799 L259 618 L360 618 L360 561 L259 561 L259 372 Q295 388 331 408 L355 354 Q333 343 309 330.5 Q285 318 259 307 L259 21 Q256 -30 237.5 -54 Q219 -78 168 -77 L88 -77 L80 -19 L156 -19 Q182 -20 191 -11.5 Q200 -3 200 29 L200 283 Q167 269 136 257.5 Q105 246 79 237 L59 296 Q97 308 131.5 320.5 Q166 333 200 347 L200 561 L82 561 L82 618 Z" /><glyph glyph-name="cid3441" unicode="&#x627e;" d="M328 41 Q406 73 470 111.5 Q534 150 588 196 Q580 213 573.5 231 Q567 249 562 267 Q547 318 537.5 369.5 Q528 421 522 478 L363 459 L355 516 L517 535 Q512 593 509.5 657.5 Q507 722 505 799 L565 799 Q565 727 567.5 663 Q570 599 575 542 L863 576 L870 520 L581 485 Q588 428 597.5 379.5 Q607 331 619 288 Q622 276 626 264 Q630 252 635 241 Q680 287 716 338.5 Q752 390 782 449 L833 422 Q793 350 752 291.5 Q711 233 663 185 Q705 113 766.5 56.5 Q828 0 900 -39 L871 -94 Q786 -45 722.5 14 Q659 73 617 142 Q562 94 497.5 56 Q433 18 355 -15 L328 41 ZM80 618 L207 618 L207 799 L267 799 L267 618 L386 618 L386 562 L267 562 L267 347 Q299 358 327.5 370 Q356 382 381 393 L398 336 Q372 325 338.5 312.5 Q305 300 267 287 L267 26 Q267 -22 243.5 -47 Q220 -72 163 -71 L93 -71 L85 -14 L157 -14 Q184 -15 195.5 -1.5 Q207 12 207 36 L207 267 Q171 255 137 245 Q103 235 75 228 L58 284 Q93 292 131 303 Q169 314 207 327 L207 562 L80 562 L80 618 ZM666 778 Q679 763 695 743.5 Q711 724 726 704 Q741 684 755 664 Q769 644 779 628 L733 594 Q710 632 681.5 670 Q653 708 624 743 L666 778 Z" /><glyph glyph-name="cid3443" unicode="&#x6280;" d="M478 377 Q506 314 541.5 258 Q577 202 622 152 Q675 204 709.5 262 Q744 320 762 383 L393 383 L393 439 L590 439 L590 594 L374 594 L374 650 L590 650 L590 800 L650 800 L650 650 L873 650 L873 594 L650 594 L650 439 L827 439 L827 384 Q804 307 764 238.5 Q724 170 664 109 Q715 63 776 25 Q837 -13 914 -42 L888 -100 Q803 -63 738 -21.5 Q673 20 620 69 Q507 -29 329 -100 L302 -43 Q387 -11 455 28 Q523 67 578 112 Q531 164 494.5 223 Q458 282 428 351 L478 377 ZM80 618 L197 618 L197 800 L256 800 L256 618 L355 618 L355 561 L256 561 L256 363 Q302 384 345 406 L366 350 Q316 325 256 301 L256 21 Q256 -26 236 -51.5 Q216 -77 163 -76 L88 -76 L80 -18 L158 -18 Q181 -19 189 -6.5 Q197 6 197 29 L197 278 Q168 267 140 257.5 Q112 248 86 240 L66 294 Q100 305 132.5 316 Q165 327 197 339 L197 561 L79 561 L80 618 Z" /></font>
</defs>
</svg>
