<?xml version="1.0" standalone="no"?><!DOCTYPE svg PUBLIC "-//W3C//DTD SVG 1.1//EN" "http://www.w3.org/Graphics/SVG/1.1/DTD/svg11.dtd" ><svg xmlns="http://www.w3.org/2000/svg"><metadata></metadata><defs><font id="fonteditor" horiz-adv-x="1000"><font-face font-family="`nÑOSeç[W_b Regular" font-weight="400" font-stretch="normal" units-per-em="1000" panose-1="2 11 5 0 0 0 0 0 0 0" ascent="1160" descent="-320" x-height="0" bbox="1 -120 969 880" underline-thickness="0" underline-position="0" unicode-range="U+0049-fa08" /><missing-glyph horiz-adv-x="1000" d="M100 880 L900 880 L900 -120 L100 -120 L100 880 ZM818 830 L182 830 L500 421 L818 830 ZM850 -29 L850 789 L532 380 L850 -29 ZM818 -70 L500 339 L182 -70 L818 -70 ZM150 -29 L468 380 L150 789 L150 -29 Z" /><glyph glyph-name="I" unicode="i" d="M100 733 L193 733 L193 0 L100 0 L100 733 Z" /><glyph glyph-name="R" unicode="r" d="M193 386 L316 386 Q494 386 494 527 Q494 658 316 658 L193 658 L193 386 ZM503 0 L325 311 L193 311 L193 0 L100 0 L100 733 L330 733 Q586 733 586 527 Q586 361 420 321 L608 0 L503 0 Z" /><glyph glyph-name="U" unicode="u" d="M360 -13 Q97 -13 97 303 L97 733 L190 733 L190 300 Q190 68 360 68 Q535 68 535 300 L535 733 L624 733 L624 303 Q624 -13 360 -13 Z" /><glyph glyph-name="V" unicode="v" d="M1 733 L98 733 L217 336 L252 215 Q272 143 288 94 L292 94 Q307 141 328 215 Q352 300 363 336 L481 733 L575 733 L342 0 L235 0 L1 733 Z" /><glyph glyph-name="uni4E1A" unicode="&#x4e1a;" d="M918 573 Q831 366 746 229 L685 262 Q790 434 851 606 L918 573 ZM221 237 Q184 373 85 588 L154 609 Q252 404 295 265 L221 237 ZM938 49 L938 -24 L64 -24 L64 49 L342 49 L342 824 L416 824 L416 49 L585 49 L585 823 L659 823 L659 49 L938 49 Z" /><glyph glyph-name="uni51ED" unicode="&#x51ed;" d="M584 722 Q486 712 361 703 Q358 728 343 758 Q695 786 842 826 L895 773 Q800 749 657 731 L657 613 L943 613 L943 548 L657 548 L657 428 L926 428 L926 365 L338 365 L338 428 L584 428 L584 548 L303 548 L303 613 L584 613 L584 722 ZM176 585 Q131 540 81 501 Q58 531 28 553 Q191 663 276 837 L343 817 Q309 745 248 668 L248 335 L176 335 L176 585 ZM864 7 Q885 7 891 28 Q898 50 900 129 Q920 112 966 101 Q961 5 941 -28 Q921 -61 871 -61 L753 -61 Q695 -61 674 -41 Q653 -20 653 36 L653 221 L340 221 L340 194 Q340 3 88 -77 Q75 -45 46 -14 Q266 51 266 196 L266 287 L726 287 L726 37 Q726 18 733 12 Q739 7 762 7 L864 7 Z" /><glyph glyph-name="uni52A8" unicode="&#x52a8;" d="M477 688 L93 688 L93 755 L477 755 L477 688 ZM446 67 L428 132 Q124 65 93 46 L93 50 Q92 49 92 47 Q87 74 69 116 Q86 120 114 184 Q162 297 195 450 L57 450 L57 518 L494 518 L494 450 L272 450 Q232 288 170 145 L407 195 Q375 287 349 347 L410 364 Q481 202 512 88 L446 67 ZM942 607 L941 570 Q924 30 882 -24 Q856 -56 810 -62 Q766 -66 672 -61 Q668 -19 649 12 Q705 7 779 7 Q804 6 817 22 Q853 62 868 536 L719 536 Q694 94 517 -76 Q492 -41 459 -22 Q625 130 646 536 L507 536 L507 607 L649 607 Q652 677 652 820 L725 820 Q725 712 722 607 L942 607 Z" /><glyph glyph-name="uni5305" unicode="&#x5305;" d="M273 632 Q192 517 100 442 Q60 482 38 496 Q211 623 304 842 L379 820 Q355 765 318 703 L870 703 L870 668 Q855 228 821 184 Q799 155 758 150 Q717 145 642 150 Q640 186 623 221 Q688 215 723 217 Q745 216 756 230 Q783 265 794 632 L273 632 ZM271 462 L271 301 L531 301 L531 462 L271 462 ZM776 15 Q839 15 859 39 Q878 61 886 140 Q914 121 957 113 Q946 13 912 -20 Q876 -55 777 -55 L400 -55 Q282 -55 241 -28 Q198 1 198 83 L198 529 L604 529 L604 234 L271 234 L271 83 Q271 42 294 29 Q318 15 396 15 L776 15 Z" /><glyph glyph-name="uni5386" unicode="&#x5386;" d="M893 501 Q892 475 891 465 Q868 27 822 -24 Q795 -56 744 -60 Q695 -63 593 -58 Q589 -15 567 16 Q631 10 716 10 Q744 9 758 23 Q797 59 816 430 L557 430 Q539 250 480 137 Q409 2 263 -72 Q245 -40 214 -18 Q349 48 413 168 Q467 268 483 430 L256 430 L256 501 L488 501 Q493 581 494 664 L570 664 Q565 528 563 501 L893 501 ZM943 717 L193 717 L193 471 Q193 106 104 -74 Q77 -47 39 -32 Q118 127 118 471 L118 788 L943 788 L943 717 Z" /><glyph glyph-name="uni539F" unicode="&#x539f;" d="M443 187 Q364 59 240 -34 Q220 -14 179 10 Q301 89 373 207 L443 187 ZM370 318 L783 318 L783 410 L370 410 L370 318 ZM370 466 L783 466 L783 557 L370 557 L370 466 ZM611 259 L611 4 Q611 -52 573 -65 Q543 -76 418 -76 Q414 -51 395 -11 Q487 -14 520 -12 Q539 -12 539 5 L539 259 L297 259 L297 616 L506 616 Q522 670 529 714 L207 714 L207 494 Q207 112 102 -74 Q72 -49 38 -36 Q134 134 134 495 L134 781 L940 781 L940 714 L616 714 Q597 652 584 616 L859 616 L859 259 L611 259 ZM754 211 Q895 101 957 11 L897 -30 Q837 63 697 175 L754 211 Z" /><glyph glyph-name="uni540E" unicode="&#x540e;" d="M384 278 L384 43 L798 43 L798 278 L384 278 ZM313 348 L871 348 L871 -75 L798 -75 L798 -25 L384 -25 L384 -77 L313 -77 L313 348 ZM959 562 L959 490 L226 490 L226 480 Q226 108 93 -77 Q70 -43 35 -27 Q152 139 152 481 L152 760 L228 745 Q617 776 814 828 L876 769 Q650 711 226 679 L226 562 L959 562 Z" /><glyph glyph-name="uni578B" unicode="&#x578b;" d="M890 385 Q890 328 852 313 Q819 301 703 301 Q698 332 678 369 Q775 366 800 369 Q819 369 819 387 L819 830 L890 830 L890 385 ZM703 447 L634 447 L634 780 L703 780 L703 447 ZM266 593 L389 593 L389 730 L266 730 L266 593 ZM261 527 Q239 369 111 288 Q89 319 62 340 Q170 406 192 527 L71 527 L71 593 L197 593 L197 730 L104 730 L104 796 L552 796 L552 730 L459 730 L459 593 L572 593 L572 527 L459 527 L459 313 L389 313 L389 527 L261 527 ZM949 27 L949 -43 L51 -43 L51 27 L468 27 L468 153 L154 153 L154 221 L468 221 L468 333 L543 333 L543 221 L845 221 L845 153 L543 153 L543 27 L949 27 Z" /><glyph glyph-name="uni5B66" unicode="&#x5b66;" d="M154 450 L83 450 L83 671 L236 671 Q206 729 152 796 L214 824 Q280 750 310 688 L276 671 L480 671 Q461 738 407 817 L471 841 Q530 760 552 688 L509 671 L686 671 Q749 747 793 830 L870 804 Q823 735 768 671 L923 671 L923 450 L851 450 L851 605 L154 605 L154 450 ZM941 207 L538 207 L538 12 Q538 -50 490 -65 Q451 -77 306 -77 Q299 -47 275 -6 Q396 -9 438 -7 Q464 -6 464 14 L464 207 L64 207 L64 276 L464 276 L464 348 L502 348 Q578 385 643 436 L230 436 L230 502 L718 502 L733 506 L781 470 Q685 371 538 301 L538 276 L941 276 L941 207 Z" /><glyph glyph-name="uni5C31" unicode="&#x5c31;" d="M882 613 Q848 699 769 778 L826 807 Q906 730 944 644 L882 613 ZM528 642 L56 642 L56 710 L258 710 L258 837 L332 837 L332 710 L528 710 L528 642 ZM197 236 Q163 91 93 -3 Q66 24 36 40 Q98 117 129 250 L197 236 ZM179 367 L411 367 L411 501 L179 501 L179 367 ZM332 303 L332 8 Q332 -46 300 -61 Q272 -73 174 -73 Q167 -36 150 -6 Q224 -8 246 -6 Q262 -5 262 9 L262 303 L110 303 L110 564 L482 564 L482 303 L332 303 ZM453 68 Q431 152 384 238 L443 259 Q493 175 515 91 L453 68 ZM858 0 Q880 0 889 6 Q902 13 905 32 Q909 72 908 153 Q928 134 965 122 Q965 27 956 -13 Q946 -45 922 -59 Q900 -70 863 -70 L800 -70 Q761 -70 735 -53 Q713 -34 713 29 L713 330 Q662 75 498 -78 Q468 -50 434 -35 Q640 152 662 503 L521 503 L521 574 L665 574 Q666 593 666 628 L666 837 L738 837 L738 629 Q738 593 737 574 L953 574 L953 503 L735 503 Q735 495 733 479 L731 454 L781 454 L781 26 Q781 12 790 7 Q800 0 817 0 L858 0 Z" /><glyph glyph-name="uni5E8F" unicode="&#x5e8f;" d="M893 341 L946 318 Q837 165 776 107 L718 136 Q769 187 831 273 L616 273 L616 8 Q616 -54 569 -67 Q536 -78 383 -78 Q376 -42 358 -9 Q468 -14 518 -11 Q541 -8 541 9 L541 273 L232 273 L232 336 L592 336 Q491 391 373 439 L417 482 Q486 455 568 418 Q649 461 722 524 L289 524 L289 586 L789 586 L806 590 L855 553 Q766 459 633 387 Q684 362 719 341 L714 336 L879 336 L893 341 ZM948 725 L948 656 L196 656 L196 450 Q196 96 97 -79 Q78 -59 35 -37 Q124 116 124 450 L124 725 L491 725 L491 836 L567 836 L567 725 L948 725 Z" /><glyph glyph-name="uni5F71" unicode="&#x5f71;" d="M915 791 Q814 659 653 564 Q622 600 599 616 Q757 700 845 819 L915 791 ZM940 516 Q826 372 658 277 Q632 308 604 329 Q776 419 871 545 L940 516 ZM183 582 L488 582 L488 645 L183 645 L183 582 ZM183 690 L488 690 L488 752 L183 752 L183 690 ZM615 415 L49 415 L49 473 L299 473 L299 535 L117 535 L117 799 L558 799 L558 535 L367 535 L367 473 L615 473 L615 415 ZM220 117 Q172 19 100 -48 Q75 -27 45 -10 Q120 53 156 133 L220 117 ZM190 211 L481 211 L481 304 L190 304 L190 211 ZM367 158 L367 -6 Q367 -53 335 -65 Q309 -76 217 -76 Q209 -47 189 -16 Q259 -19 284 -17 Q299 -17 299 -5 L299 158 L126 158 L126 356 L550 356 L550 158 L367 158 ZM968 237 Q851 36 617 -75 Q594 -40 566 -17 L534 -34 Q498 33 430 104 L486 132 Q561 53 593 -3 L589 -5 Q800 96 897 264 L968 237 Z" /><glyph glyph-name="uni620F" unicode="&#x620f;" d="M843 649 Q802 708 706 788 L758 827 Q854 754 897 694 L843 649 ZM381 71 Q343 146 284 234 Q204 85 86 -3 Q62 34 32 58 Q154 141 237 307 Q157 429 65 553 L118 595 Q175 520 273 383 Q324 509 349 655 L56 655 L56 722 L369 722 L381 725 L429 709 Q399 482 323 311 Q405 190 441 124 L381 71 ZM896 443 Q835 282 723 149 Q772 18 844 11 Q879 8 894 171 Q915 147 955 131 Q929 -84 847 -79 Q734 -71 664 85 Q576 -3 489 -52 Q465 -19 430 3 Q534 53 637 159 Q597 285 573 496 L438 481 L429 549 L568 565 Q558 670 551 830 L627 830 Q632 692 642 574 L933 607 L942 539 L649 505 Q666 342 697 230 Q788 347 838 479 L896 443 Z" /><glyph glyph-name="uni63D2" unicode="&#x63d2;" d="M348 347 L239 311 L239 10 Q239 -47 205 -63 Q173 -77 81 -76 Q74 -39 59 -8 Q132 -10 153 -8 Q170 -8 170 10 L170 289 L51 250 L32 322 Q65 331 170 363 L170 568 L45 568 L45 636 L170 636 L170 836 L239 836 L239 636 L346 636 L346 568 L239 568 L239 384 Q272 394 338 416 L348 347 ZM855 44 L855 192 L727 192 L727 257 L855 257 L855 379 L723 379 L723 443 L922 443 L922 -70 L855 -70 L855 -21 L445 -21 L445 -74 L377 -74 L377 443 L430 426 Q506 453 548 480 L608 428 Q540 395 445 369 L445 257 L573 257 L573 192 L445 192 L445 44 L615 44 L615 546 L356 546 L356 613 L615 613 L615 713 Q511 702 390 697 Q387 721 372 756 Q716 778 867 816 L915 759 Q822 736 683 720 L683 613 L948 613 L948 546 L683 546 L683 44 L855 44 Z" /><glyph glyph-name="uni6548" unicode="&#x6548;" d="M544 634 L47 634 L47 702 L256 702 L256 833 L328 833 L328 702 L544 702 L544 634 ZM453 413 Q420 485 345 571 L401 602 Q480 517 512 449 L453 413 ZM237 583 Q183 454 96 363 Q69 387 38 406 Q118 482 168 601 L237 583 ZM416 21 Q382 78 315 154 Q229 14 101 -77 Q75 -44 46 -20 Q178 64 264 210 Q199 278 125 342 L179 385 Q251 325 299 276 Q330 341 354 422 L427 405 Q397 305 354 221 Q437 133 475 71 L416 21 ZM646 572 Q674 395 731 261 Q791 384 819 582 L649 582 L646 572 ZM893 582 Q856 333 770 182 Q847 46 962 -16 Q930 -41 911 -77 Q803 -13 727 115 Q637 -6 495 -78 Q475 -38 452 -15 Q603 56 689 186 Q637 298 602 454 Q571 387 536 335 Q509 366 477 386 Q585 532 634 837 L707 826 Q688 724 669 652 L957 652 L957 582 L893 582 Z" /><glyph glyph-name="uni2F42" unicode="&#x2f42;&#x6587;" d="M283 595 Q359 388 498 246 Q635 384 711 595 L283 595 ZM797 595 Q708 349 555 194 Q724 52 961 -4 Q931 -33 908 -76 Q663 -13 495 138 Q337 3 89 -77 Q75 -41 42 -6 Q283 64 439 192 Q288 351 201 595 L54 595 L54 668 L461 668 L461 837 L536 837 L536 668 L951 668 L951 595 L797 595 Z" /><glyph glyph-name="uni671F" unicode="&#x671f;" d="M207 232 L388 232 L388 332 L207 332 L207 232 ZM207 638 L207 550 L388 550 L388 638 L207 638 ZM207 392 L388 392 L388 490 L207 490 L207 392 ZM530 165 L42 165 L42 232 L139 232 L139 638 L55 638 L55 705 L139 705 L139 826 L207 826 L207 705 L388 705 L388 826 L457 826 L457 705 L530 705 L530 638 L457 638 L457 232 L530 232 L530 165 ZM251 125 Q195 5 103 -77 Q71 -50 43 -34 Q132 39 180 144 L251 125 ZM380 144 Q456 58 485 -4 L425 -39 Q395 27 322 113 L380 144 ZM853 327 L853 493 L649 493 L649 426 Q649 395 647 327 L853 327 ZM649 719 L649 560 L853 560 L853 719 L649 719 ZM925 19 Q925 -42 887 -59 Q853 -73 738 -73 Q732 -34 715 -1 Q808 -3 832 -1 Q853 -1 853 20 L853 260 L642 260 Q624 40 547 -82 Q521 -52 488 -38 Q579 107 579 426 L579 787 L925 787 L925 19 Z" /><glyph glyph-name="uni6A21" unicode="&#x6a21;" d="M507 691 L362 691 L362 754 L507 754 L507 836 L578 836 L578 754 L730 754 L730 836 L802 836 L802 754 L941 754 L941 691 L802 691 L802 615 L730 615 L730 691 L578 691 L578 616 L507 616 L507 691 ZM320 286 Q297 341 248 436 L248 -76 L177 -76 L177 373 Q130 215 74 126 Q61 162 35 198 Q128 332 177 575 L54 575 L54 645 L177 645 L177 837 L248 837 L248 645 L351 645 L351 575 L248 575 L248 536 Q286 480 367 341 L320 286 ZM472 346 L818 346 L818 417 L472 417 L472 346 ZM472 470 L818 470 L818 541 L472 541 L472 470 ZM716 144 Q791 22 963 -15 Q935 -39 916 -76 Q722 -23 646 142 Q585 -20 352 -76 Q341 -47 314 -18 Q510 26 569 144 L340 144 L340 207 L591 207 Q597 232 605 290 L403 290 L403 597 L889 597 L889 290 L678 290 Q675 257 665 207 L940 207 L940 144 L716 144 Z" /><glyph glyph-name="uni6E38" unicode="&#x6e38;" d="M237 666 Q186 719 83 773 L125 825 Q227 779 281 724 L237 666 ZM205 407 Q147 460 41 505 L83 560 Q194 514 248 468 L205 407 ZM243 257 Q196 103 126 -63 L59 -25 Q130 129 183 295 L243 257 ZM579 464 L578 429 Q569 -1 538 -42 Q518 -69 479 -74 Q452 -78 377 -74 Q377 -36 359 -8 Q398 -11 449 -11 Q470 -11 478 2 Q501 33 510 395 L411 395 Q383 63 256 -75 Q233 -46 203 -28 Q291 63 324 249 Q346 369 352 606 L259 606 L259 676 L405 676 L405 836 L476 836 L476 676 L608 676 L608 606 L421 606 L415 464 L579 464 ZM959 224 L816 224 L816 5 Q816 -51 780 -65 Q751 -77 642 -77 Q637 -48 620 -9 Q701 -12 729 -10 Q747 -10 747 6 L747 224 L597 224 L597 290 L747 290 L747 385 L778 385 Q812 417 843 460 L646 460 L646 522 L630 497 Q614 510 567 534 Q646 641 680 836 L752 823 Q740 762 723 704 L958 704 L958 634 L699 634 Q675 571 648 525 L894 525 L907 530 L952 498 Q894 408 816 338 L816 290 L959 290 L959 224 Z" /><glyph glyph-name="uni6F2B" unicode="&#x6f2b;" d="M803 756 L465 756 L465 700 L803 700 L803 756 ZM803 653 L465 653 L465 596 L803 596 L803 653 ZM876 548 L395 548 L395 805 L876 805 L876 548 ZM855 449 L742 449 L742 357 L855 357 L855 449 ZM683 449 L573 449 L573 357 L683 357 L683 449 ZM514 449 L407 449 L407 357 L514 357 L514 449 ZM923 306 L342 306 L342 500 L923 500 L923 306 ZM274 643 Q213 701 94 765 L137 817 Q257 757 320 702 L274 643 ZM220 372 Q156 434 45 495 L89 546 Q206 484 268 429 L220 372 ZM295 249 Q221 94 129 -57 L66 -7 Q147 112 240 297 L295 249 ZM476 196 Q532 134 628 84 Q728 135 782 196 L476 196 ZM894 234 Q834 128 703 51 Q823 6 958 -12 Q931 -39 914 -75 Q757 -51 625 12 Q491 -48 305 -77 Q293 -40 270 -14 Q423 5 551 52 Q458 109 391 196 L318 196 L318 257 L833 257 L847 260 L894 234 Z" /><glyph glyph-name="uni7279" unicode="&#x7279;" d="M506 248 Q597 160 633 89 L573 51 Q541 121 450 214 L506 248 ZM832 465 L832 345 L949 345 L949 277 L832 277 L832 15 Q832 -47 791 -64 Q757 -76 630 -76 Q624 -33 606 -2 Q702 -5 738 -3 Q759 -2 759 16 L759 277 L398 277 L398 331 L293 298 L293 -76 L225 -76 L225 277 L59 226 L39 296 Q149 326 225 349 L225 565 L133 565 Q113 472 89 418 Q65 436 33 451 Q78 554 101 783 L166 772 Q161 723 147 635 L225 635 L225 836 L293 836 L293 635 L396 635 L396 565 L293 565 L293 369 L409 404 L418 345 L759 345 L759 465 L381 465 L381 534 L635 534 L635 661 L440 661 L440 729 L635 729 L635 837 L709 837 L709 729 L909 729 L909 661 L709 661 L709 534 L955 534 L955 465 L832 465 Z" /><glyph glyph-name="uni753B" unicode="&#x753b;" d="M839 602 L911 602 L911 -73 L839 -73 L839 -14 L164 -14 L164 -76 L92 -76 L92 602 L164 602 L164 57 L839 57 L839 602 ZM672 528 L529 528 L529 398 L672 398 L672 528 ZM672 338 L529 338 L529 207 L672 207 L672 338 ZM322 207 L464 207 L464 338 L322 338 L322 207 ZM322 398 L464 398 L464 528 L322 528 L322 398 ZM939 771 L939 702 L533 702 L533 591 L737 591 L737 144 L259 144 L259 591 L459 591 L459 702 L61 702 L61 771 L939 771 Z" /><glyph glyph-name="uni79D1" unicode="&#x79d1;" d="M662 583 Q614 648 503 725 L550 768 Q660 698 713 631 L662 583 ZM640 319 Q582 390 464 465 L510 509 Q631 435 689 368 L640 319 ZM381 239 Q359 281 288 388 L288 -75 L215 -75 L215 367 Q144 195 70 106 Q60 135 33 173 Q139 293 205 487 L47 487 L47 557 L215 557 L215 708 Q142 694 78 685 Q71 713 56 743 Q271 777 374 823 L419 764 Q362 741 288 724 L288 557 L435 557 L435 487 L288 487 L288 469 Q323 430 426 297 L381 239 ZM833 186 L833 -75 L760 -75 L760 174 L434 120 L422 191 L760 245 L760 837 L833 837 L833 257 L950 275 L961 207 L833 186 Z" /><glyph glyph-name="uni7A0B" unicode="&#x7a0b;" d="M827 722 L522 722 L522 535 L827 535 L827 722 ZM899 470 L452 470 L452 786 L899 786 L899 470 ZM379 231 Q352 274 288 353 L288 -75 L215 -75 L215 367 Q146 196 70 106 Q62 131 33 174 Q139 291 205 487 L52 487 L52 557 L215 557 L215 708 Q150 696 69 684 Q63 710 46 742 Q258 774 366 822 L417 765 Q367 745 288 725 L288 557 L412 557 L412 487 L288 487 L288 426 Q346 374 423 289 L379 231 ZM708 149 L708 15 L919 15 L919 -51 L421 -51 L421 15 L635 15 L635 149 L389 149 L389 213 L635 213 L635 333 Q563 325 457 319 Q455 338 437 376 Q722 394 852 433 L901 379 Q819 354 708 342 L708 213 L951 213 L951 149 L708 149 Z" /><glyph glyph-name="uni2F8F" unicode="&#x2f8f;&#x884c;&#xfa08;" d="M923 706 L435 706 L435 776 L923 776 L923 706 ZM339 809 Q236 669 83 561 Q52 606 39 620 Q184 718 268 837 L339 809 ZM378 598 Q335 527 268 447 L268 -79 L194 -79 L194 365 Q130 300 81 261 Q54 299 29 323 Q199 443 309 624 L378 598 ZM952 432 L801 432 L801 19 Q801 -46 757 -62 Q723 -73 569 -73 Q563 -36 545 -1 Q659 -4 701 -2 Q726 -1 726 20 L726 432 L392 432 L392 503 L952 503 L952 432 Z" /><glyph glyph-name="uni88C5" unicode="&#x88c5;" d="M628 634 L390 634 L390 700 L628 700 L628 837 L702 837 L702 700 L947 700 L947 634 L702 634 L702 476 L917 476 L917 411 L421 411 L421 476 L628 476 L628 634 ZM340 370 L271 370 L271 837 L340 837 L340 370 ZM193 632 Q155 682 72 739 L117 781 Q203 726 240 679 L193 632 ZM259 512 Q143 458 66 423 L40 484 Q117 514 244 573 L259 512 ZM891 191 Q813 137 707 89 Q814 11 961 -19 Q936 -43 917 -80 Q617 -6 494 247 L492 247 Q431 193 346 151 L346 19 L575 50 L578 -12 Q279 -55 170 -69 L157 -5 L276 10 L276 119 Q183 79 83 57 Q68 85 41 112 Q254 151 397 247 L55 247 L55 306 L461 306 L461 386 L535 386 L535 306 L946 306 L946 247 L566 247 Q605 178 662 126 Q761 175 837 230 L891 191 Z" /><glyph glyph-name="uni89C6" unicode="&#x89c6;" d="M523 260 L451 260 L451 788 L904 788 L904 260 L830 260 L830 722 L523 722 L523 260 ZM249 671 Q216 737 157 801 L214 834 Q279 771 309 709 L249 671 ZM360 220 Q326 271 263 352 L263 -76 L192 -76 L192 311 Q133 247 76 205 Q63 252 43 277 Q215 394 308 597 L67 597 L67 665 L344 665 L358 668 L398 641 Q356 528 282 422 Q317 383 407 279 L360 220 ZM856 -5 Q881 -5 889 26 Q896 55 900 164 Q925 144 961 135 Q954 13 937 -22 Q917 -62 855 -62 L764 -62 Q712 -62 691 -44 Q669 -26 669 22 L669 213 Q599 27 402 -78 Q387 -47 355 -22 Q524 65 590 206 Q636 304 636 452 L636 646 L708 646 L708 450 Q708 357 688 276 L738 276 L738 30 Q738 9 746 2 Q753 -5 775 -5 L856 -5 Z" /><glyph glyph-name="uni8BA1" unicode="&#x8ba1;" d="M297 615 Q244 684 140 771 L188 819 Q293 735 347 670 L297 615 ZM404 182 Q408 167 428 117 Q218 -32 198 -58 Q186 -23 159 10 Q207 43 207 93 L207 451 L50 451 L50 524 L282 524 L282 100 L404 182 ZM956 431 L703 431 L703 -77 L626 -77 L626 431 L372 431 L372 506 L626 506 L626 833 L703 833 L703 506 L956 506 L956 431 Z" /><glyph glyph-name="uni8BA4" unicode="&#x8ba4;" d="M295 623 Q251 674 145 771 L195 817 Q307 721 347 677 L295 623 ZM413 197 Q423 160 436 135 Q221 -16 204 -37 Q191 -8 164 17 Q218 55 218 112 L218 453 L50 453 L50 524 L290 524 L290 115 L413 197 ZM696 836 Q694 613 688 530 Q748 116 965 -21 Q932 -43 910 -76 Q738 41 662 328 Q609 52 430 -78 Q404 -44 373 -25 Q540 91 591 345 Q620 487 622 836 L696 836 Z" /><glyph glyph-name="uni8BBE" unicode="&#x8bbe;" d="M561 689 Q561 503 386 419 Q366 452 338 474 Q491 544 491 691 L491 801 L807 801 L807 569 Q807 532 825 532 L894 532 Q921 532 941 537 Q943 502 948 473 Q932 468 895 468 L820 468 Q771 468 753 492 Q737 513 737 571 L737 731 L561 731 L561 689 ZM276 617 Q222 687 124 773 L172 818 Q274 735 326 670 L276 617 ZM369 175 Q381 138 396 114 Q198 -32 177 -56 Q162 -19 137 6 Q187 38 187 96 L187 453 L47 453 L47 524 L259 524 L259 96 L369 175 ZM492 328 Q545 216 648 130 Q752 213 804 328 L492 328 ZM898 380 Q843 204 706 88 Q813 18 960 -14 Q934 -39 914 -80 Q758 -42 646 42 Q537 -33 379 -78 Q369 -45 342 -12 Q481 20 589 88 Q484 186 422 323 L436 328 L385 328 L385 398 L839 398 L852 401 L898 380 Z" /><glyph glyph-name="uni8BC1" unicode="&#x8bc1;" d="M259 613 Q210 678 105 765 L154 810 Q265 722 310 664 L259 613 ZM366 189 Q378 155 396 125 Q200 -26 184 -49 Q160 -15 137 1 Q193 49 193 108 L193 453 L53 453 L53 524 L265 524 L265 112 L366 189 ZM957 32 L957 -38 L353 -38 L353 32 L439 32 L439 511 L512 511 L512 32 L646 32 L646 690 L388 690 L388 760 L937 760 L937 690 L721 690 L721 430 L918 430 L918 360 L721 360 L721 32 L957 32 Z" /><glyph glyph-name="uni8DEF" unicode="&#x8def;&#xf937;" d="M844 284 Q771 327 696 402 Q627 333 546 284 L844 284 ZM820 27 L820 219 L570 219 L570 27 L820 27 ZM424 298 Q551 352 650 454 Q601 514 558 591 Q519 529 467 476 Q439 504 415 520 L415 490 L300 490 L300 346 L424 346 L424 298 ZM158 555 L346 555 L346 730 L158 730 L158 555 ZM604 670 L594 651 Q635 570 693 501 Q759 582 795 670 L604 670 ZM887 717 Q842 572 741 451 Q844 351 969 304 Q944 281 923 243 L891 257 L891 -72 L820 -72 L820 -39 L570 -39 L570 -75 L501 -75 L501 258 Q481 248 441 230 Q430 253 405 280 L300 280 L300 101 Q400 124 431 132 L438 65 L55 -28 L41 44 L92 55 L92 396 L155 396 L155 68 L232 86 L232 490 L92 490 L92 795 L415 795 L415 530 Q537 646 596 837 L667 820 Q653 778 635 735 L828 735 L841 738 L887 717 Z" /><glyph glyph-name="uni94FE" unicode="&#x94fe;" d="M711 223 L505 223 L505 289 L711 289 L711 424 L620 424 Q560 424 544 410 Q533 452 521 477 Q538 481 567 542 Q589 591 613 665 L505 665 L505 732 L635 732 Q647 774 660 839 L734 825 Q726 794 706 732 L942 732 L942 665 L684 665 Q647 566 608 487 L711 487 L711 606 L782 606 L782 487 L924 487 L924 424 L782 424 L782 289 L949 289 L949 223 L782 223 L782 56 L711 56 L711 223 ZM420 599 Q393 685 341 776 L402 798 Q457 704 484 624 L420 599 ZM149 657 Q119 586 75 528 Q61 563 37 593 Q107 682 140 834 L204 817 Q188 757 175 722 L322 722 L322 657 L149 657 ZM315 132 Q325 99 337 76 Q167 -42 149 -65 Q133 -35 110 -14 Q158 23 158 81 L158 279 L54 279 L54 344 L158 344 L158 482 L96 482 L96 546 L298 546 L298 482 L225 482 L225 344 L328 344 L328 279 L225 279 L225 73 L315 132 ZM476 98 Q473 99 542 55 Q607 15 730 15 Q870 15 965 28 Q950 -18 948 -50 Q842 -56 728 -56 Q605 -56 530 -9 Q462 39 448 39 Q417 39 344 -67 L296 0 Q360 71 408 94 L408 426 L336 426 L336 494 L476 494 L476 98 Z" /><glyph glyph-name="uni5168" unicode="&#x5168;" d="M539 810 Q690 585 962 471 Q929 438 912 406 Q670 520 499 740 Q329 529 87 399 Q73 429 41 459 Q247 555 413 740 L235 740 L235 810 L539 810 ZM535 19 L925 19 L925 -49 L80 -49 L80 19 L459 19 L459 185 L179 185 L179 251 L459 251 L459 404 L222 404 L222 471 L780 471 L780 404 L535 404 L535 251 L819 251 L819 185 L535 185 L535 19 Z" /></font>
</defs>
</svg>
