<?xml version="1.0" standalone="no"?><!DOCTYPE svg PUBLIC "-//W3C//DTD SVG 1.1//EN" "http://www.w3.org/Graphics/SVG/1.1/DTD/svg11.dtd" ><svg xmlns="http://www.w3.org/2000/svg"><metadata></metadata><defs><font id="fonteditor" horiz-adv-x="923"><font-face font-family=" [W]åb?`¦W" font-weight="400" font-stretch="normal" units-per-em="1024" panose-1="0 0 5 0 0 0 0 0 0 0" ascent="1069" descent="-290" x-height="0" bbox="24 -80 907 797" underline-thickness="50" underline-position="-75" unicode-range="U+002b-ff0c" /><missing-glyph horiz-adv-x="260"  /><glyph glyph-name="plus" unicode="+" d="M304 593 L304 406 L498 406 L498 334 L304 334 L304 151 L239 151 L239 334 L52 334 L52 406 L239 406 L239 593 L304 593 Z" /><glyph glyph-name="zero" unicode="0" d="M301 701 Q409 698 461.5 626 Q514 554 521 453 L521 287 Q521 226 508.5 172 Q496 118 467 78.5 Q438 39 393 15.5 Q348 -8 280 -4 Q154 3 107 91 Q60 179 67 287 L67 435 Q71 550 125 629.5 Q179 709 301 701 ZM301 637 Q211 640 173.5 580.5 Q136 521 136 435 Q136 399 134 363 Q132 327 132 287 Q132 205 166.5 140 Q201 75 283 64 Q373 64 414.5 129 Q456 194 449 287 L449 453 Q449 525 413 579 Q377 633 301 637 Z" /><glyph glyph-name="one" unicode="1" d="M132 79 L262 79 L262 615 L165 590 L147 651 L334 705 L334 79 L463 79 L463 14 L132 14 L132 79 Z" /><glyph glyph-name="W" unicode="w" d="M722 698 L585 14 L531 14 L369 410 L207 14 L153 14 L24 701 L89 712 L193 154 L344 518 L398 518 L549 154 L657 712 L722 698 Z" /><glyph glyph-name="uni2F00" unicode="&#x2f00;&#x4e00;" d="M100 437 Q70 437 70 407 L70 405 Q70 375 100 375 L844 375 Q874 375 874 405 L874 407 Q874 437 844 437 L100 437 Z" /><glyph glyph-name="uni2F2F" unicode="&#x2f2f;&#x5de5;" d="M128 753 Q98 753 98 722 L98 720 Q98 690 128 690 L434 690 L434 48 L90 48 Q59 48 59 16 Q59 -14 90 -14 L841 -14 Q872 -14 872 17 Q872 48 841 48 L497 48 L497 690 L803 690 Q833 690 833 720 L833 722 Q833 753 803 753 L128 753 Z" /><glyph glyph-name="uni2F54" unicode="&#x2f54;&#x6c34;" d="M658 422 Q660 423 663 427 L835 601 Q843 610 843 622 Q843 635 834 644 Q814 665 791 644 L626 477 L532 646 Q530 650 527 653 Q525 655 520 657 L520 763 Q520 794 490 794 L488 794 Q458 794 458 763 L458 74 Q458 52 443 37 Q428 22 406 22 L366 22 Q336 22 336 -10 Q336 -40 366 -40 L406 -40 Q431 -40 450 -31 Q493 -12 511 30 Q520 49 520 74 L520 540 L807 30 Q822 2 850 18 Q877 34 860 61 L658 422 ZM130 622 Q99 622 99 591 Q99 561 130 561 L342 561 Q323 486 304 428 Q282 358 256 301 Q226 235 191 181 Q153 121 106 70 Q86 49 107 29 Q118 19 131 19 Q143 19 152 30 Q250 139 317 291 Q347 358 370 436 Q392 508 408 586 Q410 600 401 611 Q393 622 378 622 L130 622 Z" /><glyph glyph-name="uni2F8F" unicode="&#x2f8f;&#x884c;" d="M419 520 Q389 520 389 489 Q389 458 419 458 L756 458 L756 70 Q756 48 741 33 Q725 16 704 16 L613 16 Q583 16 583 -13 L583 -15 Q583 -46 613 -46 L704 -46 Q729 -46 749 -37 Q793 -18 809 25 Q819 45 819 70 L819 458 L877 458 Q907 458 907 490 Q907 520 877 520 L419 520 ZM246 -12 Q246 -43 276 -43 L278 -43 Q290 -43 299 -34 Q307 -26 307 -12 L308 475 Q308 493 292 502 Q276 511 260 500 L95 380 Q69 361 87 338 L88 336 Q105 313 131 330 L246 414 L246 -12 ZM462 754 Q432 754 432 724 L432 722 Q432 691 462 691 L862 691 Q893 691 893 722 L893 724 Q893 754 862 754 L462 754 ZM355 724 Q377 741 361 766 L360 767 Q341 793 317 774 L95 613 Q69 595 87 571 L88 570 Q105 546 131 564 L355 724 Z" /><glyph glyph-name="uni2FBC" unicode="&#x2fbc;&#x9ad8;" d="M786 550 Q786 585 763 609 Q736 632 704 632 L231 632 Q199 632 172 609 Q148 583 148 550 L148 496 Q148 482 154 465 Q178 414 231 414 L704 414 Q757 414 779 465 Q786 477 786 496 L786 550 ZM723 186 Q723 221 697 242 Q673 267 638 267 L307 267 Q272 267 248 242 Q224 221 224 186 L224 115 Q224 81 248 57 Q272 34 307 34 L638 34 Q673 34 697 57 Q723 80 723 115 L723 186 ZM88 -13 Q88 -44 119 -44 L121 -44 Q150 -44 150 -13 L150 259 Q150 280 166 296 Q181 311 202 311 L742 311 Q765 311 780 296 Q796 281 796 259 L796 74 Q796 51 780 36 Q763 21 742 21 L733 21 Q702 21 702 -11 Q702 -42 733 -42 L742 -42 Q766 -42 787 -33 Q830 -12 849 29 Q857 50 857 74 L857 259 Q857 281 849 304 Q828 346 787 364 Q766 374 742 374 L202 374 Q182 374 158 364 Q116 346 97 304 Q88 282 88 259 L88 -13 ZM841 673 Q872 673 872 703 L872 705 Q872 736 841 736 L499 736 L499 763 Q499 793 468 793 L466 793 Q436 793 436 763 L436 736 L94 736 Q63 736 63 705 L63 703 Q63 673 94 673 L841 673 ZM724 496 Q724 476 704 476 L231 476 Q211 476 211 496 L211 550 Q211 571 231 571 L704 571 Q724 571 724 550 L724 496 ZM660 115 Q660 95 638 95 L307 95 Q285 95 285 115 L285 186 Q285 205 307 205 L638 205 Q660 205 660 186 L660 115 Z" /><glyph glyph-name="uni4E0A" unicode="&#x4e0a;" d="M421 56 L421 525 L809 525 Q840 525 840 556 Q840 587 809 587 L421 587 L421 745 Q421 775 391 775 L388 775 Q357 775 357 745 L357 56 L94 56 Q63 56 63 25 Q63 -5 94 -5 L841 -5 Q872 -5 872 26 Q872 56 841 56 L421 56 Z" /><glyph glyph-name="uni4E1A" unicode="&#x4e1a;" d="M609 47 L609 743 Q609 773 579 773 L577 773 Q546 773 546 743 L546 47 L381 47 L381 743 Q381 773 350 773 Q320 773 320 743 L320 47 L94 47 Q63 47 63 16 L63 14 Q63 -16 94 -16 L839 -16 Q869 -16 869 14 L869 16 Q869 47 839 47 L609 47 ZM844 682 Q850 714 819 718 L816 718 Q788 723 782 693 Q760 554 723 414 Q689 283 639 176 Q626 151 654 136 Q664 131 678 133 Q691 141 695 151 Q746 260 782 398 Q816 528 844 682 ZM149 695 Q142 726 111 719 Q81 712 87 684 L192 166 Q198 138 230 142 Q259 150 252 178 L149 695 Z" /><glyph glyph-name="uni4E24" unicode="&#x4e24;" d="M650 462 Q653 486 653 509 L746 509 Q768 509 783 493 Q799 478 799 456 L799 88 Q799 65 783 50 Q768 34 746 34 L714 34 Q684 34 684 5 L684 3 Q684 -28 714 -28 L746 -28 Q771 -28 791 -18 Q861 12 861 88 L861 456 Q861 529 791 562 Q771 571 746 571 L653 571 L654 697 L841 697 Q871 697 871 728 Q871 759 841 759 L96 759 Q66 759 66 727 Q66 697 96 697 L283 697 L283 571 L190 571 Q166 571 145 562 Q74 530 74 456 L74 9 Q74 -21 105 -21 L107 -21 Q137 -21 137 9 L137 456 Q137 478 152 493 Q166 509 190 509 L283 509 Q281 407 247 323 Q214 250 161 195 Q141 175 159 153 Q170 142 182 142 Q195 142 204 151 Q269 216 303 300 Q318 333 328 375 L403 239 Q411 228 422 224 Q434 221 446 228 Q471 241 458 269 L344 474 Q346 496 346 509 L591 509 Q589 408 555 324 Q522 247 469 195 Q449 175 467 153 Q478 142 491 142 Q501 142 513 151 Q579 217 612 300 Q620 319 630 355 L721 164 Q727 152 737 150 Q747 145 761 150 L762 151 Q789 164 777 191 L650 462 ZM346 697 L591 697 L591 571 L346 571 L346 697 Z" /><glyph glyph-name="uni4E60" unicode="&#x4e60;" d="M132 125 Q105 118 112 90 Q114 76 124 70 Q135 63 149 66 Q271 96 385 141 Q507 187 608 249 Q635 264 618 292 L617 293 Q600 316 575 303 Q475 241 362 197 Q303 176 249 159 Q189 140 132 125 ZM142 512 Q112 512 112 483 L112 480 Q112 450 142 450 L587 450 Q618 450 618 480 L618 483 Q618 512 587 512 L142 512 ZM619 34 Q589 34 589 3 Q589 -28 619 -28 L749 -28 Q775 -28 794 -18 Q864 14 864 88 L864 630 Q864 706 794 736 Q772 746 749 746 L105 746 Q75 746 75 717 L75 715 Q75 684 105 684 L749 684 Q771 684 786 668 Q802 653 802 630 L802 88 Q802 67 786 51 Q771 34 749 34 L619 34 Z" /><glyph glyph-name="uni4E8B" unicode="&#x4e8b;" d="M503 730 L503 748 Q503 779 472 779 Q442 779 442 748 L442 730 L93 730 Q62 730 62 699 Q62 668 93 668 L442 668 L442 615 L150 615 Q123 615 104 595 Q84 576 84 550 L84 498 Q84 471 104 453 Q125 433 150 433 L442 433 L442 391 L114 391 Q84 391 84 359 Q84 330 114 330 L442 330 L442 269 L93 269 Q62 269 62 238 Q62 207 93 207 L442 207 L442 151 L114 151 Q84 151 84 121 L84 119 Q84 89 114 89 L442 88 Q442 68 426 51 Q411 35 389 35 L274 35 Q244 35 244 5 L244 3 Q244 -28 274 -28 L389 -28 Q410 -28 433 -18 Q477 2 494 43 Q503 61 503 89 L753 89 Q788 89 811 114 Q835 140 835 169 L835 207 L843 207 Q874 207 874 239 Q874 269 843 269 L835 269 L835 309 Q835 341 811 367 Q785 391 753 391 L503 391 L503 433 L771 433 Q797 433 816 453 Q835 470 835 498 L835 550 Q835 577 816 595 Q799 615 771 615 L503 615 L503 668 L843 668 Q874 668 874 700 Q874 730 843 730 L503 730 ZM147 550 Q147 552 150 552 L442 552 L442 496 L150 496 Q147 496 147 498 L147 550 ZM773 269 L503 269 L503 330 L753 330 Q773 330 773 309 L773 269 ZM774 498 Q774 496 771 496 L503 496 L503 552 L771 552 Q774 552 774 550 L774 498 ZM503 151 L503 207 L773 207 L773 169 Q773 161 767 158 Q763 151 753 151 L503 151 Z" /><glyph glyph-name="uni4EA4" unicode="&#x4ea4;" d="M272 565 Q287 592 260 606 L259 607 Q231 620 218 594 Q154 478 77 395 Q56 376 78 353 L79 352 Q88 343 101 343 Q114 343 122 353 Q166 400 201 451 L450 259 Q349 175 240 111 Q166 68 82 34 Q55 22 65 -5 L66 -7 Q76 -37 106 -25 Q189 9 270 55 Q389 126 500 219 L812 -23 Q836 -40 855 -18 L856 -16 Q874 7 850 27 L548 261 Q581 292 614 324 Q644 353 678 390 Q703 417 739 458 L801 357 Q815 332 842 347 L844 348 Q870 364 855 390 L731 592 Q716 618 689 602 Q664 583 678 560 L705 513 L638 438 Q605 401 574 371 Q542 339 498 300 L238 502 Q236 502 236 502 L272 565 ZM500 713 L500 755 Q500 785 470 785 L468 785 Q437 785 437 755 L437 713 L84 713 Q54 713 54 681 Q54 650 84 650 L853 650 Q884 650 884 682 Q884 713 853 713 L500 713 Z" /><glyph glyph-name="uni4EAB" unicode="&#x4eab;" d="M830 537 Q830 563 811 582 Q792 601 765 601 L155 601 Q127 601 109 582 Q89 563 89 537 L89 463 Q89 436 109 418 Q128 398 155 398 L765 398 Q791 398 811 418 Q830 436 830 463 L830 537 ZM333 23 Q302 23 302 -8 L302 -10 Q302 -40 333 -40 L456 -40 Q476 -40 494 -32 Q554 -3 554 66 L554 108 Q553 110 554 111 L843 111 Q874 111 874 143 Q874 174 843 174 L637 174 Q704 220 764 279 Q778 295 771 313 Q763 332 742 332 L129 332 Q99 332 99 302 L99 300 Q99 269 129 269 L661 269 Q592 213 511 174 L81 174 Q50 174 50 142 Q50 111 81 111 L491 111 L491 66 Q491 45 480 34 Q472 23 456 23 L333 23 ZM501 729 L501 754 Q501 784 470 784 Q439 784 439 754 L439 729 L88 729 Q57 729 57 698 Q57 668 88 668 L849 668 Q880 668 880 699 Q880 729 849 729 L501 729 ZM767 463 Q767 461 765 461 L155 461 Q151 461 151 463 L151 537 Q151 538 155 538 L765 538 Q767 538 767 537 L767 463 Z" /><glyph glyph-name="uni4ECB" unicode="&#x4ecb;" d="M735 404 Q735 434 703 434 Q673 434 673 404 L673 -4 Q673 -35 704 -35 Q735 -35 735 -4 L735 404 ZM291 404 Q291 434 260 434 Q230 434 230 404 L230 257 Q230 167 188 113 Q156 68 100 41 Q76 28 87 2 L87 0 Q90 -10 104 -16 Q118 -21 129 -14 Q197 17 240 78 Q291 146 291 257 L291 404 ZM100 499 Q82 473 108 456 Q134 438 151 462 L284 650 L294 663 Q302 673 317 683 Q341 700 378 700 L583 700 Q623 700 644 683 Q665 665 686 637 L811 462 Q829 439 853 456 L854 457 Q878 473 862 499 L739 671 Q721 697 710 709 Q678 745 636 757 Q616 763 583 763 L378 763 Q347 763 324 757 Q281 745 251 709 Q234 689 224 671 L100 499 Z" /><glyph glyph-name="uni4EE3" unicode="&#x4ee3;" d="M593 525 Q586 547 581 574 L563 664 L547 754 Q543 765 532 773 Q523 780 509 777 Q479 772 486 743 Q501 651 522 554 L530 516 L318 490 Q287 485 291 456 L291 454 Q296 423 325 427 L547 455 Q566 387 583 340 Q620 240 684 138 Q740 50 820 -23 Q829 -31 840 -30 Q856 -30 862 -20 L864 -18 Q883 4 861 24 Q790 88 735 175 Q678 266 640 368 Q622 415 608 463 L874 497 Q905 502 901 532 L901 535 Q897 564 866 560 L593 525 ZM96 606 Q74 584 96 563 L97 562 Q117 539 139 562 L195 618 L195 -11 Q195 -40 226 -40 Q257 -40 257 -11 L257 695 Q257 717 239 724 Q219 731 206 717 L96 606 ZM830 727 Q830 756 800 756 Q769 756 769 727 L769 657 Q769 627 800 627 Q830 627 830 657 L830 727 Z" /><glyph glyph-name="uni4F01" unicode="&#x4f01;" d="M511 358 L511 548 Q511 579 480 579 L478 579 Q449 579 449 548 L449 42 L245 42 L245 382 Q245 412 215 412 L212 412 Q182 412 182 382 L182 42 L100 42 Q70 42 70 11 L70 9 Q70 -21 100 -21 L843 -21 Q874 -21 874 9 L874 11 Q874 42 843 42 L511 42 L511 296 L793 296 Q823 296 823 326 L823 329 Q823 358 793 358 L511 358 ZM69 524 Q62 514 63 501 Q64 489 75 480 Q98 462 118 485 L247 648 Q270 676 295 692 Q320 708 361 708 L579 708 Q622 708 649 692 Q670 677 694 648 L825 485 Q843 461 868 480 Q892 499 874 524 L742 686 Q736 695 727 705 L711 722 Q698 735 676 747 Q637 771 579 771 L361 771 Q329 771 307 764 Q265 754 230 722 Q211 703 199 686 L69 524 Z" /><glyph glyph-name="uni4F5C" unicode="&#x4f5c;" d="M537 119 L854 119 Q884 119 884 151 Q884 181 854 181 L537 181 L537 376 L854 376 Q884 376 884 407 L884 409 Q884 439 854 439 L537 439 L537 605 L873 605 Q904 605 904 636 L904 638 Q904 668 873 668 L431 668 L449 712 L453 719 Q465 746 439 760 L438 761 Q409 772 397 745 L351 648 Q344 633 352 619 Q362 605 378 605 L476 605 L476 -7 Q476 -38 505 -38 L507 -38 Q537 -38 537 -7 L537 119 ZM91 585 Q70 565 91 542 L92 541 Q114 521 134 541 L202 603 L202 -5 Q202 -36 233 -36 Q264 -36 264 -5 L264 682 Q264 701 246 709 Q226 718 212 702 L91 585 Z" /><glyph glyph-name="uni4F60" unicode="&#x4f60;" d="M808 443 Q802 473 772 466 L770 466 Q742 460 747 431 L826 9 Q829 -2 839 -10 Q849 -16 863 -13 Q892 -8 886 22 L808 443 ZM466 420 Q471 450 439 452 L437 452 Q408 454 406 424 Q396 307 376 199 Q359 103 335 8 Q327 -21 356 -29 L358 -30 Q387 -37 396 -8 L418 87 Q429 139 438 187 Q456 289 466 420 ZM525 27 Q494 27 494 -3 L494 -6 Q494 -37 525 -37 L534 -37 Q556 -37 579 -28 Q620 -10 641 34 Q650 54 650 79 L650 529 Q650 560 619 560 L617 560 Q588 560 588 529 L588 79 Q588 56 571 42 Q557 27 534 27 L525 27 ZM477 743 Q486 772 458 782 L456 783 Q427 793 417 765 L380 664 Q374 649 384 637 Q395 623 408 623 L807 623 L780 565 Q768 538 795 524 L797 524 Q824 511 837 538 L884 643 Q890 657 882 672 Q873 686 858 686 L454 686 L477 743 ZM103 637 Q81 616 102 592 Q111 583 124 583 Q137 583 145 592 L208 648 L208 -6 Q208 -37 237 -37 L240 -37 Q270 -37 270 -6 L270 724 Q270 744 252 753 Q233 760 219 745 L103 637 Z" /><glyph glyph-name="uni50CF" unicode="&#x50cf;" d="M462 741 Q473 771 445 780 L444 781 Q418 792 405 765 L380 705 Q374 691 383 678 Q392 664 408 664 L769 664 L748 611 L389 611 Q364 611 343 592 Q325 573 325 547 L325 485 Q325 460 343 439 Q362 421 389 421 L529 421 Q502 388 463 365 Q423 340 361 320 Q332 312 340 283 L341 281 Q343 269 356 263 Q367 256 379 260 L426 277 Q458 291 481 304 L604 304 Q605 304 607 302 L605 301 Q604 301 604 300 Q548 262 478 227 Q403 191 332 171 Q302 163 310 136 L310 133 Q317 104 348 112 Q435 134 506 170 Q563 200 613 232 L613 181 Q589 160 559 140 Q523 115 495 99 Q422 61 331 35 Q301 27 309 -2 Q316 -33 347 -25 Q448 3 526 45 Q568 68 613 100 Q613 78 605 61 Q601 48 590 37 Q586 34 580 31 Q576 27 571 25 Q546 16 554 -11 Q557 -24 568 -31 Q579 -37 594 -34 L601 -31 Q622 -23 637 -8 Q654 7 665 33 Q675 59 675 100 L676 215 L836 5 Q855 -20 879 -2 Q904 16 885 42 L762 202 L872 285 Q897 304 877 326 L877 328 Q858 352 835 334 L724 251 L669 323 Q649 365 604 365 L562 365 L564 367 Q580 384 597 408 Q602 415 603 421 L822 421 Q850 421 867 439 Q886 459 886 485 L886 547 Q886 574 867 592 Q848 611 822 611 L815 611 L844 684 Q850 698 840 713 Q832 726 816 726 L456 726 L462 741 ZM91 542 Q73 517 99 500 L100 499 Q110 492 123 494 Q136 497 142 507 L206 594 L206 -12 Q206 -43 237 -43 Q267 -43 267 -12 L267 697 Q267 718 246 726 Q225 732 212 715 L91 542 ZM825 485 Q825 484 822 484 L637 484 L637 548 L822 548 Q825 548 825 547 L825 485 ZM387 547 Q387 548 389 548 L574 548 L574 484 L389 484 Q387 484 387 485 L387 547 Z" /><glyph glyph-name="uni51B3" unicode="&#x51b3;" d="M817 341 L817 551 Q817 572 808 597 Q789 639 745 658 Q726 666 701 666 L586 666 L587 754 Q587 784 555 784 Q524 784 524 754 L523 666 L367 666 Q336 666 336 637 L336 635 Q336 604 367 604 L523 604 L523 440 Q523 385 516 341 L314 341 Q284 341 284 311 L284 309 Q284 278 314 278 L502 278 Q488 236 470 204 Q442 151 392 99 Q352 57 292 18 Q268 3 283 -22 L284 -24 Q289 -33 304 -38 Q313 -40 327 -34 Q362 -9 387 10 Q418 34 439 56 Q493 112 526 175 Q555 225 566 278 L604 278 L820 -24 Q828 -35 841 -35 Q853 -38 862 -30 L864 -29 Q889 -11 871 14 L682 278 L861 278 Q891 278 891 309 L891 311 Q891 341 861 341 L817 341 ZM586 604 L701 604 Q724 604 739 588 Q754 574 754 551 L754 341 L579 341 Q586 393 586 440 L586 604 ZM215 348 Q223 376 195 386 L192 386 Q162 395 155 365 L63 40 Q55 8 86 2 L88 2 Q115 -7 124 24 L215 348 ZM184 699 Q184 729 153 729 Q123 729 123 699 L123 592 Q123 563 154 563 Q184 563 184 592 L184 699 Z" /><glyph glyph-name="uni51C6" unicode="&#x51c6;" d="M668 697 L668 759 Q668 790 636 790 Q605 790 605 759 L605 697 L381 697 L381 720 Q381 743 359 750 Q337 756 325 737 L214 574 Q198 548 222 532 L225 530 Q233 524 248 526 Q260 529 267 539 L319 615 L319 -11 Q319 -42 350 -42 Q381 -42 381 -11 L861 -11 Q892 -11 892 18 L892 21 Q892 51 861 51 L668 51 L668 193 L861 193 Q892 193 892 223 L892 225 Q892 256 861 256 L668 256 L668 410 L861 410 Q892 410 892 440 Q892 471 861 471 L668 471 L668 635 L861 635 Q892 635 892 664 L892 666 Q892 697 861 697 L668 697 ZM381 635 L605 635 L605 471 L381 471 L381 635 ZM381 410 L605 410 L605 256 L381 256 L381 410 ZM381 193 L605 193 L605 51 L381 51 L381 193 ZM213 367 Q222 395 193 404 L190 404 Q163 412 153 384 L61 57 Q54 30 83 19 L85 19 Q115 12 122 41 L213 367 ZM168 717 Q168 746 138 746 L136 746 Q105 746 105 717 L105 610 Q105 580 136 580 L138 580 Q168 580 168 610 L168 717 Z" /><glyph glyph-name="uni5206" unicode="&#x5206;" d="M666 19 Q636 19 636 -12 Q636 -43 666 -43 L732 -43 Q753 -43 777 -34 Q819 -13 837 28 Q846 47 846 73 L846 331 Q846 357 837 376 Q819 420 777 438 Q753 448 732 448 L207 448 Q177 448 177 417 L177 415 Q177 385 207 385 L309 385 Q288 277 240 184 Q192 88 123 22 Q102 2 120 -20 Q130 -31 143 -32 Q157 -32 166 -24 Q244 51 299 162 Q354 270 372 381 L372 385 L732 385 Q753 385 769 369 Q784 353 784 331 L784 73 Q784 51 769 35 Q753 19 732 19 L666 19 ZM326 741 Q330 754 324 764 Q320 775 305 780 Q276 789 267 760 Q252 716 241 691 Q191 573 97 485 Q75 463 95 443 Q103 432 116 430 Q130 430 139 439 Q267 560 326 741 ZM703 770 Q686 797 661 780 L658 779 Q634 763 650 736 L830 451 Q845 425 872 441 L873 443 Q897 457 882 484 L703 770 Z" /><glyph glyph-name="uni5316" unicode="&#x5316;" d="M856 -42 Q886 -42 886 -11 Q886 19 856 19 L671 19 Q649 19 634 35 Q617 52 617 73 L617 416 L656 444 Q695 472 724 496 Q760 523 789 547 Q836 586 879 624 Q890 633 890 646 Q891 658 882 668 L881 669 Q862 691 839 671 Q792 628 751 594 Q687 542 621 493 Q618 492 617 492 L617 762 Q617 792 587 792 Q556 792 556 762 L556 448 L478 397 Q450 380 417 361 Q391 347 356 329 Q328 314 342 289 L342 286 Q355 259 383 273 Q441 302 509 344 L556 374 L556 73 Q556 47 565 28 Q584 -15 627 -33 Q645 -42 671 -42 L856 -42 ZM85 592 Q66 568 89 549 L91 548 Q114 530 133 554 L201 637 L201 -11 Q201 -42 231 -42 Q262 -42 262 -11 L262 733 Q262 756 242 762 Q221 770 208 752 L85 592 Z" /><glyph glyph-name="uni533A" unicode="&#x533a;" d="M840 -43 Q868 -43 868 -11 Q868 18 840 18 L191 18 Q168 18 153 34 Q137 52 137 72 L137 660 Q137 681 153 696 Q168 713 191 713 L840 713 Q868 713 868 742 L868 744 Q868 774 840 774 L191 774 Q114 774 85 704 Q76 686 76 660 L76 72 Q76 46 85 28 Q100 -15 146 -34 Q165 -43 191 -43 L840 -43 ZM774 583 Q780 594 778 608 Q776 620 764 626 L763 628 Q735 642 722 618 Q647 500 546 398 L338 600 Q316 619 296 599 L293 595 Q285 588 285 574 Q285 562 294 552 L500 355 Q440 300 369 249 Q302 201 225 156 Q197 142 213 114 Q229 88 256 103 Q419 196 546 311 L763 105 Q785 84 805 106 L807 107 Q816 116 815 129 Q815 142 806 150 L591 355 Q695 461 774 583 Z" /><glyph glyph-name="uni53D8" unicode="&#x53d8;" d="M148 342 Q117 342 117 311 Q117 280 148 280 L686 280 Q647 241 594 205 Q546 172 484 143 L200 242 Q171 254 160 223 Q151 195 180 184 L403 106 Q334 79 259 57 Q188 37 117 24 Q88 18 92 -11 Q97 -43 128 -37 Q228 -16 312 9 Q407 39 487 77 L803 -33 Q830 -43 841 -14 L842 -12 Q850 15 823 25 L562 116 Q635 158 696 210 Q736 244 781 292 Q795 306 786 323 Q778 342 759 342 L148 342 ZM320 655 L320 401 Q320 372 351 372 Q382 372 382 401 L382 655 L552 655 L552 401 Q552 372 583 372 Q614 372 614 401 L614 655 L839 655 Q869 655 869 686 Q869 717 839 717 L498 717 L498 763 Q498 793 468 793 L466 793 Q436 793 436 763 L436 717 L95 717 Q65 717 65 685 Q65 655 95 655 L320 655 ZM778 402 Q788 375 817 385 L819 385 Q848 396 837 424 L774 599 Q764 626 736 617 L733 616 Q705 606 714 577 L778 402 ZM96 426 Q84 398 109 386 L110 385 Q123 379 134 382 Q148 386 152 397 Q194 482 214 581 Q216 592 209 604 Q203 614 189 617 Q160 621 153 592 Q145 547 129 504 Q116 466 96 426 Z" /><glyph glyph-name="uni53EA" unicode="&#x53ea;" d="M829 -18 Q842 -46 870 -33 Q897 -18 885 7 L775 248 Q761 274 734 262 L731 261 Q704 249 717 221 L829 -18 ZM82 13 Q65 -11 91 -29 Q100 -36 113 -33 Q126 -32 133 -20 Q171 37 199 98 Q230 164 246 229 Q249 241 243 252 Q236 263 223 266 L221 267 Q191 272 186 244 Q171 183 144 124 Q112 60 82 13 ZM710 320 Q730 320 755 330 Q797 349 816 391 Q825 411 825 436 L825 654 Q825 678 816 699 Q797 741 755 760 Q734 769 710 769 L253 769 Q229 769 208 760 Q166 741 147 699 Q138 678 138 654 L138 436 Q138 411 147 391 Q166 349 208 330 Q233 320 253 320 L710 320 ZM253 383 Q230 383 217 398 Q200 415 200 436 L200 654 Q200 676 217 691 Q231 707 253 707 L710 707 Q730 707 748 691 Q762 676 762 654 L762 436 Q762 414 748 398 Q731 383 710 383 L253 383 Z" /><glyph glyph-name="uni5408" unicode="&#x5408;" d="M130 70 Q130 50 139 25 Q160 -17 201 -36 Q224 -45 246 -45 L720 -45 Q742 -45 765 -36 Q807 -17 827 25 Q836 50 836 70 L836 223 Q836 245 827 268 Q808 312 765 331 Q742 340 720 340 L246 340 Q224 340 201 331 Q159 312 139 268 Q130 245 130 223 L130 70 ZM193 223 Q193 247 208 262 Q222 277 246 277 L720 277 Q744 277 759 262 Q774 247 774 223 L774 70 Q774 47 759 33 Q744 17 720 17 L246 17 Q222 17 208 33 Q193 47 193 70 L193 223 ZM733 446 Q763 446 763 476 Q763 507 733 507 L235 507 Q204 507 204 475 Q204 446 235 446 L733 446 ZM75 429 Q61 401 89 388 L90 387 Q119 375 131 402 L257 666 Q272 691 296 704 Q320 718 361 718 L606 718 Q683 718 708 666 L835 402 Q849 375 876 387 L877 388 Q905 401 891 429 L764 693 Q743 738 706 759 Q668 781 606 781 L361 781 Q300 781 262 759 Q223 737 203 693 L75 429 Z" /><glyph glyph-name="uni540D" unicode="&#x540d;" d="M110 72 Q110 51 119 26 Q137 -16 179 -35 Q204 -44 224 -44 L743 -44 Q765 -44 788 -35 Q832 -16 849 26 Q858 47 858 72 L858 167 Q858 193 849 213 Q833 254 788 274 Q765 283 743 283 L224 283 Q204 283 179 274 Q136 254 119 213 Q110 189 110 167 L110 72 ZM172 167 Q172 190 187 205 Q203 221 224 221 L743 221 Q765 221 780 205 Q797 189 797 167 L797 72 Q797 49 780 34 Q766 18 743 18 L224 18 Q202 18 187 34 Q172 48 172 72 L172 167 ZM618 475 Q649 475 649 507 Q649 538 618 538 L173 538 Q143 538 143 506 Q143 475 173 475 L618 475 ZM227 736 Q239 763 212 777 Q185 790 171 763 L130 681 Q122 664 131 651 Q140 637 158 637 L785 637 Q770 573 747 533 Q716 482 664 453 Q619 429 557 416 Q482 397 371 390 Q324 386 270 385 Q223 384 168 384 L113 384 Q84 384 84 354 L83 352 Q83 322 113 321 L168 321 Q248 321 311 323 Q378 328 429 335 Q473 340 510 347 Q554 355 591 365 Q679 390 729 430 Q774 465 798 505 Q824 546 835 597 Q842 630 848 663 Q851 676 842 688 Q833 699 817 699 L209 699 L227 736 Z" /><glyph glyph-name="uni5A01" unicode="&#x5a01;" d="M804 -17 Q817 -45 846 -31 L846 -29 Q873 -17 859 11 Q812 100 775 209 Q835 330 864 462 Q867 474 860 485 Q853 496 840 498 Q810 505 805 475 Q783 381 747 297 L738 338 Q702 475 683 637 L766 637 Q801 637 823 659 Q846 685 846 718 L846 745 Q846 776 815 776 Q784 776 784 745 L784 718 Q784 709 778 703 Q774 699 766 699 L675 699 L669 755 Q666 784 635 782 Q605 780 607 750 Q608 732 612 699 L225 699 Q202 699 182 689 Q162 681 146 664 Q115 633 110 585 L72 -5 Q72 -36 102 -38 Q131 -40 135 -10 L172 582 Q172 602 189 620 Q204 637 225 637 L619 637 Q648 410 709 215 Q670 141 625 88 Q607 67 628 47 L630 45 Q639 36 653 37 Q665 37 674 48 Q696 74 723 115 L736 137 Q752 94 768 59 Q785 18 804 -17 ZM327 401 L330 428 Q334 458 303 462 L301 462 Q272 464 269 434 L264 401 L243 401 Q213 401 213 371 L213 369 Q213 339 243 339 L258 339 Q258 334 257 329 L254 308 Q253 303 253 298 L253 286 Q252 257 255 234 Q262 196 291 164 Q306 149 330 133 L359 115 Q352 111 344 106 L329 98 Q286 75 242 56 Q215 47 224 17 L225 16 Q230 4 241 -2 Q252 -5 265 -2 Q315 18 368 46 Q399 65 419 80 L545 7 Q571 -8 586 17 L588 19 Q603 45 577 62 L468 124 Q510 172 532 229 Q549 274 555 337 L555 339 L571 339 Q601 339 601 369 L601 371 Q601 401 571 401 L327 401 ZM321 339 L493 339 Q489 294 472 253 Q452 202 416 165 L409 159 L362 187 Q333 205 324 226 Q315 251 315 269 Q315 275 316 292 L321 339 ZM241 564 Q210 564 210 532 Q210 502 241 502 L569 502 Q599 502 599 533 Q599 564 569 564 L241 564 Z" /><glyph glyph-name="uni5B66" unicode="&#x5b66;" d="M181 493 Q151 493 151 462 Q151 431 181 431 L627 431 Q578 345 496 276 L79 276 Q48 276 48 244 Q48 214 79 214 L477 214 L477 74 Q477 22 424 22 L334 22 Q304 22 304 -10 Q304 -40 334 -40 L424 -40 Q470 -40 504 -8 Q540 25 540 74 L540 214 L850 214 Q881 214 881 245 Q881 276 850 276 L586 276 Q650 343 710 448 Q713 455 713 462 Q713 493 683 493 L181 493 ZM64 551 Q64 521 95 521 Q126 521 126 551 L126 569 Q126 622 179 622 L750 622 Q804 622 804 569 L804 551 Q804 521 834 521 L836 521 Q865 521 865 551 L865 569 Q865 662 773 681 L789 750 Q789 773 766 780 L758 781 Q735 781 729 758 L711 690 Q710 687 710 683 L496 683 L496 763 Q496 794 466 794 L464 794 Q433 794 433 763 L433 683 L220 683 Q220 687 219 690 L201 758 Q195 781 171 781 L162 780 Q140 772 140 748 L156 681 Q64 664 64 569 L64 551 Z" /><glyph glyph-name="uni5E74" unicode="&#x5e74;" d="M151 205 L82 205 Q52 205 52 176 L52 174 Q52 143 82 143 L487 143 L487 -20 Q487 -50 516 -50 L518 -50 Q549 -50 549 -20 L549 143 L853 143 Q883 143 883 174 L883 176 Q883 205 853 205 L549 205 L549 447 L832 447 Q862 447 862 476 L862 478 Q862 509 832 509 L549 509 L549 639 L844 639 Q874 639 874 669 L874 671 Q874 701 844 701 L197 701 L210 733 Q214 745 209 758 Q201 776 181 775 Q161 774 154 756 L123 681 Q118 665 127 652 Q136 639 152 639 L487 639 L487 509 L266 509 Q242 509 221 500 Q177 482 161 439 Q151 416 151 394 L151 205 ZM229 431 Q244 447 266 447 L487 447 L487 205 L213 205 L213 394 Q213 416 229 431 Z" /><glyph glyph-name="uni5EA6" unicode="&#x5ea6;" d="M761 570 L761 592 Q761 622 730 622 L728 622 Q698 622 698 592 L698 570 L383 570 L383 592 Q383 622 352 622 L350 622 Q321 622 321 592 L321 570 L251 570 Q221 570 221 540 L221 538 Q221 508 251 508 L321 508 L321 443 Q321 380 381 353 Q400 346 419 346 L663 346 Q702 346 731 375 Q761 403 761 443 L761 508 L832 508 Q862 508 862 538 L862 540 Q862 570 832 570 L761 570 ZM292 314 Q262 314 262 283 Q262 253 292 253 L711 253 Q646 181 562 133 L314 231 Q286 242 275 214 L274 210 Q264 183 292 171 L486 96 Q431 72 364 53 Q305 37 235 25 Q206 17 211 -12 Q215 -44 247 -38 Q332 -23 409 2 Q494 30 564 67 L821 -32 Q850 -45 860 -14 L861 -12 Q871 14 844 26 L632 107 Q734 177 800 268 Q809 282 801 299 Q792 314 774 314 L292 314 ZM822 650 Q853 650 853 682 Q853 713 822 713 L533 713 L533 763 Q533 794 502 794 Q472 794 472 763 L472 713 L224 713 Q200 713 179 702 Q161 694 145 679 Q112 644 109 600 L71 -8 Q69 -21 78 -30 Q85 -38 98 -40 L100 -40 Q131 -42 131 -11 L171 595 Q171 617 188 633 Q202 650 224 650 L822 650 ZM383 508 L698 508 L698 443 Q698 408 663 408 L419 408 Q404 408 393 418 Q383 427 383 443 L383 508 Z" /><glyph glyph-name="uni5EA7" unicode="&#x5ea7;" d="M566 244 L566 601 Q566 631 534 631 Q504 631 504 601 L504 244 L260 244 Q229 244 229 214 Q229 183 260 183 L504 183 L504 30 L237 30 Q207 30 207 -2 Q207 -33 237 -33 L833 -33 Q862 -33 862 -1 Q862 30 833 30 L566 30 L566 183 L810 183 Q840 183 840 214 Q840 244 810 244 L566 244 ZM821 650 Q851 650 851 682 Q851 713 821 713 L533 713 L533 763 Q533 794 503 794 L501 794 Q470 794 470 763 L470 713 L224 713 Q201 713 179 702 Q160 694 145 679 Q111 644 109 600 L69 -7 Q69 -38 99 -39 Q129 -42 131 -11 L170 595 Q171 617 188 633 Q203 650 224 650 L821 650 ZM376 566 Q379 577 370 590 Q361 601 349 602 L347 602 Q318 604 314 576 Q304 511 282 456 Q263 402 229 350 Q214 325 239 310 L240 308 Q252 300 264 304 Q277 306 283 317 Q313 365 337 426 L411 318 Q426 293 452 311 Q479 328 461 351 L372 488 Q367 494 362 497 Q369 528 376 566 ZM764 566 Q766 579 758 590 Q747 601 737 602 L735 602 Q706 604 702 575 Q695 518 671 457 Q650 401 619 350 Q604 324 627 310 L629 308 Q640 300 652 304 Q666 306 671 317 Q703 368 726 425 L798 318 Q814 294 840 310 L841 311 Q866 328 849 351 L759 489 Q758 492 754 493 L749 498 Q758 528 764 566 Z" /><glyph glyph-name="uni6210" unicode="&#x6210;" d="M804 -20 Q812 -29 825 -31 Q837 -34 849 -25 Q872 -6 854 16 Q814 72 775 144 Q758 176 745 201 Q815 280 862 369 Q867 378 864 392 Q861 403 848 412 Q820 423 807 397 Q771 325 717 262 Q680 348 649 445 Q620 534 595 633 L734 633 Q761 633 779 643 Q845 670 848 743 Q849 754 840 765 Q831 774 816 774 Q786 774 786 745 Q784 724 771 710 Q755 694 734 694 L581 694 L566 760 Q560 789 532 783 L530 783 Q500 777 506 746 L517 694 L225 694 Q178 694 144 662 Q113 631 110 583 L70 0 Q66 -29 98 -31 L100 -31 Q130 -33 132 -3 L162 441 L374 441 Q389 441 401 431 Q411 420 411 407 L411 86 Q411 73 401 61 Q389 51 374 51 L328 51 Q297 51 297 21 L297 18 Q297 -11 328 -11 L374 -11 Q397 -11 411 -4 Q473 23 473 86 L473 407 Q473 429 465 445 Q449 480 411 496 Q397 503 374 503 L166 503 L171 579 Q172 601 188 617 Q204 633 225 633 L532 633 Q554 544 578 465 Q603 379 634 304 Q649 265 672 213 Q610 149 530 89 Q505 72 522 47 Q542 21 565 40 Q648 101 700 153 Q747 61 804 -20 Z" /><glyph glyph-name="uni627E" unicode="&#x627e;" d="M824 -26 Q832 -36 845 -38 Q857 -38 868 -29 Q891 -11 872 13 Q799 102 753 210 Q824 282 873 361 Q880 374 877 385 Q874 396 862 405 Q835 418 822 394 Q782 332 727 274 L716 305 Q682 403 665 521 L862 521 Q893 521 893 551 L893 554 Q893 584 862 584 L658 584 Q651 652 651 735 L653 743 Q653 773 621 773 Q591 773 591 744 L591 735 Q591 656 596 584 L485 584 Q455 584 455 554 L455 551 Q455 521 485 521 L603 521 Q621 388 658 283 Q666 259 679 226 Q592 149 488 85 Q462 70 477 43 L479 42 Q493 15 520 32 Q623 92 705 165 Q758 54 824 -26 ZM304 324 L304 585 L406 585 Q437 585 437 616 L437 618 Q437 648 406 648 L304 648 L304 759 Q304 789 274 789 L272 789 Q241 789 241 759 L241 648 L118 648 Q88 648 88 618 L88 616 Q88 585 118 585 L241 585 L241 297 L101 235 Q73 222 86 195 L88 193 Q99 163 127 178 L241 229 L241 75 Q241 52 226 37 Q211 23 189 23 L139 23 Q109 23 109 -8 L109 -10 Q109 -40 139 -40 L189 -40 Q210 -40 233 -32 Q277 -13 295 29 Q304 53 304 75 L304 258 L413 306 Q441 317 430 348 Q416 375 389 362 L304 324 ZM838 733 Q838 763 808 763 Q777 763 777 733 L777 651 Q777 620 808 620 Q838 620 838 651 L838 733 Z" /><glyph glyph-name="uni62E5" unicode="&#x62e5;" d="M358 -9 Q356 -39 389 -41 Q419 -41 421 -11 L427 206 L601 206 L601 -12 Q601 -43 632 -43 Q663 -43 663 -12 L663 206 L827 206 L827 71 Q827 48 812 34 Q797 17 775 17 L759 17 Q729 17 729 -12 L729 -14 Q729 -45 759 -45 L775 -45 Q822 -45 856 -11 Q890 24 890 71 L890 668 Q890 717 856 750 Q822 783 775 783 L496 783 Q472 783 450 775 Q425 761 415 750 Q382 716 380 669 L358 -9 ZM184 605 L184 316 L79 259 Q69 254 64 241 Q60 230 68 217 Q83 189 109 205 L184 246 L184 70 Q184 46 169 33 Q154 16 130 16 L113 16 Q83 16 83 -13 L83 -15 Q83 -46 113 -46 L130 -46 Q178 -46 212 -11 Q246 22 246 70 L246 280 L328 325 Q338 331 343 344 Q345 354 340 368 Q325 394 299 380 L246 351 L246 605 L290 605 Q319 605 319 637 Q319 667 290 667 L246 667 L246 758 Q246 789 216 789 L214 789 Q184 789 184 758 L184 667 L96 667 Q65 667 65 636 Q65 605 96 605 L184 605 ZM601 463 L601 269 L429 269 L435 463 L601 463 ZM663 463 L827 463 L827 269 L663 269 L663 463 ZM827 526 L663 526 L663 722 L775 722 Q798 722 812 706 Q827 691 827 668 L827 526 ZM460 705 Q475 722 496 722 L601 722 L601 526 L437 526 L442 667 Q444 690 460 705 Z" /><glyph glyph-name="uni63A8" unicode="&#x63a8;" d="M711 41 L711 197 L870 197 Q900 197 900 228 L900 230 Q900 260 870 260 L711 260 L711 418 L870 418 Q900 418 900 448 L900 450 Q900 480 870 480 L711 480 L711 643 L870 643 Q900 643 900 674 Q900 704 870 704 L711 704 L711 760 Q711 790 682 790 L680 790 Q649 790 649 760 L649 704 L465 704 L465 716 Q465 737 442 745 Q421 750 409 732 L310 581 Q292 555 320 538 Q345 522 362 547 L403 608 L403 -14 Q403 -45 432 -45 L434 -45 Q457 -45 464 -22 L870 -22 Q900 -22 900 8 L900 10 Q900 41 870 41 L711 41 ZM190 608 L190 322 L90 265 Q64 249 79 223 Q95 195 121 210 L190 250 L190 74 Q190 51 176 36 Q162 21 140 21 L124 21 Q93 21 93 -11 Q93 -42 124 -42 L140 -42 Q160 -42 184 -33 Q225 -13 244 29 Q253 52 253 74 L253 285 L330 330 Q357 344 341 371 L340 372 Q327 396 299 384 L253 357 L253 608 L292 608 Q322 608 322 639 Q322 669 292 669 L253 669 L253 760 Q253 790 223 790 L221 790 Q190 790 190 760 L190 669 L108 669 Q79 669 79 638 Q79 608 108 608 L190 608 ZM465 643 L649 643 L649 480 L465 480 L465 643 ZM465 418 L649 418 L649 260 L465 260 L465 418 ZM649 41 L465 41 L465 197 L649 197 L649 41 Z" /><glyph glyph-name="uni63D0" unicode="&#x63d0;" d="M783 437 Q805 437 821 445 Q881 471 881 535 L881 683 Q881 724 853 754 Q821 781 783 781 L485 781 Q447 781 416 754 Q387 724 387 683 L387 535 Q387 470 448 445 Q464 437 485 437 L783 437 ZM871 -44 Q901 -44 901 -13 L901 -11 Q901 19 871 19 L662 18 L662 156 L860 156 Q890 156 890 187 Q890 218 860 218 L662 218 L662 322 L868 322 Q898 322 898 352 L898 354 Q898 385 868 385 L401 385 Q371 385 371 354 L371 352 Q371 322 401 322 L599 322 L599 25 Q570 30 542 44 Q502 64 473 94 L465 100 Q470 132 473 169 Q475 202 475 240 Q475 271 445 271 L443 271 Q412 271 412 241 Q412 196 409 163 Q406 123 400 90 Q390 44 371 10 Q360 -14 383 -29 L385 -30 Q397 -37 410 -34 Q420 -30 429 -17 L447 25 L448 32 L453 27 Q507 -17 587 -35 Q633 -44 677 -44 L871 -44 ZM189 607 L189 322 L91 265 Q64 249 80 223 L81 222 Q97 195 123 210 L189 249 L189 74 Q189 53 175 36 Q161 22 141 22 L125 22 Q95 22 95 -9 L95 -11 Q95 -41 125 -41 L141 -41 Q187 -41 220 -7 Q251 27 251 74 L251 285 L326 329 Q353 345 336 371 L335 373 Q321 398 294 383 L251 358 L251 607 L289 607 Q320 607 320 637 L320 639 Q320 669 289 669 L251 669 L251 760 Q251 790 220 790 Q189 790 189 760 L189 669 L109 669 Q79 669 79 639 L79 637 Q79 607 109 607 L189 607 ZM819 639 L449 639 L449 683 Q449 700 459 709 Q470 720 485 720 L783 720 Q799 720 809 709 Q819 698 819 683 L819 639 ZM485 499 Q469 499 459 509 Q449 518 449 535 L449 578 L819 578 L819 535 Q819 520 809 509 Q799 499 783 499 L485 499 Z" /><glyph glyph-name="uni6559" unicode="&#x6559;" d="M300 708 L300 760 Q300 790 268 790 Q237 790 237 760 L237 708 L101 708 Q71 708 71 677 Q71 646 101 646 L237 646 L237 530 L83 530 Q52 530 52 499 Q52 468 83 468 L153 468 Q128 401 70 340 Q49 322 68 299 L69 298 Q77 287 89 287 Q104 287 113 297 Q133 317 157 348 L163 346 L360 346 Q349 313 331 282 Q317 260 290 225 Q286 222 286 220 L91 190 Q61 185 67 157 L67 155 Q71 124 100 128 L283 156 L283 53 Q283 37 273 28 Q261 17 247 17 L196 17 Q167 17 167 -13 Q167 -44 196 -44 L247 -44 Q289 -44 318 -15 Q347 15 347 53 L347 165 L462 183 Q493 187 487 218 Q484 249 453 244 L372 232 Q391 261 406 298 Q421 328 435 368 Q440 382 431 395 Q423 409 406 409 L195 409 Q207 435 215 460 Q217 466 217 468 L453 468 Q483 468 483 500 Q483 530 453 530 L431 530 L431 571 Q431 601 401 601 L398 601 Q367 601 367 571 L367 530 L300 530 L300 646 L435 646 Q466 646 466 678 Q466 708 435 708 L300 708 ZM573 740 Q577 771 547 775 L545 775 Q514 781 511 750 L497 664 Q494 651 503 639 Q512 628 526 628 L777 628 Q767 577 752 526 Q740 479 725 433 Q710 390 690 339 L562 565 Q547 591 520 576 Q493 562 509 535 L657 268 L654 260 Q651 254 649 251 Q629 214 607 176 Q586 142 561 109 Q538 79 522 62 Q502 37 483 18 Q463 -3 484 -25 Q494 -34 507 -34 Q519 -34 529 -24 Q574 25 611 72 Q634 104 654 133 Q675 168 694 203 L817 -16 Q831 -43 860 -29 L861 -28 Q886 -12 873 14 L727 270 Q754 326 782 411 Q799 461 812 511 Q826 567 838 623 L839 628 L849 628 Q880 628 880 660 Q880 691 849 691 L566 691 L573 740 Z" /><glyph glyph-name="uni65F6" unicode="&#x65f6;" d="M276 -10 Q298 -10 314 -2 Q374 25 374 88 L374 639 Q374 680 345 708 Q316 737 276 737 L152 737 Q88 737 61 677 Q53 659 53 639 L53 88 Q53 48 82 18 Q111 -10 152 -10 L276 -10 ZM826 695 L826 763 Q826 794 795 794 Q766 794 766 763 L766 695 L441 695 Q412 695 412 663 Q412 633 441 633 L766 633 L766 73 Q766 53 748 37 Q733 22 712 22 L638 22 Q608 22 608 -9 L608 -11 Q608 -41 638 -41 L712 -41 Q786 -41 817 30 Q826 48 826 73 L826 633 L854 633 Q884 633 884 664 Q884 695 854 695 L826 695 ZM116 394 L116 639 Q116 653 126 664 Q135 675 152 675 L276 675 Q291 675 303 664 Q313 653 313 639 L313 394 L116 394 ZM152 52 Q116 52 116 88 L116 332 L313 332 L313 88 Q313 74 303 62 Q289 52 276 52 L152 52 ZM534 479 Q526 507 496 499 Q467 489 475 460 L568 168 Q578 139 607 149 Q637 157 627 187 L534 479 Z" /><glyph glyph-name="uni6709" unicode="&#x6709;" d="M434 737 Q439 748 434 760 Q428 772 417 777 Q388 789 377 761 L349 702 L139 702 Q108 702 108 671 Q108 641 139 641 L319 641 Q251 520 166 424 Q133 388 100 356 Q78 335 98 314 L100 313 Q107 304 121 304 Q135 304 143 312 L177 346 Q197 367 212 383 L223 395 L224 -12 Q224 -43 256 -43 Q286 -43 286 -11 L285 115 L785 115 L785 76 Q785 54 769 39 Q753 24 731 24 L702 24 Q672 24 672 -8 Q672 -38 702 -38 L731 -38 Q758 -38 777 -29 Q820 -11 837 32 Q846 51 846 76 L846 424 Q846 449 837 468 Q807 538 731 538 L330 538 Q360 585 388 641 L869 641 Q899 641 899 672 Q899 702 869 702 L418 702 L434 737 ZM285 357 L285 424 Q285 446 301 460 Q317 475 338 475 L731 475 Q753 475 769 460 Q785 445 785 424 L785 357 L285 357 ZM285 178 L285 295 L785 295 L785 178 L285 178 Z" /><glyph glyph-name="uni6743" unicode="&#x6743;" d="M497 771 Q467 771 467 740 Q467 709 497 709 L782 709 Q761 617 737 537 Q709 449 676 373 L534 630 Q528 642 516 646 Q505 649 492 642 Q466 627 479 601 L645 303 Q567 147 448 25 Q427 2 448 -20 Q460 -29 471 -29 Q481 -29 493 -20 Q601 95 679 239 L820 -14 Q827 -27 838 -29 Q851 -33 863 -26 Q889 -12 875 15 L713 305 Q761 404 794 515 Q826 619 847 736 Q850 750 841 761 Q833 771 818 771 L497 771 ZM273 677 L273 762 Q273 792 243 792 L241 792 Q210 792 210 762 L210 677 L103 677 Q73 677 73 645 Q73 614 103 614 L210 614 L210 -13 Q210 -44 241 -44 L243 -44 Q273 -44 273 -13 L273 614 L380 614 Q410 614 410 646 Q410 677 380 677 L273 677 ZM388 544 Q388 574 357 574 L355 574 Q325 574 325 544 L325 -2 Q325 -32 355 -32 L357 -32 Q388 -32 388 -2 L388 544 ZM163 539 Q163 570 132 570 L130 570 Q100 570 100 539 Q100 388 87 238 Q82 175 75 120 Q69 61 61 9 Q57 -20 86 -24 L89 -25 Q118 -29 124 1 Q131 52 137 111 Q145 165 150 230 Q163 383 163 539 Z" /><glyph glyph-name="uni676F" unicode="&#x676f;" d="M516 692 Q511 485 487 323 Q462 160 426 24 Q418 -7 447 -13 L449 -14 Q478 -23 486 7 Q524 151 549 314 Q575 491 578 692 L627 692 L627 -15 Q627 -46 659 -46 Q690 -46 690 -15 L690 692 L856 692 Q886 692 886 723 L886 725 Q886 755 856 755 L460 755 Q430 755 430 725 L430 723 Q430 692 460 692 L516 692 ZM272 676 L272 762 Q272 792 242 792 L240 792 Q209 792 209 762 L209 676 L108 676 Q77 676 77 645 Q77 614 108 614 L209 614 L209 -14 Q209 -45 240 -45 L242 -45 Q272 -45 272 -14 L272 614 L377 614 Q406 614 406 646 Q406 676 377 676 L272 676 ZM777 583 Q775 599 765 603 Q755 610 741 609 Q711 602 717 573 L823 9 Q829 -21 859 -14 L861 -14 Q891 -9 885 21 L777 583 ZM165 545 Q165 575 134 575 Q103 575 103 545 L103 538 Q103 386 91 239 Q86 180 80 119 Q73 65 64 7 Q59 -21 90 -27 L92 -27 Q124 -32 128 -2 Q142 106 154 232 Q159 307 163 381 Q165 459 165 538 L165 545 ZM385 543 Q385 574 353 574 Q323 574 323 543 L323 -2 Q323 -33 354 -33 Q385 -33 385 -2 L385 543 Z" /><glyph glyph-name="uni6837" unicode="&#x6837;" d="M820 667 L838 745 Q844 777 814 781 L813 782 Q784 790 777 760 L757 672 Q756 670 756 667 L554 667 L554 672 L535 760 Q526 790 498 782 L496 781 Q466 776 474 745 L492 667 L455 667 Q424 667 424 636 Q424 605 455 605 L624 605 L624 421 L467 421 Q436 421 436 389 Q436 358 467 358 L624 358 L624 171 L455 171 Q424 171 424 142 L424 140 Q424 109 455 109 L624 109 L624 -13 Q624 -44 656 -44 Q686 -44 686 -13 L686 109 L856 109 Q886 109 886 140 L886 142 Q886 171 856 171 L686 171 L686 358 L846 358 Q875 358 875 390 Q875 421 846 421 L686 421 L686 605 L856 605 Q886 605 886 637 Q886 667 856 667 L820 667 ZM261 677 L261 762 Q261 792 230 792 L228 792 Q198 792 198 762 L198 677 L100 677 Q71 677 71 645 Q71 614 100 614 L198 614 L198 -14 Q198 -45 228 -45 L230 -45 Q261 -45 261 -14 L261 614 L356 614 Q387 614 387 646 Q387 677 356 677 L261 677 ZM367 543 Q367 574 336 574 Q306 574 306 543 L306 -2 Q306 -33 337 -33 Q367 -33 367 -2 L367 543 ZM148 546 Q148 575 117 575 Q86 575 86 546 Q86 380 77 239 Q74 186 69 120 L58 8 Q55 -22 84 -24 L86 -24 Q117 -29 120 3 Q131 107 139 234 Q148 383 148 546 Z" /><glyph glyph-name="uni6B21" unicode="&#x6b21;" d="M607 538 Q607 551 599 560 Q588 569 576 569 Q547 569 545 539 Q542 449 525 375 Q507 294 470 222 Q433 151 384 104 Q348 66 295 32 Q272 17 285 -9 Q291 -20 304 -24 Q319 -28 328 -20 Q379 12 428 60 Q484 115 523 188 Q556 247 577 323 L825 -12 Q844 -38 867 -20 L870 -18 Q895 0 875 25 L604 393 Q603 395 600 397 L595 402 Q604 468 607 538 ZM432 746 Q436 776 406 782 Q376 789 371 758 L352 663 Q351 647 360 637 Q369 626 381 626 L784 626 L754 518 Q746 490 775 482 L777 482 Q808 473 814 502 L855 651 Q859 664 850 677 Q841 689 825 689 L420 689 L432 746 ZM262 320 Q277 348 247 359 L246 360 Q217 373 207 345 L76 50 Q64 22 91 10 L92 9 Q120 -4 133 25 L262 320 ZM205 696 Q205 727 174 727 L172 727 Q142 727 142 696 L142 537 Q142 506 172 506 L174 506 Q205 506 205 537 L205 696 Z" /><glyph glyph-name="uni6BCF" unicode="&#x6bcf;" d="M677 -42 Q722 -42 757 -10 Q788 25 788 69 L788 237 L845 237 Q875 237 875 269 Q875 300 845 300 L788 300 L788 472 Q788 518 757 550 Q722 583 677 583 L258 583 Q211 583 178 550 Q145 518 145 472 L145 300 L91 300 Q60 300 60 268 Q60 237 91 237 L145 237 L145 69 Q145 23 178 -10 Q211 -42 258 -42 L677 -42 ZM727 300 L208 300 L208 472 Q208 493 222 506 Q238 521 258 521 L677 521 Q698 521 712 506 Q727 493 727 472 L727 300 ZM258 19 Q238 19 222 34 Q208 48 208 69 L208 237 L727 237 L727 69 Q727 48 712 34 Q698 19 677 19 L258 19 ZM226 743 Q237 772 208 783 Q182 797 169 768 L134 687 Q127 672 136 658 Q145 645 162 645 L793 645 Q822 645 822 675 L822 677 Q822 707 793 707 L210 707 L226 743 ZM430 472 Q411 495 388 475 Q378 466 378 454 Q377 443 384 431 L469 334 Q478 323 490 323 Q503 322 511 331 L512 332 Q535 351 515 375 L430 472 ZM430 204 Q412 227 388 207 Q378 198 378 186 Q376 175 384 163 L469 67 Q490 44 511 64 Q522 72 522 85 Q523 96 515 107 L430 204 Z" /><glyph glyph-name="uni6C42" unicode="&#x6c42;" d="M634 339 L830 492 Q855 511 836 535 L835 537 Q816 560 792 540 L596 387 L523 482 Q516 489 509 491 L509 628 L750 628 Q769 628 788 637 Q825 653 840 689 Q848 704 848 727 L848 737 Q848 768 817 768 Q786 768 786 738 L786 727 Q786 709 776 701 Q767 691 750 691 L509 691 L509 763 Q509 793 479 793 L477 793 Q446 793 446 763 L446 691 L107 691 Q76 691 76 661 L76 659 Q76 628 107 628 L446 628 L446 71 Q446 48 433 34 Q417 18 395 18 L354 18 Q324 18 324 -12 Q324 -43 354 -43 L395 -43 Q418 -43 439 -34 Q482 -15 500 27 Q509 50 509 71 L509 398 L805 19 Q812 10 825 8 Q839 7 848 16 Q872 34 854 59 L634 339 ZM392 285 Q400 295 399 307 Q399 317 390 329 L389 330 Q367 349 346 329 L93 64 Q74 42 93 21 L96 18 Q107 10 118 10 Q129 10 138 19 L392 285 ZM150 540 Q128 561 107 539 Q97 529 98 517 Q98 505 108 496 L250 365 Q259 357 272 357 Q286 358 292 367 L293 368 Q302 376 302 390 Q300 403 291 411 L150 540 Z" /><glyph glyph-name="uni6D77" unicode="&#x6d77;" d="M740 -47 Q765 -47 785 -39 Q827 -20 847 23 Q856 47 856 68 L856 241 L870 241 Q901 241 901 272 L901 274 Q901 304 870 304 L856 304 L856 465 Q856 487 847 510 Q828 551 785 572 Q761 581 740 581 L437 581 Q416 581 392 572 Q322 540 322 465 L322 304 L308 304 Q277 304 277 274 L277 272 Q277 241 308 241 L322 241 L322 68 Q322 -8 392 -39 Q413 -47 437 -47 L740 -47 ZM437 14 Q414 14 400 30 Q385 44 385 68 L385 241 L793 241 L793 68 Q793 44 779 30 Q762 14 740 14 L437 14 ZM793 304 L385 304 L385 465 Q385 487 400 502 Q415 518 437 518 L740 518 Q761 518 779 502 Q793 487 793 465 L793 304 ZM405 735 Q411 764 384 772 L382 772 Q351 782 345 753 L321 673 Q317 657 327 646 Q336 635 351 635 L839 635 Q869 635 869 665 Q869 696 839 696 L395 696 L405 735 ZM237 216 Q250 244 221 257 L218 258 Q193 268 179 241 L71 8 Q60 -20 86 -32 L89 -33 Q117 -46 129 -18 L237 216 ZM562 205 Q541 227 518 205 Q498 184 518 161 L617 64 Q639 42 660 64 L661 65 Q682 87 661 108 L562 205 ZM562 473 Q541 494 519 473 L518 471 Q497 451 518 430 L617 331 Q639 308 661 331 Q681 352 661 374 L562 473 ZM176 486 Q176 516 146 516 L144 516 Q114 516 114 486 L114 373 Q114 342 144 342 L146 342 Q176 342 176 373 L176 486 ZM176 741 Q176 772 146 772 L144 772 Q114 772 114 741 L114 628 Q114 599 144 599 L146 599 Q176 599 176 628 L176 741 Z" /><glyph glyph-name="uni6E90" unicode="&#x6e90;" d="M628 258 L628 47 Q628 34 618 22 Q605 11 592 11 Q561 11 561 -21 Q561 -51 592 -51 Q656 -49 681 9 Q689 28 689 47 L689 258 L791 258 Q855 258 880 319 Q889 338 889 357 L889 535 Q889 575 860 604 Q831 632 791 632 L595 632 L595 654 Q595 684 565 684 L563 684 Q532 684 532 654 L532 632 L513 632 Q495 632 475 624 Q414 599 414 535 L414 357 Q414 318 443 286 Q473 258 513 258 L628 258 ZM862 714 Q892 714 892 745 Q892 776 862 776 L413 776 Q393 776 368 767 Q346 756 332 742 Q299 709 297 662 L279 -14 Q277 -45 308 -45 L310 -45 Q339 -47 341 -15 L360 660 Q360 682 376 698 Q391 714 413 714 L862 714 ZM513 320 Q497 320 486 331 Q477 340 477 357 L477 415 L827 415 L827 357 Q827 341 817 331 Q808 320 791 320 L513 320 ZM827 476 L477 476 L477 535 Q477 550 486 560 Q496 570 513 570 L791 570 Q827 570 827 535 L827 476 ZM244 210 Q255 238 228 251 L226 252 Q200 264 187 237 L79 4 Q65 -24 93 -37 L95 -38 Q122 -51 135 -24 L244 210 ZM860 205 Q855 236 825 231 L821 230 Q792 225 796 196 L830 -14 Q835 -45 865 -39 L868 -39 Q898 -34 893 -4 L860 205 ZM514 202 Q514 214 506 225 Q496 234 485 234 L483 234 Q453 236 451 206 Q449 151 439 106 Q428 52 407 13 Q394 -11 418 -27 Q430 -35 442 -30 Q457 -28 462 -14 Q506 70 514 202 ZM195 736 Q195 766 163 766 Q133 766 133 736 L133 623 Q133 592 164 592 Q195 592 195 623 L195 736 ZM195 479 Q195 510 163 510 Q133 510 133 479 L133 368 Q133 338 164 338 Q195 338 195 368 L195 479 Z" /><glyph glyph-name="uni70B9" unicode="&#x70b9;" d="M767 218 Q830 218 858 277 Q865 297 865 315 L865 444 Q865 462 858 482 Q830 541 767 541 L407 541 L407 662 L826 662 Q857 662 857 691 L857 693 Q857 724 826 724 L407 724 L407 763 Q407 794 375 794 Q345 794 345 763 L345 541 L212 541 Q172 541 143 512 Q114 484 114 444 L114 315 Q114 275 143 246 Q172 218 212 218 L767 218 ZM212 279 Q198 279 185 290 Q175 302 175 315 L175 444 Q175 458 185 468 Q196 478 212 478 L767 478 Q802 478 802 444 L802 315 Q802 302 793 290 Q783 279 767 279 L212 279 ZM829 -8 Q841 -36 868 -22 Q895 -11 883 18 L815 156 Q810 168 797 171 Q786 176 774 169 Q747 158 759 129 L829 -8 ZM82 17 Q67 -10 95 -22 Q124 -35 136 -7 L201 130 Q214 157 186 169 L185 170 Q158 183 145 156 L82 17 ZM555 -3 Q555 -34 586 -34 L588 -34 Q618 -34 618 -3 L618 133 Q618 163 588 163 L586 163 Q555 163 555 133 L555 -3 ZM347 -3 Q347 -34 377 -34 L379 -34 Q409 -34 409 -3 L409 133 Q409 163 379 163 L377 163 Q347 163 347 133 L347 -3 Z" /><glyph glyph-name="uni738B" unicode="&#x738b;" d="M500 18 L500 347 L809 347 Q840 347 840 377 L840 379 Q840 410 809 410 L500 410 L500 703 L825 703 Q855 703 855 734 L855 736 Q855 766 825 766 L112 766 Q81 766 81 736 L81 734 Q81 703 112 703 L438 703 L438 410 L127 410 Q97 410 97 379 L97 377 Q97 347 127 347 L438 347 L438 18 L88 18 Q58 18 58 -11 L58 -13 Q58 -44 88 -44 L848 -44 Q879 -44 879 -13 L879 -11 Q879 18 848 18 L500 18 Z" /><glyph glyph-name="uni75DB" unicode="&#x75db;" d="M341 615 Q310 615 310 583 Q310 552 341 552 L746 552 L672 421 L479 421 Q478 427 474 432 L413 514 Q406 524 392 527 Q379 528 370 520 Q346 502 363 477 L405 421 L387 421 Q360 421 342 412 Q300 395 281 351 Q272 332 272 307 L272 -10 Q272 -40 304 -40 Q334 -40 334 -10 L334 82 L543 82 L543 -9 Q543 -39 575 -39 Q606 -39 606 -9 L606 82 L815 82 L815 77 Q815 54 800 39 Q783 24 763 24 L736 24 Q705 24 705 -6 L705 -9 Q705 -39 736 -39 L763 -39 Q837 -39 867 32 Q877 52 877 77 L877 307 Q877 332 867 351 Q849 395 807 412 Q789 421 763 421 L743 421 L825 570 Q834 585 825 601 Q816 615 799 615 L341 615 ZM80 283 Q49 283 49 253 L49 251 Q49 221 80 221 L146 221 L141 -9 Q138 -40 170 -40 Q201 -42 201 -11 L218 622 Q220 646 233 662 Q247 677 270 677 L854 677 Q884 677 884 707 L884 709 Q884 739 854 739 L583 739 L583 763 Q583 794 551 794 Q521 794 521 763 L521 739 L270 739 Q249 739 226 730 Q206 722 190 705 Q157 670 155 624 L153 556 L80 556 Q49 556 49 526 Q49 495 80 495 L152 495 L147 283 L80 283 ZM338 279 L334 278 L334 307 Q334 329 350 344 Q365 360 387 360 L543 360 L543 279 L338 279 ZM606 279 L606 360 L763 360 Q784 360 800 344 Q815 329 815 307 L815 278 Q812 279 809 279 L606 279 ZM543 218 L543 144 L334 144 L334 218 L543 218 ZM815 218 L815 144 L606 144 L606 218 L815 218 Z" /><glyph glyph-name="uni7684" unicode="&#x7684;" d="M55 59 Q55 -5 116 -31 Q134 -39 154 -39 L338 -39 Q356 -39 374 -31 Q436 -5 436 59 L436 583 Q436 601 428 621 Q412 658 374 674 Q355 682 338 682 L257 682 L257 751 Q257 781 225 781 Q194 781 194 751 L194 682 L154 682 Q114 682 85 652 Q55 622 55 583 L55 59 ZM566 736 Q572 748 566 760 Q560 772 549 777 Q521 789 509 762 L470 674 Q464 658 473 645 Q481 630 498 630 L763 630 Q783 630 801 616 Q815 601 815 578 L815 70 Q815 47 801 33 Q783 16 763 16 L654 16 Q624 16 624 -13 L624 -15 Q624 -46 654 -46 L763 -46 Q788 -46 807 -37 Q849 -20 869 25 Q878 49 878 70 L878 578 Q878 599 869 623 Q849 666 807 684 Q784 693 763 693 L545 693 L566 736 ZM118 295 L374 295 L374 59 Q374 43 362 34 Q353 23 338 23 L154 23 Q138 23 128 34 Q118 43 118 59 L118 295 ZM374 358 L118 358 L118 583 Q118 600 128 609 Q138 619 154 619 L338 619 Q352 619 362 609 Q374 601 374 583 L374 358 ZM587 478 Q578 509 547 497 Q517 488 528 459 L623 170 Q633 141 663 152 Q693 162 683 191 L587 478 Z" /><glyph glyph-name="uni77E5" unicode="&#x77e5;" d="M773 -10 Q849 -10 879 60 Q888 80 888 106 L888 623 Q888 647 879 668 Q848 737 773 737 L631 737 Q555 737 524 668 Q515 644 515 623 L515 106 Q515 84 524 60 Q554 -10 631 -10 L773 -10 ZM631 52 Q609 52 593 68 Q578 82 578 106 L578 623 Q578 645 593 659 Q611 675 631 675 L773 675 Q794 675 811 659 Q826 644 826 623 L826 106 Q826 83 811 68 Q796 52 773 52 L631 52 ZM222 341 Q220 324 218 317 Q213 266 194 214 Q177 162 143 106 Q118 62 77 16 Q57 -6 79 -25 L81 -26 Q90 -35 102 -35 Q114 -35 124 -25 Q170 27 197 72 Q234 136 253 191 Q268 232 274 269 L387 12 Q397 -14 427 -3 L429 -3 Q457 10 443 37 L310 341 L416 341 Q446 341 446 372 L446 374 Q446 404 416 404 L288 404 L289 628 L404 628 Q434 628 434 659 Q434 690 404 690 L157 690 L172 735 Q183 763 154 773 L153 774 Q124 782 114 755 L85 667 Q80 654 89 640 Q98 628 114 628 L226 628 L226 404 L91 404 Q60 404 60 374 L60 372 Q60 341 91 341 L222 341 Z" /><glyph glyph-name="uni793E" unicode="&#x793e;" d="M700 614 L700 755 Q700 785 670 785 L668 785 Q637 785 637 755 L637 614 L500 614 Q469 614 469 582 Q469 551 500 551 L637 551 L637 15 L480 15 Q450 15 450 -15 L450 -18 Q450 -48 480 -48 L857 -48 Q888 -48 888 -18 L888 -15 Q888 15 857 15 L700 15 L700 551 L839 551 Q870 551 870 583 Q870 614 839 614 L700 614 ZM215 554 L215 -18 Q215 -48 247 -48 Q277 -48 277 -18 L277 554 L397 554 Q428 554 428 584 L428 586 Q428 617 397 617 L81 617 Q51 617 51 586 L51 584 Q51 554 81 554 L215 554 ZM348 -20 Q348 -48 380 -48 Q412 -48 410 -17 L392 474 Q390 504 360 504 L358 504 Q329 502 329 472 L348 -20 ZM73 -9 Q70 -39 97 -44 L98 -45 Q130 -52 133 -20 Q151 80 159 198 Q165 302 165 426 Q165 457 164 474 Q164 504 133 504 Q103 504 103 473 L104 426 Q104 304 97 202 Q89 88 73 -9 ZM384 701 Q414 701 414 733 Q414 763 384 763 L116 763 Q86 763 86 732 Q86 701 116 701 L384 701 Z" /><glyph glyph-name="uni7A0B" unicode="&#x7a0b;" d="M787 492 Q805 492 822 499 Q839 507 851 520 Q879 547 879 588 L879 686 Q879 706 870 724 Q846 784 787 784 L541 784 Q503 784 476 756 Q448 726 448 686 L448 588 Q448 527 506 499 Q523 492 541 492 L787 492 ZM859 -28 Q889 -28 889 2 L889 4 Q889 34 859 34 L693 34 L693 178 L846 178 Q877 178 877 207 L877 209 Q877 240 846 240 L693 240 L693 369 L841 369 Q870 369 870 400 Q870 430 841 430 L483 430 Q452 430 452 399 Q452 369 483 369 L631 369 L631 240 L478 240 Q447 240 447 209 L447 207 Q447 178 478 178 L631 178 L631 34 L466 34 Q436 34 436 4 L436 2 Q436 -28 466 -28 L859 -28 ZM205 548 L205 -10 Q205 -40 236 -40 L238 -40 Q268 -40 268 -10 L268 548 L375 548 Q405 548 405 579 L405 581 Q405 611 375 611 L268 611 L268 698 L365 705 Q395 707 393 737 L393 739 Q391 771 360 767 L101 748 Q72 745 74 716 L74 714 Q76 682 105 686 L205 693 L205 611 L92 611 Q61 611 61 581 L61 579 Q61 548 92 548 L205 548 ZM541 553 Q530 553 519 564 Q511 574 511 588 L511 686 Q511 702 519 712 Q530 723 541 723 L787 723 Q798 723 807 712 Q816 702 816 686 L816 588 Q816 574 807 564 Q797 553 787 553 L541 553 ZM58 4 Q51 -24 81 -32 L83 -32 Q94 -36 105 -29 Q117 -23 120 -9 Q128 29 134 76 Q140 116 144 166 Q150 230 153 303 Q156 367 156 443 L156 469 Q156 498 124 498 Q94 498 94 467 Q95 459 95 443 Q95 331 87 221 Q77 93 58 4 ZM333 0 Q333 -30 364 -30 L366 -30 Q396 -30 396 0 L396 467 Q396 498 366 498 L364 498 Q333 498 333 467 L333 0 Z" /><glyph glyph-name="uni7B54" unicode="&#x7b54;" d="M729 -45 Q769 -45 798 -15 Q828 14 828 53 L828 156 Q828 196 798 226 Q770 255 729 255 L241 255 Q176 255 151 194 Q142 174 142 156 L142 53 Q142 36 151 16 Q176 -45 241 -45 L729 -45 ZM241 18 Q205 18 205 53 L205 156 Q205 171 215 182 Q226 193 241 193 L729 193 Q744 193 755 182 Q765 172 765 156 L765 53 Q765 38 755 29 Q745 18 729 18 L241 18 ZM86 342 Q68 319 92 301 L94 299 Q118 280 137 304 L213 409 Q226 427 247 437 Q267 448 290 448 L686 448 Q734 448 762 409 L839 304 Q858 281 881 299 L883 301 Q907 318 890 342 L813 447 Q788 476 756 493 Q725 510 686 510 L290 510 Q252 510 219 493 Q187 476 163 447 L86 342 ZM197 727 Q203 738 201 752 Q197 763 185 770 Q158 785 143 759 L107 694 Q99 680 108 664 Q116 649 133 649 L228 649 L228 584 Q228 555 258 555 L260 555 Q291 555 291 584 L291 649 L445 649 Q475 649 475 680 L475 682 Q475 713 445 713 L188 713 L197 727 ZM644 727 Q660 754 633 770 Q606 784 591 759 L554 694 Q545 680 554 664 Q563 649 580 649 L664 649 L664 584 Q664 555 694 555 L697 555 Q726 555 726 584 L726 649 L870 649 Q901 649 901 680 L901 682 Q901 713 870 713 L635 713 L644 727 ZM265 373 Q234 373 234 341 Q234 311 265 311 L706 311 Q736 311 736 342 Q736 373 706 373 L265 373 Z" /><glyph glyph-name="uni7D27" unicode="&#x7d27;" d="M267 385 Q279 414 253 427 L252 428 Q225 440 211 415 L163 322 Q155 307 163 293 Q172 277 190 277 L214 277 L163 181 Q156 165 165 151 Q173 136 191 136 L456 136 L456 69 Q456 38 441 26 Q426 13 404 13 L386 13 Q355 13 355 -17 L355 -20 Q355 -49 386 -49 L404 -49 Q429 -49 449 -41 Q491 -29 510 15 Q519 41 519 69 L519 136 L728 136 Q749 136 773 145 Q789 152 805 168 Q830 199 830 241 L830 268 Q830 298 800 298 L798 298 Q768 298 768 268 L768 241 Q768 223 757 211 Q748 198 728 198 L243 198 L278 268 Q281 273 281 277 L587 277 Q618 277 618 308 L618 310 Q618 340 587 340 L246 340 L267 385 ZM465 764 Q434 764 434 733 Q434 702 465 702 L759 702 Q710 632 647 583 L483 672 Q454 687 441 659 L440 657 Q427 629 453 617 L588 545 Q528 510 441 484 Q412 473 422 446 L422 444 Q429 413 460 423 Q572 457 653 510 L826 419 Q837 412 850 416 Q862 420 867 432 Q882 458 855 473 L708 551 Q792 621 842 721 Q849 736 840 751 Q831 764 815 764 L465 764 ZM350 755 Q350 785 319 785 L316 785 Q286 785 286 755 L286 457 Q286 426 316 426 L319 426 Q350 426 350 457 L350 755 ZM172 735 Q172 765 142 765 L140 765 Q109 765 109 735 L109 469 Q109 439 140 439 L142 439 Q172 439 172 469 L172 735 ZM314 53 Q325 61 328 72 Q332 84 324 96 L323 97 Q308 122 283 107 Q238 80 197 63 L154 46 Q128 36 107 30 Q80 17 89 -9 Q98 -39 127 -29 Q174 -13 223 7 Q271 27 314 53 ZM661 112 Q632 125 620 98 L620 96 Q604 68 634 55 L809 -28 Q836 -38 850 -12 L851 -10 Q863 16 836 31 L661 112 Z" /><glyph glyph-name="uni7EBF" unicode="&#x7ebf;" d="M555 763 Q547 792 518 782 Q486 778 495 745 Q510 685 531 620 L374 604 Q343 601 347 570 Q348 540 380 542 L550 561 Q563 523 572 494 Q584 459 596 429 L372 404 Q341 400 345 370 Q348 339 378 342 L620 368 L628 349 Q655 278 692 203 L653 178 Q551 115 415 69 Q386 57 395 29 Q403 -1 434 9 Q581 60 688 125 L721 147 Q741 107 766 64 Q788 26 815 -18 Q832 -44 858 -28 L859 -27 Q883 -9 869 15 Q814 103 772 184 Q822 223 863 264 Q873 275 873 286 Q873 298 862 308 Q842 329 820 307 Q780 269 743 241 Q716 302 686 373 Q685 374 685 376 L863 394 Q895 400 890 430 Q888 461 858 457 L661 435 Q636 497 614 567 L819 590 Q851 593 847 623 L847 625 Q842 655 813 652 L594 628 Q574 691 555 763 ZM266 735 Q279 763 251 775 L248 777 Q221 789 208 762 L59 438 Q51 423 59 410 Q69 395 86 395 L170 395 L65 187 Q57 171 67 158 Q75 143 92 143 L286 143 Q317 143 317 174 L317 176 Q317 205 286 205 L147 205 L301 513 Q314 541 287 554 L285 555 Q259 569 244 541 L201 456 Q195 458 189 458 L140 458 L266 735 ZM305 -18 Q336 -18 336 13 Q336 43 305 43 L69 43 Q39 43 39 12 Q39 -18 69 -18 L305 -18 ZM801 754 Q801 784 770 784 Q739 784 739 754 L739 706 Q739 676 770 676 Q801 676 801 706 L801 754 Z" /><glyph glyph-name="uni7ECD" unicode="&#x7ecd;" d="M788 -45 Q851 -45 878 16 Q886 35 886 53 L886 251 Q886 269 878 289 Q851 349 788 349 L503 349 Q463 349 433 320 Q404 292 404 251 L404 53 Q404 13 433 -15 Q463 -45 503 -45 L788 -45 ZM503 17 Q488 17 477 28 Q466 38 466 53 L466 251 Q466 268 477 277 Q488 286 503 286 L788 286 Q804 286 814 277 Q824 268 824 251 L824 53 Q824 38 814 28 Q804 17 788 17 L503 17 ZM449 781 Q419 781 419 751 Q419 720 449 720 L525 720 Q509 641 483 578 Q455 509 418 450 Q401 425 425 410 L427 408 Q437 400 449 403 Q462 404 469 416 Q511 479 543 555 Q575 636 588 718 L588 720 L777 720 Q794 720 803 709 Q813 700 813 684 L813 494 Q813 458 777 458 L704 458 Q673 458 673 428 L673 425 Q673 394 704 394 L777 394 Q840 394 867 456 Q875 475 875 494 L875 684 Q875 702 867 723 Q851 760 815 774 Q796 781 777 781 L449 781 ZM290 727 Q304 754 276 766 L274 768 Q245 781 233 754 L83 430 Q76 415 85 401 Q93 387 111 387 L194 387 L88 179 Q81 163 90 150 Q98 134 116 134 L311 134 Q342 134 342 166 Q342 196 311 196 L170 196 L324 504 Q338 532 311 546 Q284 561 269 534 L225 447 Q220 449 213 449 L164 449 L290 727 ZM329 -28 Q359 -28 359 3 L359 5 Q359 35 329 35 L93 35 Q62 35 62 5 L62 3 Q62 -28 93 -28 L329 -28 Z" /><glyph glyph-name="uni804C" unicode="&#x804c;" d="M333 112 L333 -11 Q333 -40 365 -40 Q395 -40 395 -11 L395 121 L420 124 Q449 128 446 158 L446 160 Q442 190 411 187 L395 184 L395 716 L402 716 Q432 716 432 745 L432 747 Q432 778 402 778 L96 778 Q66 778 66 747 L66 745 Q66 716 96 716 L102 716 L102 143 L82 141 Q51 134 56 106 L56 104 Q60 74 91 77 L333 112 ZM771 301 Q788 301 808 308 Q869 336 869 397 L869 687 Q869 727 840 756 Q810 785 771 785 L575 785 Q536 785 506 756 Q476 727 476 687 L476 397 Q476 336 537 308 Q556 301 575 301 L771 301 ZM575 362 Q559 362 549 373 Q539 383 539 397 L539 687 Q539 701 549 712 Q559 723 575 723 L771 723 Q786 723 795 712 Q807 703 807 687 L807 397 Q807 381 795 373 Q785 362 771 362 L575 362 ZM333 308 L333 176 L165 151 L165 308 L333 308 ZM165 371 L165 513 L333 513 L333 371 L165 371 ZM165 576 L165 716 L333 716 L333 576 L165 576 ZM591 214 Q597 243 563 247 Q535 252 529 223 Q510 106 466 16 Q456 -9 479 -24 L481 -25 Q493 -30 505 -27 Q518 -24 523 -11 Q571 88 591 214 ZM809 229 Q801 259 771 248 Q742 240 750 209 L820 -10 Q830 -38 858 -30 L859 -29 Q890 -21 879 8 L809 229 Z" /><glyph glyph-name="uni8350" unicode="&#x8350;" d="M79 336 Q54 321 70 295 Q84 267 111 282 Q151 305 194 337 L194 -17 Q194 -47 224 -47 L227 -47 Q257 -47 257 -17 L257 375 Q257 381 254 386 Q316 443 363 510 L852 510 Q882 510 882 540 L882 542 Q882 573 852 573 L402 573 L408 583 Q414 595 410 608 Q408 618 394 626 Q367 639 353 613 Q343 593 329 573 L97 573 Q68 573 68 542 L68 540 Q68 510 97 510 L286 510 Q263 482 237 456 Q170 389 79 336 ZM408 436 Q378 436 378 406 L378 404 Q378 374 408 374 L754 374 Q729 333 708 304 Q682 269 654 240 L652 238 L364 238 Q333 238 333 207 L333 205 Q333 176 364 176 L646 176 L646 67 Q646 45 630 30 Q616 14 593 14 L538 14 Q507 14 507 -17 Q507 -47 538 -47 L593 -47 Q619 -47 638 -39 Q682 -20 700 23 Q709 42 709 67 L709 176 L861 176 Q891 176 891 205 L891 207 Q891 238 861 238 L736 238 Q789 303 830 392 Q838 407 828 421 Q819 436 803 436 L408 436 ZM289 671 L657 671 L657 646 Q657 616 687 616 L690 616 Q720 616 720 646 L720 671 L858 671 Q889 671 889 701 L889 703 Q889 734 858 734 L720 734 L720 760 Q720 790 690 790 L687 790 Q657 790 657 760 L657 734 L289 734 L289 760 Q289 790 259 790 Q229 790 229 760 L229 734 L88 734 Q58 734 58 703 L58 701 Q58 671 88 671 L229 671 L229 646 Q229 616 259 616 Q289 616 289 646 L289 671 Z" /><glyph glyph-name="uni89C6" unicode="&#x89c6;" d="M802 258 Q802 227 834 227 Q863 227 863 258 L863 685 Q863 726 835 755 Q807 783 766 783 L526 783 Q485 783 456 755 Q428 726 428 685 L428 258 Q428 227 459 227 Q490 227 490 258 L490 685 Q490 722 526 722 L766 722 Q802 722 802 685 L802 258 ZM179 560 L179 -15 Q179 -46 209 -46 L211 -46 Q241 -46 241 -15 L241 560 L342 560 Q373 560 373 590 L373 592 Q373 622 342 622 L79 622 Q49 622 49 592 L49 590 Q49 560 79 560 L179 560 ZM669 604 Q669 635 639 635 L636 635 Q607 635 607 604 L607 416 Q607 322 589 259 Q573 193 542 144 Q510 95 470 66 Q437 42 402 25 Q378 11 389 -15 L390 -16 Q393 -29 407 -33 Q419 -38 431 -31 Q469 -11 510 17 Q559 54 593 108 Q628 162 649 237 Q669 310 669 416 L669 604 ZM294 -15 Q294 -46 325 -46 Q356 -46 356 -15 L356 484 Q356 514 324 514 Q294 514 294 484 L294 -15 ZM66 -10 Q64 -39 94 -41 L96 -41 Q127 -41 127 -11 L140 484 Q140 514 110 514 L108 514 Q78 516 77 485 L66 -10 ZM856 -47 Q887 -47 887 -16 L887 -14 Q887 16 856 16 L772 16 Q749 16 735 31 Q719 46 719 69 L719 253 Q719 283 688 283 Q657 283 657 253 L657 69 Q657 45 665 24 Q686 -20 727 -38 Q748 -47 772 -47 L856 -47 ZM330 706 Q361 706 361 736 L361 738 Q361 769 330 769 L91 769 Q60 769 60 738 L60 736 Q60 706 91 706 L330 706 Z" /><glyph glyph-name="uni89E3" unicode="&#x89e3;" d="M228 116 L228 -14 Q228 -45 259 -45 L261 -45 Q291 -45 291 -14 L291 116 L373 116 L373 -16 Q373 -47 403 -47 L405 -47 Q435 -47 435 -16 L435 486 Q435 503 426 524 Q402 572 349 582 L391 680 Q399 695 390 708 Q381 723 363 723 L194 723 L199 733 Q210 763 183 772 L181 773 Q153 787 140 759 L116 702 Q110 687 119 674 Q128 660 145 660 L316 660 L281 583 L189 583 Q165 583 148 576 Q131 570 116 556 Q85 529 84 488 L60 -16 Q58 -47 91 -48 Q121 -50 123 -20 L129 116 L228 116 ZM591 392 Q599 421 569 430 Q540 436 532 409 L508 320 Q506 305 514 295 Q523 282 538 282 L662 282 L662 161 L502 161 Q471 161 471 131 L471 129 Q471 100 502 100 L662 100 L662 -16 Q662 -47 693 -47 L695 -47 Q725 -47 725 -16 L725 100 L856 100 Q886 100 886 129 L886 131 Q886 161 856 161 L725 161 L725 282 L833 282 Q863 282 863 313 Q863 344 833 344 L725 344 L725 412 Q725 440 695 440 L693 440 Q662 440 662 412 L662 344 L580 344 L591 392 ZM519 766 Q489 766 489 736 L489 734 Q489 703 519 703 L588 703 Q569 600 489 529 Q468 510 483 488 Q493 476 505 475 Q516 475 528 483 Q631 573 650 700 L650 703 L775 703 Q790 703 801 693 Q811 684 811 668 L811 551 Q811 536 801 527 Q788 516 775 516 L747 516 Q716 516 716 486 L716 484 Q716 454 747 454 L775 454 Q793 454 813 461 Q874 489 874 551 L874 668 Q874 732 813 758 Q795 766 775 766 L519 766 ZM228 329 L228 178 L131 178 L138 329 L228 329 ZM291 329 L373 329 L373 178 L291 178 L291 329 ZM228 390 L140 390 L146 484 Q147 500 159 511 Q170 522 189 522 L228 522 L228 390 ZM373 390 L291 390 L291 522 L328 522 Q347 522 360 511 Q373 502 373 486 L373 390 Z" /><glyph glyph-name="uni8BAF" unicode="&#x8baf;" d="M337 772 Q306 772 306 741 L306 739 Q306 709 337 709 L439 709 L439 414 L330 414 Q300 414 300 384 L300 382 Q300 352 330 352 L439 352 L439 -5 Q439 -36 470 -36 L472 -36 Q502 -36 502 -5 L502 352 L666 352 Q697 352 697 382 L697 384 Q697 414 666 414 L502 414 L502 709 L685 709 Q707 709 723 694 Q737 681 737 656 L737 79 Q737 59 746 34 Q774 -33 847 -36 Q861 -36 869 -28 Q879 -18 879 -5 L879 -3 Q879 26 850 26 Q829 28 815 42 Q800 56 800 79 L800 656 Q800 677 790 701 Q771 745 729 763 Q706 772 685 772 L337 772 ZM87 562 Q57 562 57 531 L57 529 Q57 499 87 499 L121 499 Q135 499 148 489 Q158 480 158 464 L158 61 Q158 21 186 -9 Q214 -38 254 -38 L276 -38 Q307 -38 307 -6 Q307 25 276 25 L254 25 Q220 25 220 61 L220 464 Q220 527 159 554 Q141 562 121 562 L87 562 ZM204 763 Q204 794 173 794 L171 794 Q142 794 142 763 L142 659 Q142 629 171 629 L173 629 Q204 629 204 659 L204 763 Z" /><glyph glyph-name="uni8D44" unicode="&#x8d44;" d="M414 727 Q426 754 399 768 Q371 781 358 754 L328 689 Q321 674 329 659 Q338 646 355 646 L493 646 Q489 631 483 616 Q479 607 471 589 Q428 509 354 470 Q336 461 304 449 Q278 440 285 414 L286 412 Q288 399 299 392 Q313 386 324 389 L384 416 Q470 460 519 548 L839 374 Q867 359 880 386 Q896 412 869 428 L551 601 Q547 603 546 603 Q551 619 556 639 Q557 641 557 646 L784 646 L772 610 Q768 598 774 585 Q780 574 792 570 Q820 562 830 589 L855 667 Q861 682 852 694 Q841 707 826 707 L405 707 L414 727 ZM772 133 Q772 104 802 104 L804 104 Q835 104 835 133 L835 249 Q835 273 826 295 Q805 338 763 355 Q743 364 719 364 L258 364 Q238 364 213 355 Q143 325 143 249 L143 133 Q143 104 175 104 Q205 104 205 133 L205 249 Q205 272 220 286 Q235 302 258 302 L719 302 Q742 302 757 286 Q772 272 772 249 L772 133 ZM122 16 Q93 9 97 -20 L97 -22 Q101 -52 133 -47 Q176 -39 213 -30 Q259 -20 297 -7 Q342 7 376 25 Q415 43 440 67 L453 79 L842 -42 Q871 -50 880 -23 L880 -21 Q891 8 862 16 L487 132 Q499 158 503 187 Q507 208 508 226 Q508 240 499 248 Q491 258 477 258 L475 258 Q447 258 445 230 Q441 196 435 177 Q426 140 387 108 Q349 77 280 53 Q247 43 210 34 Q168 24 122 16 ZM210 510 Q226 536 199 551 L198 552 Q171 568 157 542 L90 432 Q75 407 101 390 L103 389 Q129 375 144 400 L210 510 ZM219 730 Q219 761 187 761 Q158 761 158 730 L158 659 Q158 628 188 628 Q219 628 219 659 L219 730 Z" /><glyph glyph-name="uni8D5B" unicode="&#x8d5b;" d="M689 592 L689 603 Q689 633 659 633 L657 633 Q626 633 626 603 L626 592 L333 592 L333 603 Q333 633 303 633 L301 633 Q272 633 272 603 L272 592 L152 592 Q122 592 122 562 L122 560 Q122 529 152 529 L272 529 L272 490 L163 490 Q132 490 132 459 L132 457 Q132 427 163 427 L272 427 L272 394 L117 394 Q86 394 86 363 L86 361 Q86 332 117 332 L272 332 Q255 316 221 295 Q168 261 94 237 Q66 229 75 199 Q83 168 113 179 Q176 199 224 226 Q221 215 221 203 L221 122 Q221 91 252 91 L254 91 Q284 91 284 122 L284 203 Q284 223 304 223 L662 223 Q681 223 681 203 L681 122 Q681 91 712 91 Q743 91 743 122 L743 203 Q743 227 730 248 L830 187 Q857 172 872 198 L872 200 Q890 224 862 241 L711 332 L843 332 Q872 332 872 361 L872 363 Q872 394 843 394 L689 394 L689 427 L797 427 Q827 427 827 457 L827 459 Q827 490 797 490 L689 490 L689 529 L808 529 Q838 529 838 560 L838 562 Q838 592 808 592 L689 592 ZM818 633 Q818 603 849 603 L851 603 Q881 603 881 633 L881 637 Q881 655 872 675 Q864 693 852 706 Q824 736 782 736 L511 736 L511 763 Q511 794 480 794 Q449 794 449 763 L449 736 L177 736 Q113 736 88 675 Q79 656 79 637 L79 633 Q79 603 109 603 L112 603 Q141 603 141 633 L141 637 Q141 651 152 664 Q164 674 177 674 L782 674 Q796 674 808 664 Q818 651 818 637 L818 633 ZM510 162 Q516 176 512 187 Q508 200 496 204 L492 205 Q469 218 454 193 Q443 170 425 148 Q386 99 315 68 Q285 54 248 44 Q218 35 179 28 Q151 22 156 -7 L157 -8 Q158 -22 169 -29 Q179 -36 192 -33 Q233 -25 267 -14 Q307 -3 339 10 Q419 43 464 94 Q465 92 471 90 L764 -30 Q792 -42 803 -14 L804 -13 Q817 15 787 26 L500 145 L510 162 ZM344 318 Q349 324 350 332 L599 332 Q604 323 611 321 L668 286 L311 286 Q323 296 344 318 ZM333 529 L626 529 L626 490 L333 490 L333 529 ZM333 427 L626 427 L626 394 L333 394 L333 427 Z" /><glyph glyph-name=".notdef" unicode="&#x8ddf;" d="M775 191 Q775 192 776 192 L856 245 Q866 253 868 265 Q871 277 863 287 L862 290 Q845 315 821 298 L742 244 L682 344 L760 344 Q782 344 805 354 Q847 373 867 415 Q875 436 875 460 L875 669 Q875 692 867 715 Q848 757 805 776 Q783 784 760 784 L552 784 Q529 784 508 776 Q439 744 439 669 L439 69 Q439 -6 508 -38 Q527 -47 552 -47 L619 -47 Q650 -47 650 -15 Q650 15 619 15 L552 15 Q532 15 516 31 Q500 46 500 69 L500 344 L612 344 Q612 340 615 334 L828 -18 Q844 -46 869 -29 L871 -29 Q898 -11 882 13 L775 191 ZM166 774 Q133 774 107 751 Q84 728 84 693 L84 511 Q84 477 107 454 Q132 429 166 429 L226 429 L226 59 L156 41 L156 335 Q156 365 125 365 L123 365 Q93 365 93 335 L93 26 L84 24 Q54 16 62 -13 L62 -15 Q71 -43 99 -37 L363 29 Q393 35 387 65 L386 67 Q378 95 349 88 L288 73 L288 261 L365 261 Q396 261 396 293 Q396 322 365 322 L288 322 L288 429 L302 429 Q337 429 360 454 Q384 476 384 511 L384 693 Q384 729 360 751 Q337 774 302 774 L166 774 ZM813 535 L813 460 Q813 438 797 422 Q782 407 760 407 L500 407 L500 535 L813 535 ZM813 595 L500 595 L500 669 Q500 691 516 707 Q532 723 552 723 L760 723 Q782 723 797 707 Q813 692 813 669 L813 595 ZM302 713 Q321 713 321 693 L321 511 Q321 492 302 492 L166 492 Q146 492 146 511 L146 693 Q146 713 166 713 L302 713 Z" /><glyph glyph-name=".notdef" unicode="&#x9002;" d="M295 748 Q266 746 266 718 L266 716 Q268 684 298 686 L503 693 L503 574 L258 574 Q228 574 228 542 Q228 511 258 511 L503 511 L503 430 L371 430 Q348 430 328 421 Q286 402 268 361 Q259 337 259 317 L259 208 Q259 188 268 165 Q286 124 328 106 Q351 96 371 96 L697 96 Q720 96 739 105 Q808 133 808 208 L808 317 Q808 342 800 361 Q781 402 739 421 Q721 430 697 430 L565 430 L565 511 L809 511 Q840 511 840 543 Q840 574 809 574 L565 574 L565 696 L773 704 Q803 706 803 737 Q801 767 771 767 L295 748 ZM322 317 Q322 339 335 353 Q350 368 371 368 L697 368 Q718 368 732 353 Q746 339 746 317 L746 208 Q746 187 732 172 Q718 159 697 159 L371 159 Q349 159 335 172 Q322 188 322 208 L322 317 ZM817 -42 Q848 -42 848 -10 Q848 21 817 21 L206 21 Q186 21 170 35 Q155 52 155 73 L155 531 Q155 562 124 562 Q93 562 93 531 L93 73 Q93 -3 162 -33 Q181 -42 206 -42 L817 -42 ZM155 747 Q155 778 124 778 Q93 778 93 747 L93 649 Q93 619 124 619 Q155 619 155 649 L155 747 Z" /><glyph glyph-name=".notdef" unicode="&#x91cf;" d="M234 424 Q201 424 175 401 Q151 376 151 342 L151 259 Q151 224 175 200 Q200 177 234 177 L439 177 L439 133 L147 133 Q116 133 116 103 Q116 72 147 72 L439 72 L439 23 L104 23 Q74 23 74 -9 Q74 -39 104 -39 L837 -39 Q867 -39 867 -8 Q867 23 837 23 L502 23 L502 72 L794 72 Q824 72 824 104 Q824 133 794 133 L502 133 L502 177 L707 177 Q741 177 766 200 Q789 224 789 259 L789 342 Q789 377 766 401 Q740 424 707 424 L234 424 ZM234 793 Q201 793 175 770 Q151 745 151 713 L151 626 Q151 592 175 569 Q199 545 234 545 L707 545 Q742 545 766 569 Q789 592 789 626 L789 713 Q789 746 766 770 Q740 793 707 793 L234 793 ZM837 452 Q867 452 867 484 Q867 514 837 514 L104 514 Q74 514 74 483 Q74 452 104 452 L837 452 ZM234 607 Q213 607 213 626 L213 638 L727 638 L727 626 Q727 607 707 607 L234 607 ZM707 731 Q715 731 722 725 Q727 721 727 713 L727 700 L213 700 L213 713 Q213 721 220 725 Q225 731 234 731 L707 731 ZM234 239 Q213 239 213 259 L213 270 L439 270 L439 239 L234 239 ZM502 239 L502 270 L727 270 L727 259 Q727 239 707 239 L502 239 ZM439 361 L439 331 L213 331 L213 342 Q213 361 234 361 L439 361 ZM727 331 L502 331 L502 361 L707 361 Q727 361 727 342 L727 331 Z" /><glyph glyph-name=".notdef" unicode="&#x957f;" d="M417 -47 Q447 -47 447 -16 L447 -14 Q447 16 417 16 L316 16 Q292 16 278 31 Q262 46 262 69 L262 388 L508 388 L510 383 Q511 380 513 377 L797 -18 Q814 -42 840 -25 L842 -24 Q865 -5 847 18 L583 388 L846 388 Q876 388 876 419 L876 421 Q876 451 846 451 L262 451 L262 754 Q262 783 233 783 L231 783 Q200 783 200 754 L200 451 L91 451 Q61 451 61 421 L61 419 Q61 388 91 388 L200 388 L200 69 Q200 44 209 24 Q230 -20 271 -38 Q289 -47 316 -47 L417 -47 ZM820 698 Q847 715 829 742 Q813 766 787 752 Q689 691 577 653 Q459 612 343 591 Q313 584 319 555 Q325 525 354 531 Q473 553 599 595 Q718 637 820 698 Z" /><glyph glyph-name=".notdef" unicode="&#x95ee;" d="M371 172 Q355 172 346 183 Q335 193 335 208 L335 485 Q335 501 346 511 Q357 521 371 521 L579 521 Q592 521 604 511 Q615 501 615 485 L615 208 Q615 193 604 183 Q594 172 579 172 L371 172 ZM579 110 Q618 110 648 140 Q677 169 677 208 L677 485 Q677 525 648 554 Q618 583 579 583 L371 583 Q331 583 302 554 Q273 525 273 485 L273 208 Q273 169 302 140 Q331 110 371 110 L579 110 ZM655 15 Q625 15 625 -16 Q625 -47 655 -47 L732 -47 Q758 -47 777 -38 Q819 -20 839 24 Q847 44 847 68 L847 674 Q847 699 839 718 Q807 790 732 790 L283 790 Q252 790 252 759 L252 757 Q252 727 283 727 L732 727 Q753 727 769 710 Q785 695 785 674 L785 68 Q785 45 769 31 Q754 15 732 15 L655 15 ZM102 -16 Q102 -47 133 -47 Q164 -47 164 -16 L164 574 Q164 604 132 604 Q102 604 102 574 L102 -16 ZM102 697 Q102 666 133 666 Q164 666 164 697 L164 760 Q164 790 132 790 Q102 790 102 760 L102 697 Z" /><glyph glyph-name=".notdef" unicode="&#x9738;" d="M90 160 Q90 131 109 115 Q128 96 155 96 L262 96 L262 64 L103 64 Q91 64 84 52 Q74 39 83 25 Q92 9 109 9 L262 9 L262 -12 Q262 -43 291 -43 L293 -43 Q324 -43 324 -12 L324 9 L476 9 Q497 9 506 29 Q517 64 480 64 L324 64 L324 96 L432 96 Q460 96 477 115 Q497 133 497 160 L497 198 Q497 225 477 244 Q457 264 432 264 L324 264 L324 277 Q324 283 323 286 L384 286 Q418 286 440 306 Q464 325 464 357 L464 376 L476 376 Q492 376 502 389 Q510 402 503 415 Q497 428 480 428 L464 428 Q462 457 434 457 L432 457 Q403 457 401 428 L183 428 Q182 457 153 457 Q124 457 122 428 L104 428 Q89 428 83 415 Q75 401 84 388 Q93 376 109 376 L122 376 L122 357 Q122 325 145 306 Q169 286 203 286 L263 286 Q262 283 262 277 L262 264 L155 264 Q130 264 109 244 Q90 226 90 198 L90 160 ZM562 -43 Q593 -43 593 -12 L593 76 L809 76 L809 -12 Q809 -43 840 -43 Q871 -43 871 -12 L871 360 Q871 394 848 418 Q824 441 790 441 L612 441 Q578 441 554 418 Q530 394 530 360 L530 -12 Q530 -43 560 -43 L562 -43 ZM132 787 Q101 787 101 758 L101 756 Q101 726 132 726 L447 726 L447 695 L173 695 Q139 695 116 671 Q92 647 92 615 L92 492 Q92 461 122 461 L124 461 Q155 461 155 492 L155 615 Q155 623 159 628 Q166 632 173 632 L447 632 L447 488 Q447 457 479 457 Q510 457 510 488 L510 632 L785 632 Q793 632 799 628 Q806 622 806 615 L806 492 Q806 461 836 461 L838 461 Q867 461 867 492 L867 615 Q867 647 844 671 Q818 695 785 695 L510 695 L510 726 L827 726 Q857 726 857 756 L857 758 Q857 787 827 787 L132 787 ZM593 231 L809 231 L809 137 L593 137 L593 231 ZM809 293 L593 293 L593 360 Q593 379 612 379 L790 379 Q809 379 809 360 L809 293 ZM587 531 Q556 531 556 501 L556 499 Q556 469 587 469 L733 469 Q763 469 763 499 L763 501 Q763 531 733 531 L587 531 ZM224 531 Q195 531 195 501 L195 499 Q195 469 224 469 L371 469 Q402 469 402 499 L402 501 Q402 531 371 531 L224 531 ZM587 610 Q556 610 556 579 Q556 548 587 548 L733 548 Q763 548 763 580 Q763 610 733 610 L587 610 ZM224 610 Q195 610 195 579 Q195 548 224 548 L371 548 Q402 548 402 580 Q402 610 371 610 L224 610 ZM190 345 Q183 350 183 357 L183 376 L401 376 L401 357 Q401 340 384 340 L203 340 Q195 340 190 345 ZM324 157 L324 201 L432 201 Q434 201 434 198 L434 160 Q434 157 432 157 L324 157 ZM153 198 Q153 201 155 201 L262 201 L262 157 L155 157 Q153 157 153 160 L153 198 Z" /><glyph glyph-name=".notdef" unicode="&#x9891;" d="M508 779 Q477 779 477 748 L477 746 Q477 717 508 717 L669 717 L638 606 L588 606 Q525 606 499 545 Q491 529 491 507 L491 197 Q491 167 520 167 L522 167 Q553 167 553 197 L553 507 Q553 524 563 533 Q573 543 588 543 L779 543 Q792 543 805 533 Q815 524 815 507 L815 197 Q815 167 845 167 L847 167 Q877 167 877 197 L877 507 Q877 547 848 576 Q818 606 779 606 L703 606 L733 713 L733 717 L860 717 Q890 717 890 746 L890 748 Q890 779 860 779 L508 779 ZM297 502 L297 638 L403 638 Q434 638 434 668 L434 671 Q434 701 403 701 L297 701 L297 758 Q297 789 268 789 L265 789 Q235 789 235 758 L235 502 L167 502 L167 700 Q167 730 136 730 L133 730 Q103 730 103 700 L103 502 L100 502 Q70 502 70 471 L70 468 Q70 438 100 438 L413 438 Q444 438 444 468 L444 471 Q444 502 413 502 L297 502 ZM721 435 Q721 448 713 457 Q703 466 690 466 Q661 466 659 437 Q656 360 645 303 Q632 232 607 179 Q583 127 545 84 Q531 70 514 52 Q502 40 481 23 Q459 4 476 -20 L478 -21 Q485 -31 499 -33 Q510 -34 521 -26 Q563 8 592 43 Q634 88 664 150 Q674 176 682 196 L827 -17 Q835 -28 847 -30 Q860 -33 871 -25 Q895 -7 878 16 L713 259 Q709 266 702 268 Q710 306 715 350 Q719 389 721 435 ZM462 313 Q464 328 457 337 Q452 346 438 350 Q408 358 402 330 Q373 234 326 171 Q275 104 193 62 Q153 41 90 22 Q61 11 70 -15 L70 -18 Q80 -47 108 -38 Q179 -16 227 7 Q288 39 337 86 Q380 129 412 190 Q439 241 462 313 ZM299 374 Q299 404 268 404 Q237 404 237 374 L237 178 Q237 147 269 147 Q299 147 299 178 L299 374 ZM186 335 Q191 348 181 358 Q175 369 161 371 Q133 377 126 348 Q107 265 71 191 Q58 162 86 151 L88 150 Q97 145 110 148 Q124 151 129 164 Q137 180 145 203 L161 243 Q178 296 186 335 Z" /><glyph glyph-name=".notdef" unicode="&#xff0c;" d="M112 -62 L187 172 L252 151 L177 -80 L112 -62 Z" /></font>
</defs>
</svg>
